#VERSION:0.81;
#TITLE:Pursuing My True Self;
#SUBTITLE:;
#ARTIST:目黒将司;
#TITLETRANSLIT:;
#SUBTITLETRANSLIT:;
#ARTISTTRANSLIT:Meguro Shoji;
#GENRE:;
#ORIGIN:;
#CREDIT:;
#BANNER:;
#BACKGROUND:;
#PREVIEWVID:;
#JACKET:;
#CDIMAGE:;
#DISCIMAGE:;
#LYRICSPATH:;
#CDTITLE:;
#MUSIC:[Low Speed] - Pursuing My True Self.mp3;
#OFFSET:1.311;
#SAMPLESTART:24.907;
#SAMPLELENGTH:12.000;
#SELECTABLE:YES;
#BPMS:0.000=119.000;
#STOPS:;
#DELAYS:;
#WARPS:;
#TIMESIGNATURES:0.000=4=4;
#TICKCOUNTS:0.000=4;
#COMBOS:0.000=1;
#SPEEDS:0.000=1.000=0.000=0;
#SCROLLS:0.000=1.000;
#FAKES:;
#LABELS:0.000=Song Start;
#BGCHANGES:3.000=[Low Speed] - Pursuing My True Self.avi=1.000=0=0=0=StretchNoLoop====,
99999=-nosongbg-=1.000=0=0=0 // don't automatically add -songbackground-
;
#KEYSOUNDS:;
#ATTACKS:
;

//---------------dance-single - ----------------
#NOTEDATA:;
#CHARTNAME:;
#STEPSTYPE:dance-single;
#DESCRIPTION:;
#CHARTSTYLE:Dance;
#DIFFICULTY:Beginner;
#METER:1;
#RADARVALUES:0.061,0.048,0.000,0.000,0.000,37.000,0.000,0.000,0.000,0.000,0.000,0.000,0.000,0.061,0.048,0.000,0.000,0.000,37.000,0.000,0.000,0.000,0.000,0.000,0.000,0.000;
#CREDIT:.42;
#NOTES:
0000
0000
0000
0000
,
0000
0000
0000
0000
,
0000
0000
0000
0000
,
0000
0000
0000
0000
,
0000
0000
0000
0000
,
0100
0000
0000
0000
,
0100
0000
0000
0000
,
1000
0000
0000
0000
,
1000
0000
0000
0000
,
0010
0000
0000
0000
,
0010
0000
0000
0000
,
0001
0000
0000
0000
,
0001
0000
0000
0000
,
1000
0000
0000
0000
,
0001
0000
0000
0000
,
1000
0000
0000
0000
,
0001
0000
0000
0000
,
0010
0000
0000
0000
,
0100
0000
0000
0000
,
0001
0000
0000
0000
,
1000
0000
0000
0000
,
0001
0000
0000
0000
,
0001
0000
0000
0000
,
1000
0000
0000
0000
,
0100
0000
0000
0000
,
0010
0000
0000
0000
,
0001
0000
0000
0000
,
1000
0000
0000
0000
,
1000
0000
0000
0000
,
0001
0000
0000
0000
,
1000
0000
0000
0000
,
0010
0000
0000
0000
,
0010
0000
0000
0000
,
1000
0000
0000
0000
,
0001
0000
0000
0000
,
0100
0000
0000
0000
,
0100
0000
0000
0000
,
0010
0000
0000
0000
,
0000
0000
0000
0000
,
0001
0000
1000
0000
,
0000
0000
0000
0000
,
1000
0000
0001
0000
;

//---------------dance-single - ----------------
#NOTEDATA:;
#CHARTNAME:;
#STEPSTYPE:dance-single;
#DESCRIPTION:;
#CHARTSTYLE:Dance;
#DIFFICULTY:Easy;
#METER:2;
#RADARVALUES:0.149,0.145,0.012,0.023,0.000,87.000,1.000,2.000,0.000,0.000,0.000,0.000,0.000,0.149,0.145,0.012,0.023,0.000,87.000,1.000,2.000,0.000,0.000,0.000,0.000,0.000;
#CREDIT:.42;
#NOTES:
0000
0000
0000
0000
,
0000
0000
0000
0000
,
0000
0000
0000
0000
,
0000
0000
0000
0000
,
0000
0000
0000
0000
,
1000
0000
1000
0000
,
0001
0000
0001
0000
,
1000
0000
0100
0000
,
0001
0000
1000
0000
,
0001
0000
0001
0000
,
1000
0000
1000
0000
,
0001
0000
0010
0000
,
1000
0000
0001
0000
,
0100
0000
0100
0000
,
1000
0010
0001
0000
,
0010
0000
0010
0000
,
1000
0100
0001
0000
,
1000
0000
0001
0000
,
1000
0010
0100
0000
,
0001
0000
1000
0000
,
0001
0010
0100
0010
,
0100
0000
0010
0000
,
0001
1000
1000
0000
,
0010
0000
0100
0000
,
1000
0001
0001
0000
,
0010
0000
1000
0000
,
0100
0100
0100
0000
,
0001
0000
0010
0000
,
2000
0000
0000
3000
,
1001
0000
0001
0000
,
1000
0100
0001
0100
,
1000
0000
0001
0000
,
0100
1000
0010
0001
,
0100
0000
1000
0000
,
0001
0001
0010
0000
,
1000
0100
0001
0000
,
1000
0010
0001
0000
,
0200
0000
0000
0000
,
0300
0000
0000
0010
,
0001
0001
1000
0000
,
0000
0000
0000
0100
,
1000
1000
0001
0000
;

//---------------dance-single - ----------------
#NOTEDATA:;
#CHARTNAME:;
#STEPSTYPE:dance-single;
#DESCRIPTION:;
#CHARTSTYLE:Dance;
#DIFFICULTY:Medium;
#METER:4;
#RADARVALUES:0.247,0.265,0.012,0.058,0.000,143.000,1.000,5.000,0.000,0.000,0.000,0.000,0.000,0.247,0.265,0.012,0.058,0.000,143.000,1.000,5.000,0.000,0.000,0.000,0.000,0.000;
#CREDIT:.42;
#NOTES:
0000
0000
0000
0000
,
0000
0000
0000
0000
,
0000
0000
0000
0000
,
0000
0000
0000
0000
,
0000
0000
0000
0000
,
0001
1000
0002
0000
,
1003
1000
0100
0000
,
0010
0000
0001
0100
1000
0000
0000
0000
,
0010
0000
1000
0100
0001
0000
0000
0000
,
1000
0001
2000
0000
,
3001
0001
0010
0000
,
0100
0000
1000
0010
0001
0000
0000
0000
,
0100
0000
0001
0010
1000
0000
0000
0000
,
0100
0000
0001
0000
1000
0100
0100
0000
,
1000
0000
0010
0000
0001
0100
0100
0000
,
1000
1000
0001
0001
,
1000
0000
0100
0000
0010
0001
0100
0000
,
0010
0000
1000
0000
0001
0010
0010
0000
,
0001
0000
0100
0000
1000
0010
0010
0000
,
0001
0001
1000
1000
,
0001
0000
0010
0000
0100
1000
0020
0000
,
0130
0000
0100
0001
1000
0000
0100
0000
,
0001
0000
0010
0000
1000
0001
0001
0000
,
0100
0000
0010
0010
0100
0000
0010
0000
,
1000
0001
0002
0103
,
0010
0000
0010
1000
0001
0000
0010
0000
,
1000
0000
0100
0000
0001
1000
1000
0000
,
0010
0000
0100
0100
0010
0000
0100
0000
,
0010
0000
0000
0100
,
1001
0001
1000
1000
,
0001
0100
1000
1000
,
0010
0000
0100
0001
,
1000
0100
0001
0000
,
1000
1000
0001
0001
,
1000
0010
0001
0001
,
0100
0100
0010
0000
,
0001
0010
0000
2000
,
0100
0001
0000
0001
,
3000
0000
0000
0010
,
0100
0000
0001
0010
1000
0000
0000
0000
,
0000
0000
0000
0100
,
0010
0000
1000
0100
0001
0000
0000
0000
;

//---------------dance-single - ----------------
#NOTEDATA:;
#CHARTNAME:;
#STEPSTYPE:dance-single;
#DESCRIPTION:;
#CHARTSTYLE:Dance;
#DIFFICULTY:Hard;
#METER:6;
#RADARVALUES:0.357,0.337,0.023,0.093,0.046,205.000,2.000,8.000,0.000,0.000,0.000,0.000,0.000,0.357,0.337,0.023,0.093,0.046,205.000,2.000,8.000,0.000,0.000,0.000,0.000,0.000;
#CREDIT:.42;
#NOTES:
0000
0000
0000
0000
,
0000
0000
0000
0000
,
0000
0000
0000
0000
,
0000
0000
0000
0000
,
0000
0000
0000
0000
,
1000
0100
0001
0000
0100
1000
0010
0000
,
0001
0000
0100
0000
1000
0000
0000
0000
0100
0000
0001
0000
0010
0000
0000
0001
,
1000
0000
1000
0000
1000
0000
0000
0000
0100
0000
1000
0000
0001
0000
0000
1000
,
0001
0001
0001
0000
0100
0001
1000
0000
,
0001
0010
1000
0000
0010
0001
0100
0000
,
1000
0000
0010
0000
0001
0000
0000
0000
0010
0000
1000
0000
0100
0000
0000
1000
,
0001
0000
0001
0000
0001
0000
0000
0000
0010
0000
0001
0000
1000
0000
0000
0001
,
1000
1000
1000
0000
0010
1000
0001
0000
,
0100
0000
0100
0000
1000
0001
0100
0000
,
0001
0000
1000
0001
0010
0100
1000
0000
,
0001
0100
0001
0000
1000
0010
1000
0000
,
0100
0000
0001
0100
1000
0010
0001
0000
,
0010
0000
0010
0000
0001
1000
0010
0000
,
1000
0000
0001
1000
0100
0010
0001
0000
,
1000
0010
1000
0000
0001
0100
0001
0000
,
0010
0000
1000
0010
0001
0100
2000
0000
,
3001
0000
0001
0010
1000
0000
0001
0000
,
0010
0000
1000
0000
0010
0001
0001
0000
,
1000
0000
0001
0010
0100
0000
0010
0000
,
1000
0001
1000
0001
2000
0000
3001
0000
,
1000
0000
1000
0100
0001
0000
1000
0000
,
0100
0000
0001
0000
0100
1000
1000
0000
,
0001
0000
1000
0100
0010
0000
0100
0000
,
0010
0000
0000
0000
0000
0100
1001
0000
,
0110
1000
0100
0000
0010
0001
0100
0000
,
0010
0000
0100
0001
0002
1000
2003
0000
,
3001
0000
1000
0100
0001
0000
0001
0010
,
1000
0000
0100
0000
0001
1000
0100
0000
,
0010
0001
0100
0000
0010
1000
0100
0000
,
0010
0000
0100
1000
0002
0000
2003
0000
,
3001
0000
0100
0010
0100
0010
0100
0000
,
0001
1000
0001
1000
0100
0000
0020
0000
,
1000
0000
0001
0000
0130
1000
0002
0000
,
1003
0000
0000
0000
0000
0000
0000
0000
0000
0000
0100
0000
1000
0010
0000
0000
,
0001
0000
0100
0000
1000
0000
0000
0001
0000
0000
0000
0000
0001
0000
0000
0000
,
1000
0000
0000
0000
0000
0000
0000
0000
0000
0000
0100
0000
0001
0010
0000
0000
,
1000
0000
0100
0000
0001
0000
0000
1000
0000
0000
0000
0000
0000
0000
0000
0000
;

//---------------dance-double - ----------------
#NOTEDATA:;
#CHARTNAME:;
#STEPSTYPE:dance-double;
#DESCRIPTION:;
#CHARTSTYLE:Dance;
#DIFFICULTY:Easy;
#METER:2;
#RADARVALUES:0.149,0.169,0.012,0.023,0.000,87.000,1.000,2.000,0.000,0.000,0.000,0.000,0.000,0.149,0.169,0.012,0.023,0.000,87.000,1.000,2.000,0.000,0.000,0.000,0.000,0.000;
#CREDIT:.42;
#NOTES:
00000000
00000000
00000000
00000000
,
00000000
00000000
00000000
00000000
,
00000000
00000000
00000000
00000000
,
00000000
00000000
00000000
00000000
,
00000000
00000000
00000000
00000000
,
10000000
00000000
00010000
00000000
,
10000000
00000000
00010000
00000000
,
00100000
00000000
00001000
00000000
,
01000000
00000000
00001000
00000000
,
00010000
00000000
00000010
00000000
,
00010000
00000000
00000100
00000000
,
00001000
00000000
00000001
00000000
,
00001000
00000000
00000001
00000000
,
00000100
00000000
00000100
00000000
,
00001000
00001000
00000010
00000000
,
00010000
00000000
00001000
00000000
,
00010000
00010000
00001000
00000000
,
01000000
00000000
01000000
00000000
,
00010000
00010000
00100000
00000000
,
10000000
00000000
10000000
00000000
,
00010000
10000000
00010000
10000000
,
01000000
00000000
01000000
00000000
,
00100000
00100000
00010000
00000000
,
00001000
00000000
00010000
00000000
,
00001000
00001000
00000100
00000000
,
00000010
00000000
00000001
00000000
,
00000100
00000001
00000100
00000000
,
00000001
00000000
00000010
00000000
,
00002000
00000000
00000000
00003000
,
00001001
00000000
00000001
00000000
,
00000100
00001000
00000100
00001000
,
00010000
00000000
00001000
00000000
,
00010000
01000000
01000000
00000000
,
10000000
00000000
10000000
00000000
,
00100000
00010000
00100000
00010000
,
00001000
00000010
00001000
00000000
,
00000010
00000001
00000100
00000000
,
00000020
00000000
00000000
00000000
,
00000030
00000000
00000000
00000100
,
00000001
00000001
00001000
00000000
,
00000000
00000000
00000000
00100000
,
10000000
10000000
00010000
00000000
;

//---------------dance-double - ----------------
#NOTEDATA:;
#CHARTNAME:;
#STEPSTYPE:dance-double;
#DESCRIPTION:;
#CHARTSTYLE:Dance;
#DIFFICULTY:Medium;
#METER:4;
#RADARVALUES:0.242,0.265,0.012,0.035,0.000,142.000,1.000,3.000,0.000,0.000,0.000,0.000,0.000,0.242,0.265,0.012,0.035,0.000,142.000,1.000,3.000,0.000,0.000,0.000,0.000,0.000;
#CREDIT:.42;
#NOTES:
// measure 0
00000000
00000000
00000000
00000000
,  // measure 1
00000000
00000000
00000000
00000000
,  // measure 2
00000000
00000000
00000000
00000000
,  // measure 3
00000000
00000000
00000000
00000000
,  // measure 4
00000000
00000000
00000000
00000000
,  // measure 5
00100000
00100000
00001000
00000000
,  // measure 6
01000000
01000000
00010000
00000000
,  // measure 7
00100000
00000000
10000000
01000000
00010000
00000000
00000000
00000000
,  // measure 8
00001000
00000000
00000100
00000001
00000010
00000000
00000000
00000000
,  // measure 9
00000100
00000100
00010000
00000000
,  // measure 10
00000010
00000010
00001000
00000000
,  // measure 11
00000100
00000000
00000001
00000010
00001000
00000000
00000000
00000000
,  // measure 12
00010000
00000000
00100000
10000000
01000000
00000000
00000000
00000000
,  // measure 13
00010000
00010000
10000000
10000000
,  // measure 14
00100000
00000000
01000000
00000000
00001000
00010000
00001000
00000000
,  // measure 15
00010000
00010000
00000100
00000100
,  // measure 16
00001000
00000000
00000010
00000000
00000100
00000001
00000010
00000000
,  // measure 17
00001000
00001000
00000001
00000001
,  // measure 18
00000100
00000000
00000010
00000000
00010000
00001000
00010000
00000000
,  // measure 19
00001000
00001000
00100000
00100000
,  // measure 20
00010000
00000000
01000000
00000000
00100000
10000000
02000000
00000000
,  // measure 21
03100000
00000000
10000000
00100000
00010000
00000000
01000000
00000000
,  // measure 22
10000000
00000000
01000000
00000000
00010000
10000000
10000000
00000000
,  // measure 23
01000000
00000000
00010000
00001000
00010000
00000000
00001000
00000000
,  // measure 24
00000010
00000100
00002000
00000001
,  // measure 25
00003100
00000000
00000001
00000100
00001000
00000000
00000010
00000000
,  // measure 26
00000001
00000000
00000010
00000000
00001000
00000001
00000001
00000000
,  // measure 27
00000010
00000000
00001000
00010000
00001000
00000000
00010000
00000000
,  // measure 28
00001000
00000000
00000000
00010000
,  // measure 29
00011000
00001000
00100000
00100000
,  // measure 30
00010000
01000000
10000000
10000000
,  // measure 31
00010000
00000000
10000000
00100000
,  // measure 32
00010000
00001000
00010000
00000000
,  // measure 33
00010000
00010000
00000100
00000100
,  // measure 34
00001000
00000010
00000001
00000001
,  // measure 35
00001000
00000100
00000001
00000010
,  // measure 36
00001000
00010000
00000000
00200000
,  // measure 37
00010000
10000000
00000000
01000000
,  // measure 38
00300000
00000000
00000000
00010000
,  // measure 39
10000000
00000000
10000000
00100000
00010000
00000000
00000000
00000000
,  // measure 40
00000000
00000000
00000000
00001000
,  // measure 41
00000001
00000000
00000001
00000010
00001000
00000000
00000000
00000000
;

//---------------dance-double - ----------------
#NOTEDATA:;
#CHARTNAME:;
#STEPSTYPE:dance-double;
#DESCRIPTION:;
#CHARTSTYLE:Dance;
#DIFFICULTY:Hard;
#METER:6;
#RADARVALUES:0.355,0.337,0.023,0.093,0.046,204.000,2.000,8.000,0.000,0.000,0.000,0.000,0.000,0.355,0.337,0.023,0.093,0.046,204.000,2.000,8.000,0.000,0.000,0.000,0.000,0.000;
#CREDIT:.42;
#NOTES:
00000000
00000000
00000000
00000000
,
00000000
00000000
00000000
00000000
,
00000000
00000000
00000000
00000000
,
00000000
00000000
00000000
00000000
,
00000000
00000000
00000000
00000000
,
00010000
01000000
10000000
00000000
01000000
00100000
00010000
00000000
,
01000000
00000000
10000000
00000000
00100000
00000000
00000000
00000000
00010000
00000000
00001000
00000000
00000100
00000000
00000000
00000010
,
00001000
00000000
00001000
00000000
00001000
00000000
00000000
00000000
00000100
00000000
00000010
00000000
00000001
00000000
00000000
00000001
,
00000100
00000100
00000100
00000000
00000001
00000010
00001000
00000001
,
00001000
00000010
00000001
00000000
00000010
00000100
00001000
00000000
,
00000010
00000000
00000001
00000000
00000100
00000000
00000000
00000000
00001000
00000000
00010000
00000000
00100000
00000000
00000000
01000000
,
00010000
00000000
00010000
00000000
00010000
00000000
00000000
00000000
00100000
00000000
01000000
00000000
10000000
00000000
00000000
10000000
,
00100000
00100000
00100000
00000000
10000000
01000000
00010000
00000000
,
01000000
00000000
01000000
00000000
00010000
01000000
10000000
00000000
,
01000000
00000000
00010000
01000000
10000000
00100000
00010000
00000000
,
00001000
01000000
00001000
00000000
00010000
00000100
00010000
00000000
,
00001000
00000000
00000010
00000000
00000100
00001000
00000001
00000000
,
00000010
00000000
00000010
00000000
00001000
00000010
00000001
00000000
,
00000010
00000000
00001000
00000010
00000001
00000100
00001000
00000000
,
00010000
00000010
00010000
00000000
00001000
00100000
00001000
00000000
,
00010000
00000000
01000000
00000000
00100000
00010000
20000000
00000000
,
30010000
00000000
01000000
00100000
01000000
00000000
00100000
00000000
,
00010000
00000000
00010000
00000000
00001000
00000010
00000001
00000000
,
00000100
00000000
00000100
00000010
00001000
00000000
00000100
00000000
,
00010000
00001000
00010000
00001000
00020000
00000000
00031000
00000000
,
00010000
00000000
00000010
00000100
00000010
00000000
00000100
00000000
,
00001000
00000000
00001000
00000000
00010000
01000000
10000000
00000000
,
00100000
00000000
00100000
01000000
00010000
00000000
00100000
00000000
,
01000000
00000000
00000000
00000000
00000000
01000000
10010000
00000000
,
01100000
01000000
10000000
00000000
00100000
01000000
00010000
00000000
,
10000000
00000000
01000000
00010000
00020000
00001000
00032000
00000000
,
00013000
00000000
00001000
00000010
00000001
00000000
00000001
00000100
,
00001000
00000000
00000100
00000000
00000100
00000001
00000010
00000000
,
00000100
00000010
00000001
00000000
00000100
00000010
00001000
00000000
,
00000001
00000000
00000010
00001000
00020000
00000000
00032000
00000000
,
00013000
00000000
00010000
00100000
10000000
01000000
00010000
00000000
,
00001000
00010000
00000010
00001000
00000100
00000000
00000020
00000000
,
00001000
00000000
00000001
00000000
00000130
00001000
00000002
00000000
,
00001003
00000000
00000000
00000000
00000000
00000000
00000000
00000000
00000000
00000000
00000100
00000000
00001000
00000010
00000000
00000000
,
00000001
00000000
00000100
00000000
00001000
00000000
00000000
00010000
00000000
00000000
00000000
00000000
00010000
00000000
00000000
00000000
,
00001000
00000000
00000000
00000000
00000000
00000000
00000000
00000000
00000000
00000000
00100000
00000000
00010000
01000000
00000000
00000000
,
10000000
00000000
00100000
00000000
00010000
00000000
00000000
00001000
00000000
00000000
00000000
00000000
00000000
00000000
00000000
00000000
;
