#TITLE:Marie Antoinette;
#SUBTITLE:;
#ARTIST:Marguerite du Pre;
#TITLETRANSLIT:;
#SUBTITLETRANSLIT:;
#ARTISTTRANSLIT:Marguerite du Pre;
#GENRE:;
#CREDIT:;
#BANNER:[Low Speed] - Marie Antoinette-bn.png;
#BACKGROUND:[Low Speed] - Marie Antoinette-bg.png;
#LYRICSPATH:;
#CDTITLE:cdtitle.png;
#MUSIC:[Low Speed] - Marie Antoinette.ogg;
#OFFSET:-0.438000;
#SAMPLESTART:63.943001;
#SAMPLELENGTH:13.000000;
#SELECTABLE:YES;
#BPMS:0.000000=107.500000
,54.000000=102.500000
,195.000000=124.000000
;
#STOPS:
;
#BGCHANGES:;
#KEYSOUNDS:;
#ATTACKS:;

//---------------dance-single - ----------------
#NOTES:
     dance-single:
     :
     Hard:
     7:
     0.366127,0.344882,0.166113,0.047461,0.000000,297.000000,21.000000,6.000000,0.000000,0.000000,0.000000,0.366127,0.344882,0.166113,0.047461,0.000000,297.000000,21.000000,6.000000,0.000000,0.000000,0.000000:
0000
0000
0000
0000
,
0000
0000
0000
0000
,
0000
0000
1000
0100
0000
0010
0001
0000
,
1000
0010
0100
0001
0100
1000
0100
0000
,
0000
0001
0100
0000
0010
1000
0000
1000
,
0100
0000
0010
0000
0010
0001
0000
0000
,
0010
0000
0010
0100
0000
0100
1000
0000
,
1000
0010
0000
0010
0100
0100
0001
1000
,
0000
1000
0001
0001
0010
0001
0000
0001
,
0100
0100
0010
1000
0000
1000
0001
0001
,
0010
0100
0000
0100
1000
1000
0001
1000
,
0000
0100
0000
0010
0010
0001
0000
1000
,
0010
0000
1000
0100
0010
0100
2000
0000
,
3000
1001
0000
0000
1000
1000
1000
0001
,
0001
0001
0100
0010
0010
1000
0001
0000
,
1000
0001
0001
0010
0100
0000
0010
0001
,
0001
1000
0010
0000
1000
0100
0010
0001
,
0000
0000
1000
0000
0010
0100
0101
0000
,
0001
0000
1000
0100
0110
0000
0100
0000
,
1000
0001
0101
0000
1000
0100
0010
1001
,
0000
0000
0001
0000
1000
0010
0010
0100
,
0001
0000
0001
0010
1000
0010
0001
0000
,
1000
0010
0100
0001
1000
0100
0000
1000
,
0000
1000
0010
0000
0100
0001
0010
0100
,
0010
0000
0001
0100
0001
1000
0001
0010
,
0000
0010
1000
0000
1000
0100
0000
0100
,
0001
0000
1000
0000
1000
0100
0000
0100
,
0010
0000
0010
0001
0000
0000
1000
0010
,
1000
0001
0000
0001
0010
0000
0010
0001
,
0001
0000
0100
0100
0010
2000
0000
3000
,
0100
0100
0010
0002
0000
0003
1000
1000
,
0010
0200
0000
0300
0001
0000
0001
0010
,
0000
0010
0100
1000
0100
1000
0000
1000
,
0010
0000
0010
0100
0000
0100
0001
1000
,
0001
0010
0010
0001
0101
0000
0000
1010
,
0000
0000
1001
0000
0000
1100
0000
0000
,
0001
0100
0100
0001
0000
0000
1000
0010
,
0100
0001
0000
0000
1000
0100
0010
0001
,
0000
0000
0001
1000
0010
0100
0000
0000
,
0010
1000
0000
1000
1001
0000
0001
0010
,
0000
0010
0011
0000
0001
0100
0000
0100
,
0110
0000
0010
1000
0001
1001
0000
0000
,
1000
1000
1000
0100
0000
0000
0011
0011
,
0011
2002
0000
0000
0000
0000
0000
0000
,
3003
0000
1000
0000
0010
0000
1000
0001
,
1000
0000
0000
0000
0100
0010
0100
0000
,
1000
0000
0001
0100
0001
0000
0000
0000
,
1000
0010
1000
0100
1000
0000
0010
0000
,
0100
0000
0000
0001
0000
0000
1000
0100
,
0100
1000
0010
0010
0100
0001
0001
1000
,
1100
0000
0001
0100
0100
0001
0010
0010
,
0100
1000
1000
0001
0101
0000
0001
0100
,
0001
1000
0010
1000
0100
0010
0001
1000
,
1010
0000
0001
0010
0001
1000
0010
1000
,
0100
0010
0100
0010
1001
0000
0000
0000
;

//---------------dance-single - ----------------
#NOTES:
     dance-single:
     :
     Medium:
     5:
     0.274595,0.258662,0.126562,0.055371,0.000000,220.000000,16.000000,7.000000,0.000000,0.000000,0.000000,0.274595,0.258662,0.126562,0.055371,0.000000,220.000000,16.000000,7.000000,0.000000,0.000000,0.000000:
0000
0000
0000
0000
,
0000
0000
0000
0000
,
0000
0000
1000
0000
1000
0100
0000
0000
,
1000
0010
0100
0001
,
0000
0001
0100
0000
0100
0010
0000
0000
,
1000
0001
0001
0010
,
0100
0100
1000
0100
,
0010
0001
0000
0001
1000
1000
0000
0010
,
0000
0010
0100
0100
0000
1000
0000
1000
,
0001
0001
0000
0010
0000
0010
0100
0100
,
0000
0010
0000
0010
0001
0001
0000
1000
,
0000
0010
0000
0001
0000
0100
0000
1000
,
0000
0010
0000
0100
0000
0001
1000
0000
,
0000
1001
0000
0000
1000
1000
1000
0001
,
0001
0001
1000
0000
1000
0010
0000
0000
,
1000
0000
1000
0100
0000
0000
0010
0000
,
0010
0001
0000
0000
0001
0000
0001
0100
,
0000
0000
0001
0000
0000
1000
1100
0000
,
1000
0000
0000
0001
0101
0000
0001
0000
,
0000
1000
1010
0000
1000
0000
0001
1001
,
0000
0000
1000
0000
1000
0100
0000
0100
,
1000
0000
0001
0100
0000
0100
0001
0000
,
0001
0010
0000
0010
0100
0000
0000
1000
,
0000
0000
0001
0000
0000
0100
0000
0000
,
0010
0000
0000
1000
0000
0000
0001
0001
,
0000
0010
0010
0000
1000
1000
0000
0100
,
0100
0000
0001
0000
0000
0010
0000
0000
,
0001
0000
0000
1001
0000
0000
1000
0000
,
0000
0010
0000
0010
2000
0000
3000
0002
,
0000
0003
1000
0000
0100
0200
0000
0300
,
0010
0000
0001
0002
0000
0003
1000
0000
,
0010
0020
0000
0030
1000
0000
1000
0001
,
0000
0001
0010
0000
0000
0100
0000
0000
,
1000
0000
1000
0010
0000
0010
0100
0000
,
0000
0001
0000
0000
0011
0000
0000
1100
,
0000
0000
1001
0000
0000
0101
0000
0000
,
1000
0000
1000
0001
0000
0000
0001
0000
,
0001
0010
0000
0000
0010
0000
0010
0100
,
0000
0000
0100
0000
0100
1000
0000
0000
,
0010
0000
0000
0100
0101
0000
0010
0000
,
0000
1000
1001
0000
0100
0000
0000
0010
,
0011
0000
1000
0000
0000
0001
0101
0000
,
0001
0100
0001
0100
0000
0000
0010
1000
,
0010
2002
0000
0000
0000
0000
0000
0000
,
3003
1000
1000
0001
,
0010
0000
0001
0001
,
0100
0010
0010
0000
,
1000
0100
0100
0010
,
0001
0000
0000
1000
0000
0000
0001
0000
,
0001
0010
0000
0010
0100
0000
0100
1000
,
1000
0000
0010
0000
0010
0100
0000
0100
,
0001
0000
0001
1000
1000
0000
0001
0001
,
0000
0010
0010
0000
0100
0100
0000
1000
,
1000
0000
0010
0010
0000
0100
0100
0000
,
0001
1000
0001
1000
1001
0000
0000
0000
;

//---------------dance-single - ----------------
#NOTES:
     dance-single:
     :
     Easy:
     3:
     0.184193,0.193996,0.150293,0.071191,0.000000,135.000000,19.000000,9.000000,0.000000,0.000000,0.000000,0.184193,0.193996,0.150293,0.071191,0.000000,135.000000,19.000000,9.000000,0.000000,0.000000,0.000000:
// measure 0
0000
0000
0000
0000
,  // measure 1
0000
0000
0000
0000
,  // measure 2
0000
0000
1000
0000
0000
1000
0000
0000
,  // measure 3
0001
0000
0000
0001
0000
0000
0001
0000
,  // measure 4
0000
0100
0000
0000
0101
0000
0000
1000
,  // measure 5
0000
0000
0100
0000
0000
0100
0000
0000
,  // measure 6
0010
0000
0000
0001
0000
0000
0010
0000
,  // measure 7
0000
0001
0000
0000
0000
0000
0000
1000
,  // measure 8
0000
0000
0000
0000
0000
0001
0000
0000
,  // measure 9
0000
0000
0000
0100
0000
0000
0000
0000
,  // measure 10
0000
0010
0000
0000
0000
0000
0000
1000
,  // measure 11
0000
0000
1000
0000
0000
0100
0000
0000
,  // measure 12
0100
0000
0000
0010
0000
0000
0001
0000
,  // measure 13
0000
1001
0000
0000
1000
0000
0000
1000
,  // measure 14
0000
0000
0001
0000
0000
0101
0000
0000
,  // measure 15
0001
0000
0000
0011
0000
0000
1000
0000
,  // measure 16
0000
1100
0000
0000
1000
0000
0000
1001
,  // measure 17
0000
0000
0001
0000
0000
0100
0100
0000
,  // measure 18
0001
0000
0000
1000
1000
0000
1000
0000
,  // measure 19
0000
0100
0100
0000
1000
0000
0000
1001
,  // measure 20
0000
0000
0001
0000
0000
0100
0000
0000
,  // measure 21
1000
0000
0000
0010
0000
0000
0001
0000
,  // measure 22
0000
1000
0000
0000
0001
0000
0000
1000
,  // measure 23
0000
0000
0010
0000
0000
0001
0000
0000
,  // measure 24
0100
0000
0000
1000
0000
0000
0001
0000
,  // measure 25
0000
0001
0000
0000
0100
0000
0000
0100
,  // measure 26
0000
0000
0001
0000
0000
0010
0000
0000
,  // measure 27
0100
0000
0000
1000
0000
0000
0001
0000
,  // measure 28
0000
0001
0000
0000
0101
0000
0000
0000
,  // measure 29
0000
0000
1000
0000
0000
1000
0000
0000
,  // measure 30
0001
0000
0000
0001
0000
0000
0010
0000
,  // measure 31
0000
0010
0000
0000
0100
0000
0000
1000
,  // measure 32
0000
0000
1000
0000
0000
0001
0000
0000
,  // measure 33
0100
0000
0000
0100
0000
0000
0010
0000
,  // measure 34
0000
1000
0000
0000
1100
0000
0000
0011
,  // measure 35
0000
0000
0101
0000
0000
1001
0000
0000
,  // measure 36
0002
0000
0003
0020
,  // measure 37
0000
0030
0200
0000
,  // measure 38
0300
2000
0000
3000
,  // measure 39
0001
0000
0000
0101
0000
0000
0001
0000
,  // measure 40
0000
1001
0000
0000
1000
0000
0000
1100
,  // measure 41
0000
0000
0010
0000
0000
0110
0000
0000
,  // measure 42
1000
0000
0000
1000
0000
0000
0101
0000
,  // measure 43
0000
0202
0000
0000
0000
0000
0000
0000
,  // measure 44
0303
1000
2000
0000
,  // measure 45
3000
0000
0001
0010
,  // measure 46
0020
0000
0030
0000
,  // measure 47
0000
0001
0001
1000
,  // measure 48
2000
0000
3000
0001
,  // measure 49
0100
0001
1000
0001
,  // measure 50
0000
1000
0100
1000
,  // measure 51
0001
1000
0000
0001
,  // measure 52
0100
0010
1000
0100
,  // measure 53
0100
1000
0010
0100
,  // measure 54
0001
0000
1000
0001
1001
0000
0000
0000
;

//---------------dance-single - ----------------
#NOTES:
     dance-single:
     :
     Challenge:
     9:
     0.567270,0.625099,0.174023,0.015820,0.494384,478.000000,22.000000,2.000000,0.000000,0.000000,0.000000,0.567270,0.625099,0.174023,0.015820,0.494384,478.000000,22.000000,2.000000,0.000000,0.000000,0.000000:
0000
0000
0000
0000
,
0000
0000
0000
0000
,
0000
0000
0001
0100
0000
0100
0001
0000
,
1000
0100
0001
0100
1000
0010
0100
0000
,
0000
0010
1000
0000
1000
0001
0000
1000
,
0001
0010
0001
0000
0010
0000
0100
0000
0001
0000
0100
0000
0010
0000
0001
0000
,
1000
0010
1000
0000
0010
0000
0100
0000
1000
0000
0100
0000
0001
0000
0100
0000
,
0010
0000
1000
0100
0000
0100
1000
0000
0010
0000
0010
0000
0100
0000
0001
0010
,
0000
0010
0001
0000
0100
0000
0100
0000
0010
0000
0100
0001
0000
0001
1000
0000
,
0100
0000
0100
0000
0010
0000
0100
1000
0000
1000
0001
0000
1000
0000
1000
0000
,
0010
0000
0100
0001
0000
0001
1000
0000
0100
0000
0100
0000
1000
0000
0001
0010
,
0100
0000
1000
0000
0001
0000
1000
0010
1000
0010
0100
0000
0001
0000
0010
0000
,
0100
1000
0100
1000
0001
0000
1000
0010
0100
0010
0100
0001
1000
0000
0000
0000
,
0000
1001
0000
0000
0001
0001
0001
1000
,
1000
0000
1000
0000
0001
0000
0010
0100
0010
0000
0100
0000
1000
0000
0000
0000
,
0001
0000
1000
0010
1000
0000
0100
0000
0010
0000
0000
0000
0100
0000
1000
0001
,
1000
0000
0010
0000
0100
0000
0000
0000
0001
0010
0001
0010
0100
1000
0001
0000
,
0000
0000
0000
0000
1000
0000
0010
0100
0010
1000
0001
0000
0101
0000
0000
0000
,
0001
0000
0010
0100
0010
0100
1000
0000
1100
0000
0000
0000
0010
0000
0100
0001
,
1000
0001
0010
0000
0011
0000
0000
0000
1000
0010
1000
0010
0100
0001
1000
0000
,
1001
0000
0000
0000
0001
0100
0001
0100
0010
0000
1000
0000
1000
0001
1000
0100
,
0010
0000
0100
0000
1000
0010
1000
0010
0100
0001
0100
0000
0001
0100
0001
0010
,
0001
0010
0100
0000
0010
0100
1000
0100
1000
0000
0001
0100
0001
0100
0010
0000
,
1000
0000
1000
0000
0100
0000
1000
0010
1000
0010
0100
0000
0001
0000
0001
0000
,
1000
0000
0001
0010
0001
0010
0100
0000
1000
0000
0010
0000
1000
0000
1000
0000
,
0100
0001
0001
0100
1000
1000
0010
0001
,
0001
0010
0100
0100
0001
1000
1000
0001
,
0010
0100
0010
0000
0100
0000
1000
0000
0000
0000
0000
0000
1000
0010
1000
0010
,
0100
0001
1000
0000
0000
0000
1000
0000
0100
0000
0000
0100
1000
0000
0010
0000
,
0010
0000
0100
0000
0010
1000
0010
1000
0001
0000
0100
0000
0001
0000
0001
0000
,
0010
0100
0010
0100
1000
0000
0001
0000
0010
0000
0010
0000
0001
0100
0001
0100
,
0010
0000
1000
0000
0100
0000
0100
0000
1000
0000
1000
0001
1000
0000
0001
0000
,
0100
0001
0100
0000
0010
1000
0100
0010
0100
0000
1000
0000
0001
1000
0001
0000
,
0001
0000
0100
0010
0100
0000
0001
0000
1000
0001
1000
0000
0100
0010
0100
1000
,
0100
0000
1000
0000
0010
0100
0010
0000
1010
0000
0001
0000
0001
0000
0101
0000
,
1000
1000
1100
0001
0001
0011
0000
0000
,
1000
0000
1000
0010
0100
0001
1000
0000
0000
0000
0000
0000
0001
0010
0001
0100
,
0010
1000
0001
0000
0000
0000
0000
0000
1000
0100
1000
0010
0100
0001
1000
0000
,
0000
0000
0000
0000
1000
0100
0010
0100
1000
0010
0100
0000
0000
0000
0000
0000
,
0001
0100
0001
0000
0010
0000
0100
0000
1100
0000
0000
0000
1000
0001
1000
0010
,
0100
0001
1000
0000
1001
0000
0000
0000
0001
0010
0001
0100
0010
1000
0001
0000
,
1001
0000
0000
0000
0001
0010
0100
0010
0001
0100
0010
0000
1010
0000
0000
0000
,
1000
1000
1000
1100
0000
0000
0011
0011
,
0011
2002
0000
0000
0000
0000
0000
0000
,
3003
0000
0001
0100
0001
0010
0100
0100
,
0010
0000
0000
0000
0100
1000
0100
0010
,
0001
1000
0010
0010
0100
0000
0000
0000
,
0100
0001
0100
0010
1000
0000
1000
0100
,
0010
0000
0000
0000
0000
0000
0001
0000
0000
0000
0000
0000
1000
0000
0010
0100
,
0010
0100
0001
0000
0010
0100
0010
0100
1000
0000
0001
0100
0001
0100
0010
0000
,
1001
0000
0000
0000
1000
0000
0100
0010
0100
0010
0001
0000
1000
0010
1000
0010
,
0100
0000
0001
1000
0001
1000
0100
0000
0110
0000
0000
0000
0001
0010
0001
0010
,
0100
1000
0001
0100
0001
0100
0010
1000
0100
0010
0100
0010
0001
1000
0001
0000
,
0101
0000
0000
0000
1000
0010
1000
0010
0100
0001
1000
0100
1000
0100
0010
0001
,
0100
0010
0100
0010
0100
0010
0100
0000
1001
0000
0000
0000
0000
0000
0000
0000
;
