#TITLE:Lonely No More;
#SUBTITLE:;
#ARTIST:Rob Thomas;
#TITLETRANSLIT:;
#SUBTITLETRANSLIT:;
#ARTISTTRANSLIT:;
#GENRE:;
#CREDIT:;
#BANNER:[Low Speed] - Lonely No More-bn.png;
#BACKGROUND:[Low Speed] - Lonely No More-bg.png;
#LYRICSPATH:;
#CDTITLE:;
#MUSIC:Lonely No More.mp3;
#OFFSET:-0.871489;
#SAMPLESTART:42.868130;
#SAMPLELENGTH:12.000000;
#SELECTABLE:YES;
#BPMS:0.000000=85.849998
;
#STOPS:
;
#BGCHANGES:;
#KEYSOUNDS:;
#ATTACKS:;

//---------------dance-single - ----------------
#NOTES:
     dance-single:
     :
     Hard:
     9:
     0.539205,0.545841,0.261307,0.174205,0.791179,460.000000,36.000000,24.000000,0.000000,0.000000,0.000000,0.539205,0.545841,0.261307,0.174205,0.791179,460.000000,36.000000,24.000000,0.000000,0.000000,0.000000:
0000
0000
0000
0000
,
0000
0000
0000
0000
,
1002
0000
0000
0103
0010
0000
2000
0000
0100
0000
0000
3001
0100
0000
0010
0000
,
2000
0000
0000
3100
0010
0000
0002
0000
0100
0000
0000
1003
0100
0000
1000
0000
,
2001
0000
0000
3100
0010
0000
0002
0000
0100
0000
0000
1003
0100
0000
0010
0000
,
0002
0000
0000
0103
0010
0000
2000
0000
0100
0000
0000
3001
0100
0000
0001
0000
,
1000
1000
0000
1001
0000
0000
0000
0000
0000
0000
0000
0000
0000
0000
0000
0000
,
0001
0001
0000
1001
0000
0000
0000
0000
0000
0000
0000
0000
0000
0000
0000
0000
,
0100
0100
0000
0110
0000
0000
0000
0000
0000
0000
0000
0000
0000
0000
0000
0000
,
0010
0010
0000
0110
0000
0000
0000
0000
0000
0000
0100
0010
0100
0001
1000
0100
,
0010
0010
0000
0011
0000
0100
1000
0001
0000
0100
0010
0000
0000
0010
0100
0001
,
1000
1000
0000
1010
0000
0010
0000
0100
0001
0000
0000
1000
0001
0000
0000
0000
,
0001
0001
0000
0101
0100
0000
0010
0000
0000
0000
1000
0000
0001
0000
0010
0000
,
0100
0000
0100
0000
0000
0000
1100
0000
0000
0000
0000
1000
0000
0000
0010
0000
0000
0100
0000
0000
0001
0000
0000
0000
0010
0000
0000
0000
0100
0000
0000
0000
,
1000
0000
0000
0000
0001
0000
0000
0000
0010
0000
0100
1000
0001
1000
0010
0100
,
0001
0000
0010
0001
1000
0001
0100
0010
0000
1000
0100
0010
0000
0001
0100
0000
,
0010
0000
1000
0001
1000
0100
0010
0001
0100
0000
0010
0100
0002
0000
0010
0000
,
0103
0000
0010
1000
0001
1000
0100
0010
0001
0100
0000
0010
0000
1010
0000
1001
,
0001
0000
0000
0100
0010
0100
0001
0010
0100
0100
0000
1100
0000
1001
0000
0101
,
0000
0100
0010
0100
0001
0010
0100
1000
0000
0010
0100
0001
0000
0010
0100
0000
,
1000
0000
0100
1000
0001
1000
0100
1000
0001
0000
0100
0100
0001
0010
1000
0010
,
0001
0000
0100
0000
0010
0000
0100
0000
0001
0000
0001
0000
1000
0000
0010
0000
0100
0000
0000
0001
0000
0000
0010
0000
0000
0000
0110
0000
0000
0000
1001
0000
,
0000
0000
0001
0100
1000
0100
0001
0010
0000
0100
0000
1000
0001
0000
0100
0000
,
0010
0000
1000
0100
0001
0100
1000
0000
0001
0000
1000
0010
0001
0010
1000
0000
,
0001
0000
0100
0000
1000
0100
0001
0000
0010
0000
0100
1000
0001
1000
0010
0100
,
0001
0000
0001
0100
1000
0100
0001
0000
1000
0000
0001
0010
1000
0010
0001
0000
,
1000
0000
0010
0000
0001
0010
1000
0000
0002
0000
0000
0000
1003
0100
0010
0001
,
0100
0000
0010
1000
0002
0000
0000
0000
0023
0000
0000
0000
0130
1000
0010
0100
,
0001
0000
0010
0000
0100
2000
0000
0000
3020
0000
0000
0000
0130
1000
0100
0001
,
0010
0000
1000
0000
0010
0001
0000
0200
0000
0310
0000
1000
0000
0100
0000
0001
,
0000
0100
0000
1000
0020
0000
0000
0000
0230
0000
0000
0000
0301
0010
0100
1000
,
0001
0000
0100
0000
1000
0100
0000
0001
0000
0010
0100
0000
0001
0100
0000
1000
,
0010
0000
0100
0000
0001
0000
1000
0100
0010
0100
1000
0000
0001
0100
0000
0000
,
0010
1000
0000
1001
0000
1100
0000
0100
0000
0010
0000
0011
0000
1001
0000
0000
,
1001
0000
0110
0000
0001
1000
0000
0110
0000
0010
1000
0001
0000
0001
0010
0100
,
1000
0000
0001
0010
1000
0010
0001
0100
0000
0010
1000
0100
0000
0001
0100
0000
,
1000
0000
0001
0100
1000
0100
0001
0100
1000
0000
0100
0001
0010
1000
0010
0001
,
0100
0000
1000
0100
0001
0010
0100
0001
0100
1000
0000
0010
0000
0100
0000
0110
,
0100
0000
0000
0001
0100
1000
0100
0010
1000
1000
0000
1100
0000
1001
0000
0101
,
0100
0010
1000
0100
0001
0100
1000
0010
0000
0100
0001
0010
0000
0100
1000
0000
,
1001
0001
1000
0010
0001
1000
0100
0001
0010
0000
1000
0010
0001
0100
1000
0100
,
0010
0000
1000
0000
0100
0000
0100
0000
0010
0000
0001
0000
0100
0000
0010
0000
1000
0000
0000
0001
0000
0000
0011
0000
0000
0000
0110
0000
0000
0000
1100
0000
,
1000
0000
0002
0203
0320
2030
3200
0320
0030
0002
0000
0003
1000
0010
0000
0100
,
0010
0000
0001
0010
1000
0100
0001
0000
1000
0000
0001
0100
1000
0010
0001
0000
,
1000
0000
0110
0010
1000
0100
0010
0001
0000
0100
0000
0010
1000
0000
1000
0001
,
0100
0000
1000
0100
0001
0010
0100
1000
0000
1000
0010
0100
0000
0100
0001
0000
,
0010
0000
0110
0100
0001
0100
1000
0010
0000
0100
0000
0001
0010
0000
0110
0000
,
1001
0000
0000
0000
;

//---------------dance-single - ----------------
#NOTES:
     dance-single:
     :
     Medium:
     6:
     0.341151,0.324093,0.029034,0.232273,0.235902,293.000000,4.000000,32.000000,0.000000,0.000000,0.000000,0.341151,0.324093,0.029034,0.232273,0.235902,293.000000,4.000000,32.000000,0.000000,0.000000,0.000000:
0000
0000
0000
0000
,
0000
0000
0000
0000
,
2001
0000
0000
0000
3001
0000
0010
0000
0100
0000
0000
1000
0000
0000
0010
0000
,
0200
0000
0000
0301
0000
0000
0010
0000
1000
0000
0000
0010
0000
0000
0001
0000
,
1002
0000
0000
0003
1000
0000
0100
0000
0010
0000
0000
0001
0000
0000
0100
0000
,
0020
0000
0000
1030
0000
0000
0100
0000
0001
0000
0000
0100
0000
0000
1000
0000
,
0010
0100
0000
0010
0000
0000
0000
0000
1000
0000
0000
0000
0001
0000
0000
0000
,
0100
0010
0000
0100
0000
0000
0000
0000
0001
0000
0000
0000
0010
0000
0000
0000
,
0100
1000
0000
0100
0000
0000
0000
0000
0010
0000
0000
0000
0001
0000
0000
0000
,
0100
0001
0000
0100
0000
0000
0000
0000
0010
0000
1000
0000
0100
0000
0010
0000
,
0001
0010
0000
0100
0000
0000
0000
0000
1000
0000
0000
0000
0010
0000
0000
0000
,
0100
0001
0000
1000
0000
0000
0000
0000
0100
0000
0000
0000
0010
0000
0000
0000
,
0001
0010
0000
0100
0000
0000
0000
0000
1000
0000
0000
0000
0010
0000
0000
0000
,
0100
0001
0000
1000
0000
0000
0000
0000
0010
0000
0000
0000
0100
0000
0000
0000
,
0001
0000
1000
0000
0100
0010
0001
0100
,
1000
0000
0100
0000
0010
1000
0001
1000
,
0100
0000
0010
0000
0001
0100
0020
0000
,
0130
0000
1000
0100
0001
0100
0001
0010
,
0100
0000
0000
0000
0010
0000
0000
0000
0001
0100
0000
1000
0000
0100
0000
0001
,
1000
0000
0100
0000
0010
0001
1000
0001
,
0100
0000
0010
0000
1000
0100
0010
0010
,
0100
0000
0001
0100
1000
0100
1000
0010
,
0100
0000
0001
1000
0001
1000
0001
1000
0000
0001
0000
1000
0001
0000
0100
0000
,
0010
0100
0001
1000
0000
1000
0001
0010
,
0100
0000
0100
1000
0000
0010
0100
0001
,
1000
1000
0001
0100
0000
0100
0001
0010
,
0100
0000
0001
0100
2000
0000
3020
0000
,
0230
0302
0023
0230
,
2300
3002
0203
2300
,
3200
0302
0023
0230
,
2300
3002
0103
0110
,
2000
3200
0302
0203
,
0320
0000
0000
0000
0031
0000
0100
0001
0100
0001
0100
0000
0020
0000
0000
0000
,
2030
0000
3002
0000
,
1003
0000
0010
0000
0100
0010
0000
2000
0000
0000
3001
1000
0000
0002
0000
0000
,
0103
1000
0100
0001
0100
0010
0100
0000
,
0001
0100
1000
0100
0010
0100
0001
0000
,
1000
0000
0100
0000
0001
0000
0100
0000
0010
0001
0000
1000
0000
0001
0000
0100
,
0000
0000
0000
0000
0010
0000
0010
0000
1000
0100
0000
0001
0000
0100
0000
1000
,
0001
0100
0010
1000
0100
0001
0100
0000
,
1000
0001
0100
1000
0100
0010
1000
1000
,
0001
0000
0000
0000
0010
0000
0000
0000
1000
0000
0000
0000
0010
0000
0000
0000
0001
0000
0000
0001
0000
0000
0100
0000
0000
0000
0010
0000
0000
0000
0100
0000
,
0000
0000
0010
0100
0010
0100
0010
0100
0000
0002
0000
0000
1003
0001
0000
0100
,
0010
1000
0001
1000
0100
1000
0001
0010
,
0100
0000
1000
0001
1000
0001
1000
0001
0000
0100
0000
0010
0100
0000
0001
0000
,
1000
0100
0001
1000
1000
0010
0001
0100
,
0010
0000
1000
0001
1000
0001
1000
0001
0000
0100
0000
0010
0100
0000
0010
0000
,
1001
0000
0000
0000
;

//---------------dance-single - ----------------
#NOTES:
     dance-single:
     :
     Easy:
     3:
     0.228125,0.204690,0.108878,0.188722,0.029034,179.000000,15.000000,26.000000,0.000000,0.000000,0.000000,0.228125,0.204690,0.108878,0.188722,0.029034,179.000000,15.000000,26.000000,0.000000,0.000000,0.000000:
0000
0000
0000
0000
,
0000
0000
0000
0000
,
1001
0001
0100
0010
,
0110
0100
0001
1000
,
1001
0100
0010
0001
,
1001
0100
0010
0100
,
0010
0000
0000
0010
0000
0000
0000
0000
0100
0000
0000
0000
0001
0000
0000
0000
,
1000
0000
0000
1000
0000
0000
0000
0000
0100
0000
0000
0000
0010
0000
0000
0000
,
0001
0000
0000
0001
0000
0000
0000
0000
0100
0000
0000
0000
0001
0000
0000
0000
,
0010
0000
0000
0010
0000
0000
0000
0000
0100
0000
0000
0000
1000
0000
0000
0000
,
0010
0000
0000
0010
0000
0000
0000
0000
0100
0000
0000
0000
0001
0000
0000
0000
,
1000
0000
0000
1000
0000
0000
0000
0000
0100
0000
0000
0000
0010
0000
0000
0000
,
0100
0000
0000
0100
0000
0000
0000
0000
1000
0000
0000
0000
0010
0000
0000
0000
,
0100
0000
0000
0100
0000
0000
0000
0000
0001
0000
0000
0000
0100
0000
0000
0000
,
0110
0001
1000
0100
,
0010
0000
0001
0000
1000
0001
0100
0000
,
0010
0000
1000
0000
0001
1000
0100
0000
,
0010
0000
0001
0000
0100
0010
1000
0000
,
1001
0001
0010
0100
,
0110
0000
0010
0000
0001
0000
0100
0010
,
0100
0000
0001
0000
0010
0000
0100
1000
,
0001
0000
0100
0000
0010
0000
0100
0100
,
0100
0001
1001
0110
,
1001
0200
0300
0200
,
0300
0200
0300
0010
,
1000
0200
0300
0200
,
0300
0200
0310
0001
,
2000
0000
3002
0000
,
0203
0000
0320
0000
,
2030
0000
3002
0000
,
0023
0000
0130
0010
,
0002
0000
0203
0000
,
0320
0000
0000
1030
0001
1000
0200
0000
,
0320
0000
0230
0000
,
1300
1000
1000
0000
0001
0000
0100
0100
,
0110
0000
0010
0000
1000
0001
1000
0000
,
0100
0000
0010
0000
0001
0001
0001
0000
,
0100
0000
0010
0000
1000
0100
0010
0000
,
0100
0000
1000
0000
0001
0100
0010
1000
,
0100
0000
0010
0000
0100
1000
0001
0000
,
0100
0000
0010
0000
0100
0100
0001
0000
,
1000
0000
0100
0000
0010
0001
1000
0010
,
0100
0001
1000
0100
,
0110
0002
0003
2000
,
3000
0002
0103
0110
,
2000
3002
0003
2000
,
3000
0002
0103
0110
,
1001
0000
0000
0000
;

//---------------dance-single - ----------------
#NOTES:
     dance-single:
     :
     Beginner:
     1:
     0.110952,0.119403,0.029034,0.058068,0.000000,95.000000,4.000000,8.000000,0.000000,0.000000,0.000000,0.110952,0.119403,0.029034,0.058068,0.000000,95.000000,4.000000,8.000000,0.000000,0.000000,0.000000:
// measure 0
0000
0000
0000
0000
,  // measure 1
0000
0000
0000
0000
,  // measure 2
1001
0000
1000
0000
,  // measure 3
1000
0000
1000
0000
,  // measure 4
1001
0000
0001
0000
,  // measure 5
0001
0000
0001
0000
,  // measure 6
1000
0000
0000
0000
,  // measure 7
0001
0000
0000
0000
,  // measure 8
1000
0000
0000
0000
,  // measure 9
0001
0000
0000
0100
,  // measure 10
0100
0000
0000
0000
,  // measure 11
0010
0000
0000
0000
,  // measure 12
0100
0000
0000
0000
,  // measure 13
0010
0000
0000
0000
,  // measure 14
1000
1000
0001
0001
,  // measure 15
1000
0000
1000
1000
,  // measure 16
1000
0000
0001
0001
,  // measure 17
0001
0000
1000
1000
,  // measure 18
1000
0000
0010
0010
,  // measure 19
0010
0000
0100
0100
,  // measure 20
0100
0000
0001
0001
,  // measure 21
0001
0000
1000
1000
,  // measure 22
1000
0000
0100
0000
,  // measure 23
0010
0000
0010
0000
,  // measure 24
0010
0000
0010
0000
,  // measure 25
0001
0000
0001
0000
,  // measure 26
0001
0000
0001
0000
,  // measure 27
2000
0000
3000
0000
,  // measure 28
0002
0000
0003
0000
,  // measure 29
2000
0000
3000
0000
,  // measure 30
0002
0000
0003
0000
,  // measure 31
0200
0000
0300
0000
,  // measure 32
0020
0000
0030
0000
,  // measure 33
2000
3000
0002
0003
,  // measure 34
1001
0000
0000
0000
,  // measure 35
0001
0001
0001
0000
,  // measure 36
1000
1000
1000
0000
,  // measure 37
0100
0100
0100
0000
,  // measure 38
1000
0000
0001
0001
,  // measure 39
0001
0001
0001
0000
,  // measure 40
0100
0100
0100
0000
,  // measure 41
0010
0010
0010
0000
,  // measure 42
1000
0000
0001
0000
,  // measure 43
1000
0001
0000
0001
,  // measure 44
0000
0001
0000
0001
,  // measure 45
1000
1000
0000
1000
,  // measure 46
0000
1000
0000
0001
,  // measure 47
1001
0000
0000
0000
;
