#VERSION:0.81;
#TITLE:キミがいる;
#SUBTITLE:;
#ARTIST:いきものがかり;
#TITLETRANSLIT:Kimi ga Iru;
#SUBTITLETRANSLIT:;
#ARTISTTRANSLIT:Ikimono Gakari;
#GENRE:;
#ORIGIN:;
#CREDIT:;
#BANNER:ikimonogakari-banner.png;
#BACKGROUND:ikimonogakari-bg.png;
#PREVIEWVID:;
#JACKET:ikimonogakari-jecket.png;
#CDIMAGE:;
#DISCIMAGE:;
#LYRICSPATH:;
#CDTITLE:;
#MUSIC:キミがいる.ogg;
#OFFSET:-0.010000;
#SAMPLESTART:94.469749;
#SAMPLELENGTH:12.000000;
#SELECTABLE:YES;
#BPMS:0.000=104.000;
#STOPS:29.750=1.154,
127.750=1.154,
225.750=1.154;
#DELAYS:;
#WARPS:;
#TIMESIGNATURES:0.000=4=4;
#TICKCOUNTS:0.000=4;
#COMBOS:0.000=1;
#SPEEDS:0.000=1.000=0.000=0;
#SCROLLS:0.000=1.000;
#FAKES:;
#LABELS:0.000=Song Start;
#BGCHANGES:;
#KEYSOUNDS:;
#ATTACKS:
;

//---------------dance-single - ----------------
#NOTEDATA:;
#CHARTNAME:;
#STEPSTYPE:dance-single;
#DESCRIPTION:;
#CHARTSTYLE:;
#DIFFICULTY:Hard;
#METER:7;
#RADARVALUES:0.406402,0.390299,0.048334,0.324530,0.245123,358.000000,7.000000,47.000000,12.000000,0.000000,0.000000,0.000000,0.000000,0.406402,0.390299,0.048334,0.324530,0.245123,358.000000,7.000000,47.000000,12.000000,0.000000,0.000000,0.000000,0.000000;
#CREDIT:;
#NOTES:
// measure 0
0000
0000
0000
0000
,  // measure 1
0000
0000
0000
0000
,  // measure 2
0000
0000
0000
0000
,  // measure 3
0000
0000
0000
0000
,  // measure 4
1001
0000
0000
0000
1000
0100
0001
0100
,  // measure 5
2000
3020
0032
0203
,  // measure 6
1300
0000
0010
0000
0001
0000
0000
0010
0000
0010
0000
0100
0001
0000
0010
0000
,  // measure 7
0100
0000
0100
0000
1000
0000
0000
MMMM
2001
0000
0100
0000
0000
0000
0100
0000
,  // measure 8
0000
3100
0020
0031
0200
1000
0000
1000
,  // measure 9
0000
1300
0200
0301
0020
0100
0000
0130
,  // measure 10
2000
3001
0002
1003
1002
0010
0000
0010
,  // measure 11
0000
0013
0200
1300
0020
0001
0000
0001
,  // measure 12
0000
0031
0020
1030
0200
0010
0000
0310
,  // measure 13
0002
0000
1003
0000
2000
0000
3001
0000
1001
0000
0000
0001
0010
0000
0000
0010
,  // measure 14
0100
0000
0000
0100
1000
0000
0001
0000
2000
0000
0000
0000
3020
0000
0000
0000
,  // measure 15
0032
0000
0000
0000
0203
0000
0000
0000
1300
0000
0001
0000
1000
0100
0000
0100
,  // measure 16
0000
0001
0000
1000
0000
0010
0000
0010
0001
0000
0100
0000
0010
1000
0000
1000
,  // measure 17
0010
0000
0100
0001
0000
0001
0100
0000
0001
0000
1000
0000
0001
0100
0000
0100
,  // measure 18
0000
1000
0000
0001
0000
0010
0000
0010
1000
0000
0100
0000
0010
0001
0000
0001
,  // measure 19
0010
0000
0100
1000
0000
1000
0100
0000
2000
0000
0001
0000
0000
0000
0001
0000
,  // measure 20
0000
3001
0100
0100
0002
1000
0000
1000
,  // measure 21
0000
1003
0100
0100
1000
0010
1000
0001
,  // measure 22
0010
0001
0100
0010
1000
0100
0010
0001
,  // measure 23
0010
0000
0100
0000
1000
0000
0000
1000
0100
0000
0000
0100
0001
0000
0000
0001
,  // measure 24
0100
0000
0000
0100
1000
0000
0000
1000
0001
0000
0000
1000
0001
0000
0000
0001
,  // measure 25
1000
0000
0000
0001
1000
0000
0000
1000
0001
0000
0000
0001
0100
0000
0000
0100
,  // measure 26
1000
0000
0000
1000
0100
0000
0000
0100
0001
0000
0000
0000
0000
0000
0000
0000
,  // measure 27
1000
0000
0001
0000
1000
0000
0000
1000
0100
0000
0000
0010
0001
0000
0000
0001
,  // measure 28
0100
0000
0000
0010
1000
0000
0000
1000
0001
0000
0000
1000
0001
0000
0000
0001
,  // measure 29
1000
0000
0000
0001
1000
0000
0000
1000
0001
0000
0010
0000
0001
0000
1000
0000
,  // measure 30
0010
0000
1000
0000
0100
0000
0010
0000
0001
0000
0000
0100
0000
0000
1000
0000
,  // measure 31
0000
0010
0000
0000
0001
0000
0100
0000
0010
0000
0010
0000
1000
0000
0000
MMMM
,  // measure 32
0001
0000
0100
0000
1000
0000
0100
0000
0001
0000
0100
0000
0010
1000
0010
0000
,  // measure 33
1000
0000
0100
0000
0001
0000
0100
0000
1000
0000
0100
0000
0010
0001
0010
0000
,  // measure 34
0001
0100
1000
0100
0010
1000
0200
0000
,  // measure 35
0320
1000
0100
0001
,  // measure 36
0130
0000
1000
0000
0010
0000
1000
0000
0100
0000
1000
0000
0010
0100
0010
0000
,  // measure 37
2000
3200
0302
0023
,  // measure 38
1030
0000
0100
0000
0010
0000
0000
0100
0000
0100
0000
1000
0010
0000
0100
0000
,  // measure 39
0001
0010
0100
0010
0001
0100
0010
0010
,  // measure 40
1000
0000
0100
0000
0001
0000
0100
0000
1000
0000
0100
0000
0010
0001
0010
0000
,  // measure 41
0001
0000
0100
0000
1000
0000
0100
0000
0001
0000
0100
0000
0010
1000
0010
0000
,  // measure 42
1000
0100
0001
0100
0010
0001
0200
0000
,  // measure 43
0320
0001
0100
1000
,  // measure 44
0130
0000
0001
0000
0010
0000
0001
0000
0100
0000
0001
0000
0010
0100
0010
0000
,  // measure 45
0002
0203
2300
3020
,  // measure 46
0031
0000
0100
0000
0010
0000
0000
0100
0000
0100
0000
0001
0010
0000
0100
0000
,  // measure 47
1000
0010
0100
0010
2000
0000
0001
0000
,  // measure 48
0002
0000
0000
3003
,  // measure 49
1001
0000
0000
0000
1000
0100
0010
0001
,  // measure 50
0000
0000
0000
0000
1000
0010
0100
0001
,  // measure 51
0000
0000
0000
0000
1000
0100
0010
0001
,  // measure 52
0200
2300
3020
0031
,  // measure 53
1001
0000
0000
0000
0001
0010
1000
0010
,  // measure 54
0002
0203
2300
3020
,  // measure 55
0031
0000
0100
0000
1000
0000
0000
0100
0000
0100
0000
0010
1000
0000
0100
0000
,  // measure 56
0010
0000
0010
0000
0001
0000
0000
MMMM
0001
0000
0100
0000
1000
0000
0000
0100
,  // measure 57
0000
0100
0000
0010
1000
0000
2002
0000
0000
0000
0000
0000
0000
0000
0000
0000
,  // measure 58
0000
0000
0000
0000
,  // measure 59
0000
0000
3003
0000
;

//---------------dance-single - ----------------
#NOTEDATA:;
#CHARTNAME:;
#STEPSTYPE:dance-single;
#DESCRIPTION:;
#CHARTSTYLE:;
#DIFFICULTY:Medium;
#METER:5;
#RADARVALUES:0.298883,0.308131,0.069049,0.435008,0.055239,230.000000,10.000000,63.000000,12.000000,0.000000,0.000000,0.000000,0.000000,0.298883,0.308131,0.069049,0.435008,0.055239,230.000000,10.000000,63.000000,12.000000,0.000000,0.000000,0.000000,0.000000;
#CREDIT:;
#NOTES:
0000
0000
0000
0000
,
0000
0000
0000
0000
,
0000
0000
0000
0000
,
0000
0000
0000
0000
,
1001
0000
0000
0000
0001
0100
1000
0100
,
0002
0023
2030
3200
,
0301
0010
1000
0000
1000
0010
0001
0001
,
0100
0000
0010
0000
1000
0000
0000
MMMM
2001
0000
0000
0000
0000
0000
0000
0000
,
0000
3200
0320
0000
,
0000
2030
3020
0000
,
0032
2003
3002
0000
,
0000
0203
0320
0000
,
0000
0032
0023
0000
,
2030
3002
2003
3200
,
0302
0023
2030
3200
,
0302
0023
2030
0000
,
0000
3200
0320
0000
,
0000
2030
3020
0000
,
0032
2003
3002
0000
,
0000
0203
0320
0000
,
0000
0032
0023
0000
,
2030
3002
1003
0100
,
0010
0001
1000
0010
,
0100
0000
0000
0000
0001
0000
0000
0000
1000
0000
0000
1000
0000
0000
0000
0000
,
0010
0000
0000
0010
0000
0000
0000
0000
0100
0000
0000
0100
0000
0000
0000
0000
,
0001
0000
0000
0001
0000
0000
0000
0000
0010
0000
0000
0010
0000
0000
0000
0000
,
0100
0000
0000
0100
0000
0000
0000
0000
1000
0000
0000
1000
0000
0000
0000
0000
,
0001
0000
0100
0000
1000
0000
0100
0000
0001
0000
0000
0001
0000
0000
0000
0000
,
0010
0000
0000
0010
0000
0000
0000
0000
0100
0000
0000
0100
0000
0000
0000
0000
,
1000
0000
0000
1000
0000
0000
0000
0000
0001
0000
0100
0000
1000
0000
0000
0000
,
1000
0000
0100
0000
0001
0000
0000
0000
1000
0000
0000
0100
0000
0000
0001
0000
,
0000
0100
0000
0000
1000
0000
0010
0000
0100
0000
0100
0000
0001
0000
0000
MMMM
,
1001
0000
0000
0001
0100
1000
0100
0001
,
0000
0000
0000
0010
0001
0100
0001
0010
,
0000
0000
0000
0100
1000
0010
0200
0000
,
0320
0001
0100
1030
,
1001
0000
0000
1000
0100
0001
0100
1000
,
0002
0203
2300
3020
,
0031
0100
1000
0000
1000
0100
0001
0000
,
1000
0100
0001
0000
0001
0100
1000
0000
,
1001
0000
0000
1000
0100
0001
0100
1000
,
0000
0000
0000
0010
1000
0100
1000
0010
,
0000
0000
0000
0100
0001
0010
0200
0000
,
0320
1000
0100
0031
,
1001
0000
0000
0001
0100
1000
0100
0001
,
2000
3200
0302
0023
,
1030
0100
0001
0000
0001
0100
1000
0000
,
0001
0100
1000
0000
1000
0100
0001
0000
,
2002
0000
0000
3003
,
1001
0000
0000
0000
0001
0010
0100
1000
,
0000
0000
0000
0000
0001
0100
0010
1000
,
0000
0000
0000
0000
0001
0010
0100
1000
,
0020
0032
0203
1300
,
1001
0000
0000
0000
0001
0100
1000
0100
,
0002
0023
2030
3200
,
0301
0010
1000
0000
1000
0010
0001
0100
,
0010
0000
0010
0000
1000
0000
0000
MMMM
0001
0000
0010
0000
1000
0000
0000
0000
,
1000
0010
0001
2002
0000
0000
0000
0000
,
0000
0000
0000
0000
,
0000
0000
3003
0000
;

//---------------dance-single - ----------------
#NOTEDATA:;
#CHARTNAME:;
#STEPSTYPE:dance-single;
#DESCRIPTION:;
#CHARTSTYLE:;
#DIFFICULTY:Easy;
#METER:2;
#RADARVALUES:0.157826,0.164336,0.027620,0.013810,0.010357,154.000000,4.000000,2.000000,12.000000,0.000000,0.000000,0.000000,0.000000,0.157826,0.164336,0.027620,0.013810,0.010357,154.000000,4.000000,2.000000,12.000000,0.000000,0.000000,0.000000,0.000000;
#CREDIT:;
#NOTES:
0000
0000
0000
0000
,
0000
0000
0000
0000
,
0000
0000
0000
0000
,
0000
0000
0000
0000
,
1001
0000
1000
0001
,
1000
0010
0001
0100
,
1000
0000
0001
1000
,
0001
0000
0000
0000
0000
0000
0000
MMMM
0001
0000
0000
0000
0000
0000
0000
0000
,
0000
0100
0100
0000
,
0000
0010
0010
0000
,
1000
0001
1000
0000
,
0000
0001
0001
0000
,
0000
1000
1000
0000
,
0001
1000
1000
0000
,
0100
0000
0001
0000
,
0010
0000
1000
0000
,
0000
0010
0010
0000
,
0000
0100
0100
0000
,
0001
0001
0001
0000
,
0000
1000
1000
0000
,
0000
0001
0001
0000
,
0001
1000
1000
0010
,
0100
0001
1000
0100
,
0010
0001
1000
0000
,
0010
0000
0100
0000
,
0001
0000
1000
0000
,
0100
0000
0010
0000
,
0001
0000
1000
0000
,
0100
0000
0010
0000
,
0001
0000
1000
0010
,
0100
0001
1000
0000
,
0001
0000
0000
0000
0000
0000
0000
0000
1000
0000
0001
0000
1000
0000
0000
MMMM
,
0001
0100
1000
0100
,
0001
0010
0100
1000
,
0001
0100
0010
0100
,
0001
0010
0100
1000
,
0001
0100
0010
0100
,
0001
0001
0001
0001
,
1000
0000
0100
0000
,
0001
0000
0010
0000
,
1000
0100
0001
0100
,
1000
0010
0100
0001
,
1000
0100
0010
0100
,
1000
0010
0100
0001
,
1000
0100
0010
0100
,
1000
1000
1000
1000
,
0001
0000
0100
0000
,
1000
0000
0010
0000
,
0001
0000
0000
0000
,
1001
0000
0001
0100
,
0000
0000
0100
0010
,
0000
0000
0010
1000
,
0000
0001
1000
0001
,
1001
0000
0001
1000
,
0001
0100
1000
0010
,
0001
0000
1000
0001
,
1000
0000
0000
0000
0000
0000
0000
MMMM
0001
0000
0000
0000
0000
0000
0000
0000
,
1000
0000
0001
2002
0000
0000
0000
0000
,
0000
0000
0000
0000
,
0000
0000
3003
0000
;
