#TITLE:I've Just Begun;
#SUBTITLE:(Having My Fun);
#ARTIST:Britney Spears;
#TITLETRANSLIT:;
#SUBTITLETRANSLIT:;
#ARTISTTRANSLIT:;
#CREDIT:;
#BANNER:[Low Speed] I've Just Begun (Having My Fun).png;
#BACKGROUND:[Low Speed] I've Just Begun (Having My Fun)-bg.PNG;
#LYRICSPATH:;
#CDTITLE:cd.png;
#MUSIC:[Low Speed] I've Just Begun (Having My Fun).ogg;
#OFFSET:-0.060;
#SAMPLESTART:53.405;
#SAMPLELENGTH:18.100;
#SELECTABLE:YES;
#BPMS:0.000=108.010;
#STOPS:;
#BGCHANGES:;

//---------------dance-single - ----------------
#NOTES:
     dance-single:
     :
     Medium:
     5:
     0.388,0.399,0.139,0.370,0.000:
0000
0000
0000
0000
,
0000
0000
0000
0000
,
0000
0000
0000
0000
,
0000
0000
0000
0000
,
0000
0001
0001
0100
0010
1000
0010
0100
,
1000
0100
0010
0100
,
2020
0000
0000
3030
,
0000
0202
0000
0000
0000
0000
0000
0303
,
0000
0010
0010
1000
0100
1000
0001
0010
,
0100
0002
2003
3100
,
2002
0000
0000
3003
,
0000
0220
0000
0000
0000
0000
0000
0330
,
0000
0100
1000
0010
0100
0001
0100
1000
,
0001
0000
1000
0100
0010
0100
0010
1000
,
0002
1000
1000
1003
,
1000
0020
1000
0000
1000
0000
1030
0000
,
0010
0100
0010
1000
0100
0001
0010
0100
,
0002
0000
2003
0000
3010
0100
0010
1000
,
0002
0010
0010
0013
,
0010
2000
0100
0000
0100
0000
3100
0001
,
2000
0000
3002
0000
,
0023
0000
0000
0000
1030
0000
0001
0100
,
1000
0010
1000
0100
0000
1000
0000
0001
,
0000
1000
0000
1001
0000
0001
1000
0100
,
2001
0000
3010
0000
0100
0010
1000
0100
,
2000
0000
3001
0000
0010
0100
0010
0100
,
0020
0000
1030
0010
1000
0000
0001
0010
,
0001
0010
0100
0010
0100
0000
2001
0000
,
3200
0000
0301
0000
0100
0010
1000
0010
,
2000
0000
3001
0000
0001
0100
0001
0100
,
0020
0000
1030
0010
0100
0000
0100
0010
,
1000
0100
0010
0100
0001
0100
1000
0000
,
2001
0000
3200
0000
0301
0010
0100
0010
,
1002
0000
1003
0000
1000
0010
0100
1000
,
0100
2001
3010
0100
,
0001
1000
0100
1000
0100
0000
1001
0000
,
0120
0000
1030
0000
1000
0001
0010
0100
,
0002
0000
1003
0000
1000
0001
0010
0100
,
0010
0000
0110
0000
0100
1000
0001
0010
,
0000
0100
0010
1000
0100
0001
0010
0000
,
0100
0002
0000
0103
0001
1000
0010
1000
,
0010
2000
0000
3010
0100
0010
1000
0100
,
0010
0200
0000
0301
0100
0010
0100
0010
,
1000
0100
1000
0100
1000
0000
1001
0000
,
0010
2000
0000
3001
1000
0010
0100
0010
,
0100
0002
0000
1003
0100
0010
0001
1000
,
0100
2000
0000
3010
0100
0001
1000
0010
,
1000
0100
0010
0100
0010
0000
2002
0000
,
3003
0000
0000
0000
;

//---------------dance-single - ----------------
#NOTES:
     dance-single:
     :
     Easy:
     3:
     0.238,0.333,0.231,0.129,0.000:
0000
0000
0000
0000
,
0000
0000
0000
0000
,
0000
0000
0000
0000
,
0000
0000
0000
0000
,
1000
0100
1000
0010
,
0001
1000
0100
0010
,
2000
0000
0000
3000
,
0002
0000
0000
0003
,
0100
1000
0100
0010
,
0001
1000
0010
0100
,
0020
0000
0000
0030
,
0200
0000
0000
0300
,
0010
0001
1000
0100
,
1000
0010
1000
0100
,
0020
0000
0000
0030
,
0200
0000
0000
0300
,
1000
0010
1000
0100
,
0001
1000
0010
0100
,
0020
0000
0000
0030
,
2000
0000
0000
3010
,
0002
0000
2003
0000
,
3010
0000
0000
0001
,
0020
0030
0002
0003
,
0100
0010
0001
1000
,
1001
0100
0010
0100
,
1100
0001
0010
0100
,
0101
0010
0100
1000
,
1010
0101
0011
1100
,
0110
0001
1000
0010
,
1100
0010
0100
0001
,
0101
0010
1000
0100
,
1010
1100
0101
0011
,
0110
1000
0001
0010
,
0101
1000
0010
0100
,
0110
0001
1000
0010
,
0100
1000
0001
1001
,
0010
1000
0100
0001
,
1010
0100
0001
0010
,
1001
0010
0100
0001
,
0010
1000
1001
0110
,
1001
0000
0001
0100
,
1000
0000
0010
0001
,
0100
0000
0010
0100
,
1000
0001
0010
1001
,
0010
0000
1000
0100
,
0001
0000
0010
0100
,
1000
0000
0001
0010
,
0100
1000
0010
2002
,
3003
0000
0000
0000
;

//---------------dance-single - ----------------
#NOTES:
     dance-single:
     :
     Hard:
     8:
     0.539,0.555,0.462,0.398,0.074: // measure 1
0000
0000
0000
0000
,  // measure 2
0000
0000
0000
0000
,  // measure 3
0000
0000
0000
0000
,  // measure 4
0000
0000
0000
0000
,  // measure 5
0000
1000
0010
1000
0010
1000
0010
0100
,  // measure 6
0001
0100
0010
1000
0001
0010
0001
0100
,  // measure 7
1001
0000
0100
0001
0100
0001
0100
0000
0002
0000
0000
0000
2003
0000
0000
0000
,  // measure 8
3001
0000
1000
0010
1000
0010
1000
0000
0002
0000
0000
0000
2003
0000
0000
0000
,  // measure 9
3100
1000
0100
0010
0001
1000
0001
1000
,  // measure 10
0010
1000
0001
1000
0010
0100
0001
0100
,  // measure 11
1000
0000
0001
0100
0001
0100
0001
0000
2000
0000
0000
0000
3002
0000
0000
0000
,  // measure 12
1003
0000
0010
1000
0010
1000
0010
0000
0200
0000
0000
0000
0301
0000
0000
0000
,  // measure 13
1001
0010
0100
0010
0110
0001
1000
0100
,  // measure 14
0010
1000
0001
0010
1001
0110
1001
0110
,  // measure 15
1001
0000
0001
1000
0001
1000
0001
0000
0200
0000
0000
0000
0302
0000
0000
0000
,  // measure 16
1003
0000
0010
0100
0010
0100
0010
0000
2000
0000
0000
0000
3002
0000
0000
0000
,  // measure 17
0103
0010
0100
0010
0100
0010
1000
0001
,  // measure 18
1000
0010
0100
0001
0011
0011
1100
1100
,  // measure 19
1010
0000
0001
1000
0001
1000
0001
0000
2000
0000
0000
0000
3002
0000
0000
0000
,  // measure 20
0103
0000
0001
0100
0001
0100
0001
0000
0200
0000
0000
0000
0301
0000
1000
0000
,  // measure 21
0010
1000
0010
2000
0000
3000
0001
0100
,  // measure 22
0002
0000
1000
0000
0013
0000
0100
1000
,  // measure 23
0010
0100
0001
0010
0000
0010
0000
0110
,  // measure 24
0000
0110
0000
1000
0001
1000
0110
1001
,  // measure 25
0110
0100
0001
1000
0010
0100
0001
1000
,  // measure 26
0012
0000
0103
1000
0010
0100
0001
0100
,  // measure 27
0102
0000
0013
0100
0001
0100
0010
1000
,  // measure 28
0001
0100
0010
0100
0110
0000
1002
0000
,  // measure 29
0103
1000
0001
0010
0100
1000
0001
1000
,  // measure 30
2001
0000
3100
1000
0001
0010
0100
0010
,  // measure 31
0210
0000
0301
1000
0010
0000
0010
1000
,  // measure 32
0100
0000
0010
1000
0010
0100
2001
0000
,  // measure 33
3001
0100
0001
1000
0100
0010
0100
0010
,  // measure 34
2001
0000
3001
0100
0010
1000
0100
0001
,  // measure 35
1002
0000
0013
0100
1000
0000
0010
0100
,  // measure 36
1000
0010
0001
0100
1002
0000
0103
0000
,  // measure 37
1001
0100
0010
1000
1001
0100
0010
0001
,  // measure 38
0210
0000
0301
0001
0001
1000
0010
0100
,  // measure 39
2001
0000
3001
0100
0010
0000
1000
0100
,  // measure 40
0010
0001
0100
0010
2001
0001
3001
0000
,  // measure 41
1001
2002
3003
0001
0100
0010
1000
0010
,  // measure 42
0110
0220
0330
0110
0001
1000
0100
0010
,  // measure 43
0011
0022
0033
0011
0100
1000
0010
0100
,  // measure 44
0010
1000
0001
1000
2001
0000
3100
0000
,  // measure 45
1001
2002
3003
0001
0100
0010
1000
0001
,  // measure 46
1100
2200
3300
1100
1100
0001
0010
0100
,  // measure 47
0001
0022
0033
0100
1000
0010
0100
0001
,  // measure 48
0010
0001
0100
1000
0001
0000
2002
0000
,  // measure 49
3003
0000
0000
0000
;
