#TITLE:I Blame Myself;
#SUBTITLE:;
#ARTIST:Sky Ferreira;
#TITLETRANSLIT:;
#SUBTITLETRANSLIT:;
#ARTISTTRANSLIT:;
#GENRE:;
#CREDIT:;
#BANNER:;
#BACKGROUND:;
#LYRICSPATH:;
#CDTITLE:;
#MUSIC:05 I Blame Myself.mp3;
#OFFSET:0.428666;
#SAMPLESTART:40.045956;
#SAMPLELENGTH:15.000000;
#SELECTABLE:YES;
#BPMS:0.000000=115.000000
;
#STOPS:
;
#BGCHANGES:1.000=[Low Speed] - I Blame Myself.avi=1.000=0=0=1=====,
99999=-nosongbg-=1.000=0=0=0 // don't automatically add -songbackground-
;
#KEYSOUNDS:;
#ATTACKS:;

//---------------dance-single - ----------------
#NOTES:
     dance-single:
     :
     Hard:
     6:
     0.378951,0.366171,0.176844,0.280870,0.000000,211.000000,17.000000,27.000000,0.000000,0.000000,0.000000,0.378951,0.366171,0.176844,0.280870,0.000000,211.000000,17.000000,27.000000,0.000000,0.000000,0.000000:
// measure 0
0000
0000
0000
0000
,  // measure 1
0000
0000
0000
0000
,  // measure 2
0000
0000
0000
0000
,  // measure 3
0000
0000
0000
0000
,  // measure 4
0000
0000
1000
0001
0100
0010
1000
0100
,  // measure 5
1000
0001
0200
0000
0301
0100
0000
0100
,  // measure 6
0010
0000
1000
0010
1000
0100
0010
0010
,  // measure 7
0100
1000
0001
0100
1000
0100
0002
0000
,  // measure 8
1003
0000
0001
0000
0100
0010
1000
0100
,  // measure 9
0001
0100
2000
0000
3010
0100
0000
0100
,  // measure 10
0001
0001
0010
0100
0010
0001
0020
0000
,  // measure 11
0130
0100
1000
0010
1000
0100
1000
0000
,  // measure 12
1001
0000
0001
0000
0100
0001
0010
0000
,  // measure 13
0100
0000
1000
0000
0100
0010
0000
0010
,  // measure 14
0001
0000
0100
0000
0010
1000
0001
0000
,  // measure 15
0100
0000
0001
0000
0100
0001
0000
0001
,  // measure 16
0010
0000
0100
0000
1000
0010
0100
0000
,  // measure 17
0001
0000
0010
0000
0100
1000
0000
1000
,  // measure 18
0010
0000
0100
0000
0001
1000
0001
0000
,  // measure 19
1000
1001
0000
0000
,  // measure 20
0000
0000
0201
0000
0301
0100
0020
0000
,  // measure 21
1030
0001
0200
0000
0310
1000
0100
0000
,  // measure 22
1001
0000
0001
0100
1000
0100
0001
0010
,  // measure 23
0100
1000
0002
1000
1003
0000
0001
1000
,  // measure 24
0001
0000
0201
0000
0310
1000
0200
0000
,  // measure 25
1300
0100
0002
0000
0103
0010
0001
0000
,  // measure 26
0101
0000
1000
0010
0001
0010
1000
0100
,  // measure 27
0010
0001
0200
0001
0301
0000
0001
1000
,  // measure 28
0010
0000
0110
0000
0100
0001
2000
0000
,  // measure 29
3001
0100
2000
0000
3100
0010
1000
0000
,  // measure 30
1100
0000
0002
0000
1003
0100
0002
0000
,  // measure 31
0103
0010
0002
0000
0013
0001
0100
0000
,  // measure 32
0110
0000
2000
0000
3001
0100
2000
0000
,  // measure 33
3100
0010
2000
0000
3010
1000
0001
0000
,  // measure 34
0101
0002
0100
0100
,  // measure 35
0103
0001
0101
0000
0110
0000
1010
0000
,  // measure 36
1001
0000
0001
0000
1000
0100
0001
0000
,  // measure 37
0100
0000
0100
1000
0010
0100
0001
0000
,  // measure 38
0101
0000
1000
0000
0001
0010
1000
0000
,  // measure 39
0010
0000
0001
1000
0001
0100
0001
0000
,  // measure 40
0100
0002
0000
0000
,  // measure 41
0000
0103
0010
0220
,  // measure 42
0330
2000
0000
0000
,  // measure 43
0000
3001
1000
2002
,  // measure 44
3003
0000
0000
0000
;

//---------------dance-single - Chewi----------------
#NOTES:
     dance-single:
     Chewi:
     Medium:
     4:
     0.309105,0.364090,0.156039,0.353688,0.000000,159.000000,15.000000,34.000000,0.000000,0.000000,0.000000,0.309105,0.364090,0.156039,0.353688,0.000000,159.000000,15.000000,34.000000,0.000000,0.000000,0.000000:
0000
0000
0000
0000
,
0000
0000
0000
0000
,
0000
0000
0000
0000
,
0000
0000
0000
0000
,
0000
1000
0001
1000
,
0100
0000
0100
0010
0010
0000
0001
0000
,
0011
0001
1000
1000
,
0010
0100
0001
0002
,
1003
0001
0001
0100
,
0010
0000
1000
0100
0100
0000
0100
0000
,
1010
0001
0100
2000
,
3100
0100
0001
0020
,
0130
0010
0001
0001
,
1000
0000
0010
0000
1000
0100
0000
0100
,
0010
0001
0100
1000
,
0100
0000
0001
0000
0001
0010
0000
0010
,
0100
1000
0010
0010
,
0100
0000
0001
0000
0001
1000
0000
1000
,
0010
0100
0001
0100
,
0110
1001
0000
0000
,
0000
0000
2000
0000
3001
0100
0200
0000
,
0301
0101
1001
0220
,
0330
0000
1000
0000
1000
0000
0001
1000
,
0001
2000
0000
0010
3010
0000
0100
0000
,
0001
0000
2000
0000
3001
0100
0200
0000
,
0301
0101
1010
2002
,
3003
0000
0001
0000
0100
0000
0010
0100
,
0010
0200
0000
0010
0310
0000
1000
0000
,
0001
0000
2000
0000
3100
0010
0020
0000
,
0031
1000
2000
0000
3020
0000
0230
0000
,
0300
0002
0003
0200
,
0300
0020
2030
3002
,
1003
0100
0200
0000
1300
0001
0002
0000
,
0103
0020
0230
0302
,
0103
0020
1000
0100
,
0130
0110
1001
0110
,
1001
2000
0010
0010
,
0010
3000
0010
0000
0100
0000
0001
0000
,
0100
0002
1000
1000
,
1000
0003
1000
0000
0100
0000
0010
0000
,
0001
2000
0000
0000
,
0000
3001
0001
0002
,
0003
2000
0000
0000
,
0000
3001
0001
1001
;

//---------------dance-single - ----------------
#NOTES:
     dance-single:
     :
     Easy:
     2:
     0.173872,0.179965,0.000000,0.260065,0.000000,92.000000,0.000000,25.000000,0.000000,0.000000,0.000000,0.173872,0.179965,0.000000,0.260065,0.000000,92.000000,0.000000,25.000000,0.000000,0.000000,0.000000:
0000
0000
0000
0000
,
0000
0000
0000
0000
,
0000
0000
0000
0000
,
0000
0000
0000
0000
,
0000
1000
0100
1000
,
0000
0100
0000
0100
,
0000
0010
0001
0010
,
0000
0001
0000
0001
,
0000
1000
0001
1000
,
0000
0100
0000
0100
,
0000
0010
0010
0010
,
0000
0100
0100
0100
,
0000
1000
1000
1000
,
1000
0002
0000
0103
,
0000
0010
0010
0010
,
0010
2000
0000
3100
,
0000
0010
0010
0010
,
0010
0002
0000
1003
,
0000
0010
0000
0100
,
0100
0100
0000
0000
,
0000
0020
0030
2000
,
3000
0200
0300
0020
,
0030
0001
1000
0001
,
1000
0001
0000
0100
,
0000
0002
0003
0200
,
0300
0020
0030
2000
,
3000
0100
0010
0100
,
0010
0100
0000
1000
,
0000
0001
0000
0200
,
0300
0020
0030
2000
,
3000
0200
0300
2000
,
3000
0200
0300
0020
,
0030
0002
0003
0020
,
0030
0200
0300
2000
,
3000
0002
0000
0000
,
0003
1000
1000
1000
,
1000
0010
0000
0010
,
0000
0100
0100
0100
,
0000
0001
0000
0001
,
0000
1000
1000
1000
,
0000
0020
0000
0000
,
0000
0030
0000
0000
,
0000
0200
0000
0000
,
0000
0300
0000
0000
;
