#TITLE:Honey Trap Aftermath;
#SUBTITLE:;
#ARTIST:Diablo Swing Orchestra;
#TITLETRANSLIT:;
#SUBTITLETRANSLIT:;
#ARTISTTRANSLIT:;
#GENRE:;
#CREDIT:;
#BANNER:[Low Speed] - Honey Trap Aftermath.png;
#BACKGROUND:[Low Speed] - Honey Trap Aftermath-bg.png;
#LYRICSPATH:;
#CDTITLE:cdtitle.png;
#MUSIC:[Low Speed] - Honey Trap Aftermath.mp3;
#OFFSET:-0.051914;
#SAMPLESTART:56.202194;
#SAMPLELENGTH:10.212761;
#SELECTABLE:YES;
#BPMS:0.000000=94.000000
;
#STOPS:
;
#BGCHANGES:;
#KEYSOUNDS:;
#ATTACKS:;

//---------------dance-single - ----------------
#NOTES:
     dance-single:
     :
     Hard:
     7:
     0.445369,0.426129,0.253205,0.340244,0.241336,319.000000,32.000000,43.000000,0.000000,0.000000,0.000000,0.445369,0.426129,0.253205,0.340244,0.241336,319.000000,32.000000,43.000000,0.000000,0.000000,0.000000:
0000
0000
0000
0000
,
0000
0000
0000
0000
,
1002
0000
0100
0000
1003
0100
1000
0020
,
0001
0000
0000
0000
0000
0000
0130
0000
0000
0000
0000
0000
1000
0000
0000
1000
0000
0000
0010
0000
0100
0000
0000
0000
,
1001
0000
0000
1000
0000
0000
0100
0000
0000
0010
0000
0011
0000
0000
0000
0001
0000
0000
0001
0000
0000
1000
0000
0010
,
0000
0000
0000
0100
0000
0000
0100
0000
0000
0001
0000
1000
0000
0000
0000
0100
0000
0000
0001
0000
0000
0100
0000
0000
,
2100
0000
0000
0000
0000
0000
3010
0000
0100
0000
0010
0000
0100
0000
0000
0010
0000
0000
1000
0000
0000
0001
0000
0000
,
0020
0000
0000
0000
0000
0000
0230
0000
0000
0000
0000
0000
2300
0000
0000
0000
0000
0000
3001
0000
0000
1000
0000
0001
,
0000
0000
0000
0000
0000
0000
0100
0000
0010
0000
0000
1001
0000
0000
0000
0000
0000
0000
0000
0000
0000
0000
0000
0000
,
0021
0000
0000
0000
0000
0000
0031
0000
0100
0000
0000
0000
2000
0000
0000
0000
0000
0000
3100
0000
0000
0010
0000
0000
,
1000
0000
0000
0001
0000
0000
1000
0000
0000
0100
0000
0000
0002
0000
0000
0000
0000
0000
0103
0000
1000
0000
0000
1000
,
0000
0000
0000
1000
0000
0000
1000
0000
0000
0010
0000
0200
0000
0000
0000
0301
0000
0000
0010
0000
0001
0000
0000
0001
,
1000
0000
0000
1000
0000
0000
1000
0000
0000
0001
0000
0100
0000
0000
0000
0000
0000
0000
0010
0000
0000
1000
0000
0000
,
1020
0000
0000
0000
0000
0000
1030
0000
0100
0000
0000
0000
0002
0000
0000
0000
0000
0000
0103
0000
0000
0010
0000
0000
,
0001
0000
0000
1000
0000
0000
0001
0000
0000
0100
0000
0000
2000
0000
0000
0000
0000
0000
3100
0000
0001
0000
0000
0001
,
0000
0000
0000
0001
0000
0000
0001
0000
0000
0010
0000
0200
0000
0000
0000
1300
0000
0000
0010
0000
0100
0000
0000
0100
,
0001
0000
0000
0001
0000
0000
0001
0000
0000
0100
0000
0000
0010
0000
0010
0000
0000
1000
0001
0000
0000
0020
0000
0000
,
0000
0000
0031
0010
0000
0000
0100
0000
0000
1000
0000
0000
0020
0000
0000
0000
0000
0000
2030
0000
0000
0000
0000
0000
,
3100
0000
0000
0001
0000
0000
0100
0000
0000
1000
0000
0000
0010
0000
1000
0000
0000
0002
0000
0000
0000
0003
0000
0000
,
0011
1100
1010
0101
,
2001
0000
0000
0100
0000
0000
3001
1000
0001
0020
0000
0000
,
0001
0000
0000
0000
0000
0000
0230
0000
0000
0000
0000
0000
1300
0000
0000
1000
0000
0000
0010
0000
0100
0000
0000
0000
,
1002
0000
0000
1000
0000
0000
0010
0000
0000
1003
0000
0001
0000
0000
0000
0001
0000
0000
0100
0000
0000
0010
0000
1000
,
0000
1000
0100
0001
0100
1000
0010
0100
,
0201
0000
0010
0000
1300
0100
0001
0020
,
0100
0000
0000
0000
0000
0000
0031
0000
0000
0000
0000
0000
0010
0000
0000
0010
0000
0000
0001
0000
0100
0000
0000
0000
,
2001
0000
0000
0001
0000
0000
0010
0000
0000
3001
0000
1000
0000
0000
0000
1000
0000
0000
0100
0000
0000
0010
0000
0001
,
0000
0001
0100
1000
0100
0001
0010
0100
,
1200
0000
0010
0000
0301
0100
1000
0020
,
1000
0000
0000
0000
0000
0000
0130
0000
0000
0000
0000
0000
0001
0000
0000
0001
0000
0000
0010
0000
0001
1000
0000
0001
,
0000
0000
0000
0000
0000
0000
0000
0000
0000
0000
0000
0000
0110
0000
0000
0000
0000
0000
0100
0000
0010
0000
0000
1002
,
0000
1003
1000
0000
0100
1000
0001
0000
,
0100
0000
0000
0000
0000
0000
0000
0000
0000
0000
0000
0000
0000
0000
0000
0000
0000
0100
0010
0000
0000
1000
0000
0002
,
0000
0000
0000
0013
0000
0000
0010
0000
0000
0000
0000
0000
0001
0000
0000
0010
0000
0000
0001
0000
1000
0000
0001
0000
,
2001
0000
0000
0000
0000
0000
3010
0000
1000
0000
0001
0000
0200
0000
0000
0000
0000
0000
0310
0000
0000
1000
0000
0000
,
0002
0000
0000
0000
0000
0000
0013
0000
0001
0000
1000
0000
0200
0000
0000
0000
0000
0000
1300
0000
0000
0001
0000
2000
,
0000
0000
0000
3100
0000
0000
0100
0000
0010
0000
0000
0002
0000
0000
0000
0103
0000
0000
0001
0000
1000
0000
0000
0200
,
0000
0000
0000
1300
0000
0000
0001
0000
0000
1000
0000
0001
0000
0000
1000
0000
0000
0001
1000
0000
0000
0001
0000
0000
,
0011
1010
1100
0101
,
2001
0000
0010
0000
0001
0000
3010
1000
,
1001
0000
0000
0001
0000
0000
1001
0000
0000
1000
0000
0000
1001
0000
0000
0001
0000
0000
0100
0000
0010
0000
0000
0000
,
2010
0000
0000
0010
0000
0000
0001
0000
0000
3100
0000
1000
0000
0000
0000
1000
0000
0000
0100
0000
0000
0001
0000
0100
,
0000
1000
0100
0010
0001
0100
1000
0100
,
0201
0000
0010
0000
1300
0100
0001
0020
,
0100
0000
0031
0010
1000
0010
0100
0010
,
0012
0000
0000
0010
0000
0000
1000
0000
0000
0103
0000
0101
0000
0000
0000
0001
0000
0000
0100
0000
0000
1000
0000
0100
,
0000
0001
0100
0010
1000
0100
0001
0100
,
1200
0000
0010
0000
0301
0100
1000
0020
,
0001
0000
0000
0000
0000
0000
0130
0000
0000
0000
0000
0000
0010
0000
0000
1000
0000
0000
0001
0000
0000
0010
0000
0100
;

//---------------dance-single - ----------------
#NOTES:
     dance-single:
     :
     Medium:
     5:
     0.363982,0.329281,0.276943,0.363982,0.019782,241.000000,35.000000,46.000000,0.000000,0.000000,0.000000,0.363982,0.329281,0.276943,0.363982,0.019782,241.000000,35.000000,46.000000,0.000000,0.000000,0.000000:
0000
0000
0000
0000
,
0000
0000
0000
0000
,
2001
0000
3010
0000
1000
0100
0010
0002
,
1000
0000
0103
0000
0001
0001
1000
0000
,
1010
0000
1000
0100
0001
0000
0001
0100
,
1000
0000
1000
0010
0001
0000
0010
0000
,
1020
0000
1030
0001
1000
0000
0100
1000
,
0020
0230
0302
1003
,
1001
0000
0000
0000
0000
0000
0100
0000
0000
0000
0000
0110
0000
0000
0000
0000
0000
0000
0000
0000
0000
0000
0000
0000
,
2000
0000
3010
1000
0200
0000
0310
0000
,
0001
0100
0001
0100
2000
0000
3100
0000
,
0001
0001
0001
0000
0010
0001
0100
0000
,
0010
0000
0000
0010
0000
0000
0010
0000
0000
0000
0000
1001
0000
0000
0000
0000
0000
0000
0001
0000
0000
1000
0000
0000
,
0002
0000
0013
0001
0200
0000
0310
0000
,
1000
0100
1000
0100
0002
0000
0103
0000
,
1000
1000
1000
0000
0010
1000
0100
0000
,
0010
0010
0010
0000
0001
0100
0010
2000
,
0000
3010
1000
0001
0020
0000
0032
0000
,
0103
0010
1000
0001
1000
0000
0100
0000
,
0011
0101
1010
1100
,
1002
0000
0103
0000
0001
0001
2000
0000
,
3010
0000
0200
0000
0301
0001
0010
0000
,
1002
0013
2001
3100
,
0010
0000
0001
0100
0010
1000
0100
0000
,
0012
0000
0103
0000
0001
1000
0010
2000
,
0001
0000
3100
0000
0010
0010
0001
0000
,
2001
3010
1002
0103
,
0010
0000
1000
0100
0010
0001
0100
0000
,
2010
0000
3100
0000
1000
0001
0010
0001
,
2000
0000
3002
0000
0103
0100
0010
0000
,
0100
0000
0000
0000
0000
0000
0000
0000
0000
0000
0000
0000
0110
0000
0000
0000
0000
0000
0001
0000
0000
0000
0000
1002
,
0000
0003
1000
0000
0100
0000
0010
0000
,
0001
0000
0000
0000
0000
0000
0000
0000
0000
0000
0000
0000
0000
0000
0000
0000
0000
0000
0100
0000
0000
0001
0000
0200
,
0000
0300
0010
0000
1000
1000
0001
0000
,
2001
0000
3010
1000
0200
0000
0310
0001
,
0200
0000
0310
1000
0200
0000
0310
0001
,
2000
0000
3100
0010
0002
0000
0103
0010
,
2000
0000
3001
0000
1000
0001
1000
0000
,
0011
1100
1010
0101
,
1002
0010
0010
0013
,
0011
1100
0011
1100
,
1002
0103
2001
3010
,
1000
0000
0001
0100
1000
0100
0010
0000
,
2010
0000
3100
0000
0010
0001
0100
0002
,
0010
0103
0010
0100
,
2001
3100
1002
0013
,
0001
0000
1000
0100
0001
0100
0010
0000
,
0012
0000
0103
0000
0010
1000
0100
1000
,
0020
0000
0000
0000
0000
0000
0230
0000
0000
0000
0000
0000
0301
0000
0000
0001
0000
0000
1000
0000
0000
0000
0000
0001
;

//---------------dance-single - ----------------
#NOTES:
     dance-single:
     :
     Easy:
     2:
     0.189903,0.155088,0.047476,0.221554,0.000000,134.000000,6.000000,28.000000,0.000000,0.000000,0.000000,0.189903,0.155088,0.047476,0.221554,0.000000,134.000000,6.000000,28.000000,0.000000,0.000000,0.000000:
0000
0000
0000
0000
,
0000
0000
0000
0000
,
2000
0000
3010
0100
,
0002
0000
0013
0010
,
0110
0000
1001
0000
,
1001
0000
0110
0000
,
0002
0000
0103
0010
,
2000
0000
3001
1000
,
0001
0000
0110
0000
,
2000
3000
0002
0003
,
0100
0001
0020
0030
,
0100
1000
0001
0000
,
0100
0001
1000
1000
,
0002
0003
2000
3000
,
0100
1000
0020
0030
,
0100
0001
1000
0000
,
0100
1000
0010
0010
,
0100
0000
0001
0000
,
1000
0100
0010
0000
,
0001
1000
0001
1000
,
0002
0000
1003
0000
,
0010
0000
1000
0001
,
2000
3000
0200
0300
,
1000
0010
1000
0001
,
0020
0030
0001
0001
,
2000
3000
0010
1000
,
0002
0003
0200
0300
,
0001
0010
0001
1000
,
0020
0030
1000
1000
,
0002
0003
0010
0100
,
1000
0000
0001
0100
,
1001
0000
1000
0000
,
0001
0000
0000
1000
,
0001
0000
0001
0000
,
0100
0000
1000
0000
,
0100
0000
0001
0000
,
0100
0010
1000
0001
,
1000
0000
0001
0000
,
1000
0100
0010
0001
,
2000
0000
3010
0000
,
1000
0001
1000
0001
,
2000
3000
0020
0030
,
0100
0001
0010
0100
,
2000
3000
0001
0001
,
0200
0300
0001
1000
,
0002
0003
0020
0030
,
0100
1000
0010
0100
,
0002
0003
1000
1000
,
0200
0300
0010
0001
,
1000
0000
0000
0000
;

//---------------dance-single - ----------------
#NOTES:
     dance-single:
     :
     Beginner:
     1:
     0.089300,0.077544,0.000000,0.015825,0.000000,77.000000,0.000000,2.000000,0.000000,0.000000,0.000000,0.089300,0.077544,0.000000,0.015825,0.000000,77.000000,0.000000,2.000000,0.000000,0.000000,0.000000:
0000
0000
0000
0000
,
0000
0000
0000
0000
,
1000
0000
0010
0000
,
0100
0000
0000
0000
,
0001
0000
1000
0000
,
1000
0000
0001
0000
,
0010
0000
0100
0000
,
1000
0000
0000
0000
,
0001
0000
1000
0000
,
0001
0000
0000
0000
,
1000
0000
0000
0000
,
0100
0000
0010
0000
,
0100
0000
0010
0000
,
0001
0000
0000
0000
,
1000
0000
0000
0000
,
0010
0000
0100
0000
,
0010
0000
0100
0000
,
0001
0000
0000
0000
,
1000
0000
0000
0000
,
0100
0000
0100
0000
,
0200
0000
0300
0000
,
0010
0000
0000
0000
,
0001
0000
0100
0000
,
0001
0000
1000
0000
,
0010
0000
1000
0000
,
0001
0000
0000
0000
,
1000
0000
0100
0000
,
1000
0000
0001
0000
,
0010
0000
0001
0000
,
1000
0000
0001
0000
,
0001
0000
0000
0000
,
0001
0000
1000
0000
,
0001
0000
0000
0000
,
0100
0000
0010
0000
,
0100
0000
0000
0000
,
0010
0000
0000
0000
,
0100
0000
0010
0000
,
0100
0000
0000
0000
,
0001
0000
0001
0000
,
0002
0000
0003
0000
,
1000
0000
0001
0000
,
1000
0000
0010
0000
,
1000
0000
0100
0000
,
0010
0000
0001
0000
,
0100
0000
0000
0000
,
0001
0000
0010
0000
,
0001
0000
0100
0000
,
0010
0000
1000
0000
,
0100
0000
0010
0000
,
0001
0000
0000
0000
;

//---------------dance-single - ----------------
#NOTES:
     dance-single:
     :
     Challenge:
     9:
     0.543712,0.503607,0.189903,0.348156,0.545972,413.000000,24.000000,44.000000,0.000000,0.000000,0.000000,0.543712,0.503607,0.189903,0.348156,0.545972,413.000000,24.000000,44.000000,0.000000,0.000000,0.000000:
// measure 0
0000
0000
0000
0000
,  // measure 1
0000
0000
0000
0000
,  // measure 2
1002
0000
0010
0000
1003
0100
0001
0200
,  // measure 3
1000
0000
0000
0000
0000
0000
0310
0000
0000
0000
0000
0000
0001
0000
0000
0001
0000
0000
0100
0000
0010
0000
0000
0000
,  // measure 4
1001
0000
0000
0001
0000
0000
1000
0000
0000
1010
0000
0101
0000
0000
0001
0100
0000
0000
0001
0000
0000
0010
0000
0001
,  // measure 5
0000
0000
1000
0100
0000
0000
1000
0000
0000
0010
0000
0100
0000
0000
0001
0100
0000
0000
0001
0000
0000
1000
0000
0001
,  // measure 6
2000
0000
0000
0000
0000
0000
3010
0000
1000
0000
0010
0000
0001
0000
0000
0010
0000
0000
1000
0000
0000
0100
0000
0000
,  // measure 7
0002
0000
0000
0000
0000
0000
0203
0000
0000
0000
0000
0000
2300
0000
0000
0100
0000
0000
3100
0000
0000
1000
0000
0001
,  // measure 8
0000
0000
0000
0001
0000
0000
0100
0000
0010
0000
0000
1001
0000
0000
0000
0000
0000
0000
0000
0000
0000
0000
0000
0000
,  // measure 9
0012
0000
0000
0000
0000
0000
0103
0000
1000
0000
0000
0000
0200
0000
0000
0000
0000
0000
0301
0000
0010
0001
0000
0001
,  // measure 10
0100
0000
0100
0010
0000
0010
1000
0000
1000
0010
0000
0000
0002
0000
0000
0023
0000
0000
1030
0000
0100
0000
0000
0010
,  // measure 11
0000
0000
0000
0100
0000
0000
0010
0000
0000
0001
0000
0020
0000
0000
1030
0000
0000
0010
0001
0000
0010
0000
0000
0100
,  // measure 12
1000
0000
1000
0100
0000
0000
1000
0000
0000
0010
0000
0110
0000
0000
0000
0000
0000
1000
0001
0000
0001
0100
0000
0000
,  // measure 13
2010
0000
0000
0000
0000
0000
3100
0000
0001
0000
0000
0000
0200
0000
0000
0000
0000
0000
1300
0000
0010
1000
0000
1000
,  // measure 14
0100
0000
0100
0010
0000
0010
0001
0000
0001
0010
0000
0000
2000
0000
0000
3020
0000
0000
0031
0000
0100
0000
0000
0100
,  // measure 15
0010
0000
0010
0100
0000
0000
0010
0000
0000
1000
0000
0020
0000
0000
0000
0031
0000
0010
0100
0000
0001
0000
0000
0010
,  // measure 16
0100
0000
0100
0010
0000
0000
0100
0000
0000
0010
0000
0000
0001
0000
1000
0000
0000
0001
1000
0000
0000
0020
0000
0000
,  // measure 17
0000
0030
1000
0010
0000
0000
1000
0000
0000
0100
0000
0000
0002
0000
0000
0000
0000
0000
0203
0000
0000
0000
0000
0000
,  // measure 18
0310
0000
0100
1000
0000
0001
1000
0000
0010
1000
0000
0000
0001
0000
0010
0000
0000
0002
0000
0000
0000
0103
0000
0000
,  // measure 19
1010
0000
0000
0000
0000
1000
0100
0000
0000
0000
0000
0010
0001
0000
0000
0000
0000
0001
0100
0000
0000
0010
0000
1000
,  // measure 20
0002
0000
0000
0010
0000
0000
1003
0100
0010
0002
0000
0000
,  // measure 21
1000
0000
0000
0100
0000
0000
2003
0000
0000
0100
0000
0000
3001
0000
0000
1000
0000
0000
0001
1000
0001
1000
0001
1000
,  // measure 22
0002
0000
0000
1000
0000
0000
0010
0000
0000
1003
0000
0001
0000
0000
0001
0100
0000
0000
0010
0000
0000
1000
0000
0100
,  // measure 23
0000
0000
0100
1000
0000
0000
0010
0000
0000
0100
0000
0001
0100
0000
0001
1000
0000
0000
0100
0000
0000
0010
0000
0000
,  // measure 24
0012
0000
0100
0000
1003
0010
0001
0020
,  // measure 25
1000
0000
0000
1030
0000
0000
0010
0000
0000
0010
0000
0000
0100
0000
0010
0000
0000
1000
0001
0000
1000
0001
1000
0001
,  // measure 26
2000
0000
0000
0001
0000
0000
0010
0000
0000
3001
0000
0001
0000
0000
1000
0100
0000
0000
0010
0000
0000
0001
0000
0100
,  // measure 27
0000
0000
0100
0001
0000
0000
0010
0000
0000
0100
0000
1000
0100
0000
1000
0001
0000
0000
0100
0000
0000
0010
0000
0000
,  // measure 28
2010
0000
0100
0000
3001
0010
1000
0010
,  // measure 29
0002
0000
0000
0000
0000
0000
0203
0000
0000
0000
0000
0000
0310
0000
0000
0010
0000
0000
1000
0000
0001
1000
0000
0100
,  // measure 30
0000
0000
0000
0000
0000
0000
0000
0000
0000
0000
0000
0000
1001
0000
0000
1000
0100
1000
0100
0000
0000
0010
0000
1002
,  // measure 31
0000
0000
0000
1003
0000
0000
1100
0000
0000
0000
0000
0001
0100
0000
0000
0100
0000
0000
0101
0000
0000
0000
0000
0001
,  // measure 32
1000
0000
0000
0000
0000
0000
0000
0000
0000
0000
0000
0000
0000
0000
0000
0000
0000
1000
0100
0000
0000
0010
0000
0002
,  // measure 33
0000
0000
0000
0103
0000
0000
0001
0000
0000
1000
0000
0001
0100
0000
0000
0100
0000
0000
0101
0000
0001
0000
1000
0000
,  // measure 34
1020
0000
0000
0000
0000
0000
0130
0000
0010
0000
1000
0000
0200
0000
0000
0000
0000
0000
1300
0000
1000
0100
0000
0000
,  // measure 35
0020
0000
0000
0000
0000
0000
0130
0000
0010
0000
0001
0000
0200
0000
0000
0000
0000
0000
0301
0000
0100
0010
0000
2000
,  // measure 36
0000
0000
0000
3100
0000
0000
0001
0000
0100
0000
0000
0020
0000
0000
0000
0031
0000
0000
0100
0000
0010
0000
0000
1000
,  // measure 37
0001
0000
0000
1000
0000
0000
0001
1000
0001
1000
0000
0001
0000
0000
1000
0000
0000
0001
1000
0000
0001
1000
0000
0001
,  // measure 38
0010
1010
1100
0101
,  // measure 39
1002
0000
0000
0000
0000
0000
0010
0000
0000
0000
0000
0000
0100
0000
0000
0000
0000
0000
0013
0000
0000
0001
1000
0001
,  // measure 40
1000
0000
0000
0001
0000
0000
0100
0000
0001
1000
0000
0000
0100
0000
1000
0001
0000
0000
0100
0001
0100
0001
0000
0001
,  // measure 41
2000
0000
0000
0001
0000
0000
0100
0000
0000
3001
0000
1000
0000
0000
1000
0100
0000
0000
0001
0000
0000
0100
0000
1000
,  // measure 42
0000
0000
1000
0010
0000
0000
0100
0000
0000
0001
0000
0010
0001
0000
0100
0001
0000
0000
1000
0000
0000
0100
0000
0000
,  // measure 43
0120
0000
0001
0000
0130
1000
0010
0100
,  // measure 44
0001
0000
1000
0100
0000
0000
1000
0000
0001
0100
0000
0000
0001
0000
1000
0100
0000
0000
1000
0000
0000
0001
0000
1000
,  // measure 45
0001
0000
0001
0100
0000
0000
0010
0000
0010
0100
0000
1001
0000
0000
0001
0010
0000
0000
0100
0000
0000
1000
0000
0100
,  // measure 46
0000
0000
0100
0001
0000
0000
0100
0000
0000
0010
0000
0001
1000
0000
0001
0100
0000
0000
0010
0000
0000
0100
0000
0000
,  // measure 47
0120
0000
0000
0000
0000
0000
1030
0000
0010
0000
0100
0000
0001
0000
0000
0010
0000
0000
1000
0000
0000
0010
0000
0000
,  // measure 48
0002
0000
0000
0000
0000
0000
2003
0000
0000
0000
0000
0000
3100
0000
0000
0100
0000
0000
0010
0000
0001
1000
0000
0100
;
