#VERSION:0.81;
#TITLE:Happy Song;
#SUBTITLE:(CLUBMIX);
#ARTIST:BONEY M. and BOBBY FARRELL with the School-Rebels;
#TITLETRANSLIT:;
#SUBTITLETRANSLIT:;
#ARTISTTRANSLIT:;
#GENRE:;
#ORIGIN:;
#CREDIT:;
#BANNER:[Low Speed] - Happy Song.png;
#BACKGROUND:[Low Speed] - Happy Song-bg.png;
#PREVIEWVID:;
#JACKET:[Low Speed] - Happy Song-jacket.png;
#CDIMAGE:;
#DISCIMAGE:;
#LYRICSPATH:;
#CDTITLE:;
#MUSIC:[Low Speed] - Happy Song.ogg;
#OFFSET:-0.020;
#SAMPLESTART:69.178;
#SAMPLELENGTH:15.668;
#SELECTABLE:YES;
#BPMS:0.000=123.180;
#STOPS:;
#DELAYS:;
#WARPS:;
#TIMESIGNATURES:0.000=4=4,
12.000=2=4,
14.000=4=4;
#TICKCOUNTS:0.000=4;
#COMBOS:0.000=1;
#SPEEDS:0.000=1.000=0.000=0;
#SCROLLS:0.000=1.000;
#FAKES:;
#LABELS:0.000=Song Start;
#BGCHANGES:;
#KEYSOUNDS:;
#ATTACKS:
;

//---------------dance-single - ----------------
#NOTEDATA:;
#CHARTNAME:;
#STEPSTYPE:dance-single;
#DESCRIPTION:;
#CHARTSTYLE:;
#DIFFICULTY:Beginner;
#METER:1;
#RADARVALUES:0.075,0.100,0.010,0.000,0.000,53.000,1.000,0.000,0.000,0.000,0.000,0.000,0.000,0.075,0.100,0.010,0.000,0.000,53.000,1.000,0.000,0.000,0.000,0.000,0.000,0.000;
#CREDIT:;
#NOTES:
// measure 0
0000
0000
0000
0000
,  // measure 1
0000
0000
0000
0000
,  // measure 2
0000
0000
0000
0000
,  // measure 3
0000
0000
0000
0000
,  // measure 4
0000
0000
0000
0000
,  // measure 5
0000
0000
0000
0000
,  // measure 6
0000
0000
0000
0000
,  // measure 7
0000
0000
1000
0000
,  // measure 8
0000
0000
0001
0000
,  // measure 9
0000
0000
1000
0000
,  // measure 10
0000
0000
0001
0000
,  // measure 11
0000
0000
0001
0000
,  // measure 12
0000
0000
1000
0000
,  // measure 13
0000
0000
0001
0000
,  // measure 14
0000
0000
1000
0000
,  // measure 15
0000
0000
0010
0000
,  // measure 16
0000
0000
0010
0000
,  // measure 17
0000
0000
0100
0000
,  // measure 18
0000
0000
0100
0000
,  // measure 19
0000
0000
0010
0000
,  // measure 20
0000
0000
0100
0000
,  // measure 21
0000
0000
0100
0000
,  // measure 22
0000
0000
0010
0000
,  // measure 23
0000
0000
1000
0000
,  // measure 24
0000
0000
1000
0000
,  // measure 25
0000
0000
0000
0001
,  // measure 26
0000
0000
0001
0000
,  // measure 27
0000
0000
1000
0000
,  // measure 28
0000
0000
0001
0000
,  // measure 29
0000
0000
1000
0000
,  // measure 30
0001
0000
1000
0000
,  // measure 31
0001
0000
1000
0000
,  // measure 32
0000
0000
0001
0000
,  // measure 33
0000
0000
0001
0000
,  // measure 34
1000
0000
0001
0000
,  // measure 35
1000
0000
0001
0000
,  // measure 36
0000
0000
1000
0000
,  // measure 37
0000
0000
0001
0000
,  // measure 38
0000
0000
1000
0000
,  // measure 39
0001
0000
1000
0000
,  // measure 40
0000
0000
0001
0000
,  // measure 41
0000
0000
1000
0000
,  // measure 42
0000
0000
0001
0000
,  // measure 43
1000
0000
0100
0000
,  // measure 44
0000
0000
0010
0000
,  // measure 45
0000
0000
0100
0000
,  // measure 46
0000
0000
0010
0000
,  // measure 47
0100
0000
0010
0000
,  // measure 48
0000
0000
0100
0000
,  // measure 49
0000
0000
0010
0000
,  // measure 50
0000
0000
0100
0000
,  // measure 51
0010
0000
0110
0000
;

//---------------dance-single - ----------------
#NOTEDATA:;
#CHARTNAME:;
#STEPSTYPE:dance-single;
#DESCRIPTION:;
#CHARTSTYLE:;
#DIFFICULTY:Hard;
#METER:7;
#RADARVALUES:0.435,0.376,0.107,0.000,0.078,302.000,11.000,0.000,0.000,0.000,0.000,0.000,0.000,0.435,0.376,0.107,0.000,0.078,302.000,11.000,0.000,0.000,0.000,0.000,0.000,0.000;
#CREDIT:;
#NOTES:
0000
0000
0000
0000
,
0000
0000
0000
0000
,
0000
0000
0000
0000
,
0000
0000
0000
0000
0000
0000
0000
0000
1000
0000
0000
0100
0000
0000
1000
0000
,
0100
0000
0000
0000
1100
0000
0000
0000
0001
0000
0000
0100
0000
0000
0001
0000
,
0100
0000
0100
0000
0001
0000
0000
0000
0001
0000
0000
0010
0000
0000
0001
0000
,
0010
0000
0000
0000
0011
0000
0000
0000
1000
0000
0000
0010
0000
0000
1000
0000
,
0010
0010
1000
0000
1000
0010
0100
0001
,
1000
0000
1001
0000
0001
0010
0100
1000
,
0010
0010
0100
0000
0001
0100
0010
1000
,
0001
0000
1001
0000
1000
0100
0010
0001
,
0010
0100
0010
0100
1000
0100
0001
0100
,
1000
0000
1001
0000
0001
0100
1000
0100
,
0010
1000
0001
0000
1000
0010
0001
0010
,
1000
0000
1001
0000
0001
0010
1000
0010
,
0001
1000
0010
0010
,
0001
1000
0100
0000
0010
0001
1000
0000
,
0010
0010
0100
0000
0001
0100
0001
0100
,
0010
1000
0001
0000
1000
0100
1000
0000
,
0010
0010
0100
0000
0001
0100
0010
0000
,
1000
0001
0010
0000
0001
1000
0100
0000
,
0010
0100
1000
0000
0001
0100
0010
0100
,
0001
1000
0100
0000
1000
0001
1000
0100
,
0010
0010
0100
0000
1000
0100
1000
0001
,
0100
0000
0000
0100
0000
0000
0000
0000
0001
0000
1000
0000
0010
0000
0100
0000
,
0001
0100
0000
0001
0000
0000
0000
0000
0000
0000
1000
0000
0001
0000
0010
0000
,
0100
0000
0000
0100
0000
0000
0000
0000
0100
0000
1000
0000
0001
0000
0010
0000
,
0001
0010
0000
0001
0000
0000
0000
0000
1000
0000
0010
0000
0100
0000
0001
0000
,
1000
0010
0100
0000
0001
1000
0100
0000
,
0010
0000
0000
0010
0000
0000
0000
0000
1000
0000
0010
0000
0001
0000
0000
0000
,
0001
0010
1000
0000
1000
0010
0001
0100
,
1000
0100
0001
0000
0100
0001
1000
0001
,
0100
0001
1000
0000
1000
0001
0100
0001
,
0010
0000
0000
0010
0000
0000
0000
0000
0001
0000
0100
0000
0001
0000
0100
0000
,
1000
0100
1000
0000
0100
0010
1000
0001
,
0010
0100
1000
0000
1001
0000
0001
0100
,
0010
0000
0000
0000
1000
0000
0000
0000
0001
0000
0010
0000
0001
0000
1000
0100
,
1000
0000
0001
0000
0100
0000
0010
1000
,
0001
0000
0001
0000
1000
0100
0010
0001
,
0100
0010
1000
0000
1001
0000
1000
0100
,
0010
0000
0000
0000
0001
0000
0000
0000
1000
0000
0010
0000
1000
0000
0001
0100
,
0001
0000
1000
0000
0100
0000
0010
0001
,
1000
0000
1000
0000
0001
0100
0010
1000
,
0100
0010
0001
0000
1000
1000
0010
1000
,
0001
0000
0000
0000
0100
0000
0000
0000
0001
0000
0001
0000
0010
0000
0001
1000
,
0001
0000
0100
0000
0010
0010
1000
0010
,
0100
0000
0110
0000
0001
0100
0010
1000
,
0100
0010
0001
0000
0001
0001
0010
0001
,
1000
0000
0000
0000
0100
0000
0000
0000
1000
0000
1000
0000
0010
0000
1000
0001
,
1000
0000
0100
0000
0010
0010
0001
0010
,
0100
0000
0110
0000
1000
0100
0010
0001
,
0100
0010
1000
0000
1001
0000
0000
0000
;

//---------------dance-single - ----------------
#NOTEDATA:;
#CHARTNAME:;
#STEPSTYPE:dance-single;
#DESCRIPTION:;
#CHARTSTYLE:;
#DIFFICULTY:Medium;
#METER:5;
#RADARVALUES:0.364,0.351,0.263,0.000,0.000,235.000,27.000,0.000,0.000,0.000,0.000,0.000,0.000,0.364,0.351,0.263,0.000,0.000,235.000,27.000,0.000,0.000,0.000,0.000,0.000,0.000;
#CREDIT:;
#NOTES:
0000
0000
0000
0000
,
0000
0000
0000
0000
,
0000
0000
0000
0000
,
0000
0000
1000
1000
,
0100
1100
0010
0001
,
0010
0010
0010
0000
0001
0000
0001
0000
,
0100
0101
0010
1000
,
0010
0010
0010
0000
1000
0000
0100
1000
,
0100
1001
0010
0001
,
0100
0100
0001
0000
0001
0000
0100
0001
,
0100
1001
0010
1000
,
0100
0100
1000
0000
1000
0000
0010
1000
,
0010
1001
0100
0001
,
0010
0010
0001
0000
0001
0000
0010
0001
,
0010
1001
0100
1000
,
0010
0100
0001
0100
,
1000
0100
0001
1000
,
0100
0100
0100
0000
1000
0000
0100
0000
,
0010
0001
1000
0010
,
1000
1000
1000
0000
0001
0000
0101
0000
,
0100
0110
0010
1010
,
0001
0001
0001
0000
0001
0000
0011
0000
,
0010
0110
0100
1100
,
0010
0010
0010
0000
1000
0010
1000
0000
,
0001
0000
1000
0000
0001
0010
0001
0000
,
1000
0001
0100
0010
,
0010
0000
0100
0000
0001
1000
0001
0000
,
1000
0000
0001
0000
0100
0001
0100
0000
,
0010
0000
1000
0000
0100
1000
0100
0000
,
0010
0000
0001
0000
0100
0001
1000
0000
,
0001
1000
0100
0000
0010
0100
0010
0100
,
0010
0110
0100
1000
,
0001
0000
0010
0000
0100
0010
0100
0000
,
0001
0000
0001
0000
0010
0001
1000
0000
,
0001
1000
0010
0000
0010
0100
0010
0100
,
0010
0000
0110
0000
1001
0000
1000
0001
,
1000
0000
0010
0000
0100
0010
0100
0000
,
0110
0000
0000
0000
1001
0000
0001
1000
,
0001
0000
0010
0000
0001
0010
0001
0000
,
1000
0100
1000
0000
1001
0000
0001
1000
,
0001
0000
0100
0000
0010
0100
0010
0000
,
0110
0000
0000
0000
1001
0000
1000
0001
,
1000
0000
0010
0000
1000
0010
1000
0000
,
0001
0100
0001
0000
1001
0000
0001
0010
,
0100
0000
1000
0000
0001
0010
0100
0000
,
0110
0000
0000
0000
1001
0000
1000
0010
,
0100
0000
0001
0000
1000
0010
0100
0010
,
1000
0000
0001
0000
1001
0000
1000
0100
,
0010
0000
0001
0000
1000
0100
0010
0000
,
0110
0000
0000
0000
1001
0000
0001
0100
,
0010
0000
1000
0000
0001
0100
0010
0100
,
0001
0000
1001
0000
;

//---------------dance-single - ----------------
#NOTEDATA:;
#CHARTNAME:;
#STEPSTYPE:dance-single;
#DESCRIPTION:;
#CHARTSTYLE:;
#DIFFICULTY:Easy;
#METER:3;
#RADARVALUES:0.217,0.200,0.049,0.000,0.000,151.000,5.000,0.000,0.000,0.000,0.000,0.000,0.000,0.217,0.200,0.049,0.000,0.000,151.000,5.000,0.000,0.000,0.000,0.000,0.000,0.000;
#CREDIT:;
#NOTES:
0000
0000
0000
0000
,
0000
0000
0000
0000
,
0000
0000
0000
0000
,
0000
0000
1000
0000
,
1000
1001
0001
0000
,
0001
0001
0100
0000
,
0100
0110
0010
0000
,
0010
0010
1000
1000
,
0010
0000
1000
1000
,
0001
0001
0010
0010
,
0100
0000
0001
0001
,
1000
1000
0001
0001
,
0010
0000
0001
0001
,
1000
1000
0010
0010
,
0100
0000
0001
0001
,
1001
0000
0001
0000
,
0100
0000
0001
0000
,
1000
0000
0100
0000
,
1000
0000
0001
0000
,
0100
0000
0001
0010
,
0001
0010
0100
1000
,
0100
1000
0001
1000
,
0001
1000
0001
0100
,
0001
0100
0010
0010
,
1000
0000
0010
0010
,
0100
0100
0000
0001
,
0001
0000
1000
1000
,
0100
0100
1000
0100
,
1000
0000
0001
0000
,
1001
0000
0001
0100
,
1000
0100
0001
0010
,
0100
1000
0001
0000
,
1000
0000
0010
0100
,
0001
0000
1000
0100
,
0001
0100
1000
0010
,
0100
0001
1000
0000
,
0100
0000
1000
1000
,
0100
0000
0010
0000
,
0001
0000
0010
0001
,
0010
0001
0001
0000
,
0100
0000
0001
0001
,
0100
0000
0010
0000
,
1000
0000
0010
1000
,
0010
0010
0000
1000
,
0010
0010
1000
0010
,
1000
0000
0000
0001
,
0100
0100
0001
0100
,
0001
0001
0000
0001
,
0010
0010
0001
0010
,
0001
0000
0000
1000
,
0100
0100
1000
0100
,
1000
1000
1001
0000
;

//---------------dance-double - ----------------
#NOTEDATA:;
#CHARTNAME:;
#STEPSTYPE:dance-double;
#DESCRIPTION:;
#CHARTSTYLE:;
#DIFFICULTY:Hard;
#METER:8;
#RADARVALUES:0.452,0.351,0.165,0.000,0.078,308.000,17.000,0.000,0.000,0.000,0.000,0.000,0.000,0.452,0.351,0.165,0.000,0.078,308.000,17.000,0.000,0.000,0.000,0.000,0.000,0.000;
#CREDIT:;
#NOTES:
00000000
00000000
00000000
00000000
,
00000000
00000000
00000000
00000000
,
00000000
00000000
00000000
00000000
,
00000000
00000000
00000000
00000000
00000000
00000000
00000000
00000000
00000100
00000000
00000000
00000001
00000000
00000000
00000100
00000000
,
00000010
00000000
00000000
00000000
00000110
00000000
00000000
00000000
00000100
00000000
00000000
00000001
00000000
00000000
00000100
00000000
,
00001000
00000000
00001000
00000000
00010000
00000000
00000000
00000000
01000000
00000000
00000000
10000000
00000000
00000000
01000000
00000000
,
00100000
00000000
00000000
00000000
01100000
00000000
00000000
00000000
01000000
00000000
00000000
10000000
00000000
00000000
01000000
00000000
,
00010000
00010000
00001000
00000000
00000010
00000001
00001000
00000010
,
00000100
00000000
00000110
00000000
00000001
00000010
00000100
00000001
,
00000100
00001000
00010000
00000000
00100000
10000000
00010000
00100000
,
01000000
00000000
01100000
00000000
10000000
00100000
01000000
10000000
,
01000000
00010000
00001000
00000000
00000010
00000001
00010000
00000001
,
00000010
00000000
00001100
00000000
00000010
00000100
00001000
00000010
,
00000100
00001000
00010000
00000000
00100000
10000000
00001000
10000000
,
00100000
00000000
01010000
00000000
00100000
01000000
00010000
00100000
,
01000000
01000000
10000000
01000000
,
00100000
00010000
10000000
00000000
00100000
01000000
00001000
01000000
,
00010000
00010000
00100000
00000000
00001000
01000000
00001000
00010000
,
00001000
01000000
00001000
00000000
01000000
00001000
00010000
00000100
,
00000010
00000010
00000100
00000000
00000010
00000000
00001001
00000000
,
00000001
00000100
00000010
00000000
00000010
00000000
00001001
00000000
,
00000010
00000100
00001000
00000000
00010000
00000100
00010000
00001000
,
00010000
00000100
00010000
00000000
00000100
00010000
00001000
01000000
,
00100000
00100000
10000000
00000000
00100000
10000000
00010000
10000000
,
01000000
00000000
00000000
01000000
00000000
00000000
00100000
00000000
01000000
00000000
10000000
00000000
00100000
00000000
01000000
00000000
,
00001000
00010000
00000000
00001000
00000000
00000000
00000000
00000000
00000010
00000000
00000001
00000000
00001000
00000000
00000001
00000000
,
00000100
00000000
00000000
00000100
00000000
00000000
00000010
00000000
00000100
00000000
00000001
00000000
00000010
00000000
00000100
00000000
,
00010000
00001000
00000000
00010000
00000000
00000000
00000000
00000000
00100000
00000000
10000000
00000000
00010000
00000000
00100000
00000000
,
01000000
00010000
00001000
00000000
00000010
00000001
00001000
00000000
,
00000010
00000000
00000000
00000010
00000000
00000000
00000000
00000000
00000100
00000000
00001000
00000000
00010000
00000000
00000000
00000000
,
00001000
00010000
01000000
00000000
00001000
01000000
00100000
00001000
,
00010000
00000010
00000100
00000000
00000001
00000100
00001000
00000100
,
00000010
00010000
00001000
00000000
00001000
01000000
00100000
10000000
,
00100000
00000000
00000000
00100000
00000000
00000000
00000000
00000000
00100000
00000000
00010000
00000000
00001000
00000000
00000010
00000000
,
00001000
00010000
01000000
00000000
01000000
00010000
00001000
00000100
,
00001000
00010000
00100000
00000000
10100000
00000000
00100000
10000000
,
00010000
00000000
10000000
00000000
00100000
00000000
00000000
00000000
01000000
00000000
00010000
00000000
10000000
00000000
01000000
10000000
,
01000000
00000000
00010000
00000000
01001000
00000000
00010000
01000000
,
00100000
01000000
00010000
00000000
01000000
00001000
00100000
01000000
,
00010000
00001000
00000010
00000000
00000011
00000000
00000010
00000001
,
00001000
00000000
00000001
00000000
00000010
00000000
00000000
00000000
00000100
00000000
00001000
00000000
00000001
00000000
00000100
00000001
,
00000100
00000000
00001000
00000000
00010100
00000000
00001000
00000100
,
00000010
00000100
00001000
00000000
00000100
00010000
00000010
00000100
,
00001000
00010000
00100000
00000000
10100000
00000000
00100000
01000000
,
00010000
00000000
10000000
00000000
01000000
00000000
00000000
00000000
00100000
00000000
00010000
00000000
10000000
00000000
01000000
10000000
,
01000000
00000000
00010000
00000000
00101000
00000000
00100000
00010000
,
01000000
00010000
00100000
00000000
00001000
00100000
00001000
01000000
,
00001000
10000000
00001000
00000000
00011000
00000000
00000010
00000100
,
00001000
00000000
00000001
00000000
00000100
00000000
00000000
00000000
00000010
00000000
00001000
00000000
00000001
00000000
00000100
00000001
,
00000100
00000000
00001000
00000000
00010010
00000000
00000010
00001000
,
00000100
00001000
00000010
00000000
00010000
00000010
00010000
00000100
,
00010000
00000001
00010000
00000000
00011000
00000000
00000000
00000000
;

//---------------dance-double - ----------------
#NOTEDATA:;
#CHARTNAME:;
#STEPSTYPE:dance-double;
#DESCRIPTION:;
#CHARTSTYLE:;
#DIFFICULTY:Medium;
#METER:5;
#RADARVALUES:0.356,0.326,0.165,0.000,0.000,239.000,17.000,0.000,0.000,0.000,0.000,0.000,0.000,0.356,0.326,0.165,0.000,0.000,239.000,17.000,0.000,0.000,0.000,0.000,0.000,0.000;
#CREDIT:;
#NOTES:
00000000
00000000
00000000
00000000
,
00000000
00000000
00000000
00000000
,
00000000
00000000
00000000
00000000
,
00000000
00000000
00000001
00000001
,
00000100
00000101
00000100
00001000
,
00010000
00100000
10000000
10000000
,
01000000
11000000
01000000
00010000
,
00001000
00000000
00000010
00000000
00000001
00000000
00000001
00000100
,
00000010
00000110
00000100
00001000
,
00010000
00010000
00100000
00000000
10000000
00000000
10000000
01000000
,
00100000
01100000
01000000
00010000
,
00001000
00001000
00000010
00000000
00000001
00000000
00001000
00000001
,
00000100
00000110
00000100
00001000
,
00010000
00000000
01000000
00000000
10000000
00000000
00010000
10000000
,
01000000
01100000
01000000
00010000
,
00001000
00000100
00000001
00000100
,
00000010
00001000
00000010
00000000
00000100
00000000
00001000
00000000
,
00010000
00010000
00001000
00000000
00010000
00001000
00010000
00000000
,
00010000
01000000
00010000
00000000
01000000
00000000
10000000
00000000
,
00010000
00010000
10000000
00000000
01000000
00000000
11000000
00000000
,
01000000
00010000
00001000
00000000
00010000
00000000
00011000
00000000
,
00010000
00001000
00000010
00000000
00001000
00000000
00001010
00000000
,
00000010
00000001
00001000
00000000
00001000
00000000
00001010
00000000
,
00000010
00000010
00000100
00000000
00000001
00000000
00000100
00000001
,
00000100
00000000
00000010
00000000
00010000
00000000
00001000
00010000
,
00001000
00010000
00001000
00000000
00000000
01000000
00010000
00000000
,
01000000
01000000
00100000
10000000
,
01000000
10000000
01000000
00000000
10000000
00000000
01000000
00000000
,
00010000
00001000
00000010
00000100
,
00010000
00000000
00001000
00000000
00010000
00001000
00100000
00000000
,
00001000
00010000
00000010
00000000
00010000
00001000
01000000
00001000
,
00010000
00000100
00010000
00000000
00001000
00000000
00000010
00000000
,
00000001
00000100
00001000
00010000
,
00100000
00000000
01000000
00000000
00001000
01000000
00001000
00010000
,
00001000
00010000
00000100
00000000
00010000
00000100
00010000
00001000
,
00010000
00001000
01000000
00000000
01010000
00000000
00010000
00000000
,
00100000
00000000
01000000
00000000
01000000
10000000
01000000
00100000
,
01000000
01000000
00010000
00001000
,
00000010
00000000
00000001
00000000
00000100
00000001
00000100
00000010
,
00000100
00000100
00000101
00000100
,
00001000
00000000
00010000
00000000
00100000
00010000
00100000
01000000
,
00100000
00100000
10000000
01000000
,
00010000
00000000
00001000
00000000
00000010
00001000
00000010
00000100
,
00000010
00000000
00000010
00000000
00000011
00000000
00000010
00000001
,
00001000
00000000
00000001
00000000
00000001
00000100
00000010
00000000
,
00000110
00000000
00000100
00000000
00001000
00000000
00010000
00001000
,
00010000
00000000
00010000
00000000
00100000
10000000
00010000
00000000
,
01000000
00000000
00010000
00000000
10100000
00000000
00100000
10000000
,
00010000
00000000
10000000
00000000
10000000
01000000
00100000
00000000
,
01100000
00000000
01000000
00000000
00010000
00000000
00001000
00010000
,
00001000
00000000
00001000
00000000
00000010
00000001
00001000
00000000
,
00000100
00001000
00011000
00000000
;

//---------------dance-double - ----------------
#NOTEDATA:;
#CHARTNAME:;
#STEPSTYPE:dance-double;
#DESCRIPTION:;
#CHARTSTYLE:;
#DIFFICULTY:Easy;
#METER:2;
#RADARVALUES:0.168,0.175,0.039,0.000,0.000,117.000,4.000,0.000,0.000,0.000,0.000,0.000,0.000,0.168,0.175,0.039,0.000,0.000,117.000,4.000,0.000,0.000,0.000,0.000,0.000,0.000;
#CREDIT:;
#NOTES:
00000000
00000000
00000000
00000000
,
00000000
00000000
00000000
00000000
,
00000000
00000000
00000000
00000000
,
00000000
00000000
00000000
00000000
,
00000000
00000110
00000000
00000000
,
00000000
00000000
00000000
00000000
,
00000000
00001001
00000000
00000000
,
00000000
00000000
00000001
00000000
,
00000100
00000000
00000001
00000000
,
00000100
00000100
00001000
00000000
,
00010000
00000000
00001000
00000000
,
00010000
00010000
00100000
00100000
,
10000000
00000000
00010000
00010000
,
10000000
10000000
01000000
01000000
,
00010000
00000000
00001000
00001000
,
00000010
00000000
00000001
00000000
,
00000100
00000000
00000001
00000000
,
00000100
00000100
00001000
00000000
,
00000100
00000000
00001000
00000000
,
00010000
00010000
00001000
00000000
,
00010000
00000000
00100000
00000000
,
10000000
10000000
00010000
00000000
,
10000000
00000000
01000000
00000000
,
00100000
00100000
01000000
00000000
,
10000000
00000000
01000000
00000000
,
10000000
00000000
01000000
00000000
,
00010000
00000000
01000000
00000000
,
00010000
00000000
01000000
01000000
,
10000000
00000000
00010000
00000000
,
10000000
00000000
01000000
00010000
,
00001000
00000100
00000010
00000010
,
00000100
00000000
00000100
00000100
,
00000001
00000000
00001000
00000000
,
00000001
00000000
00000100
00001000
,
00010000
00000000
00100000
00100000
,
01000000
00000000
10010000
00000000
,
00100000
00000000
10000000
01000000
,
10000000
00000000
01000000
00000000
,
00100000
00000000
01000000
00010000
,
00001000
00000000
00000010
00000000
,
00000001
00000000
00000001
00000100
,
00000001
00000000
00000100
00000000
,
00000010
00000000
00000100
00001000
,
00010000
00000000
00100000
00000000
,
01000000
00000000
00010000
01000000
,
00001000
00000000
00010000
00000000
,
00001000
00000000
00010000
00000100
,
00000010
00000000
00000010
00000000
,
00000100
00000000
00001000
00000100
,
00010000
00000000
00001000
00000000
,
00010000
00000000
00001000
01000000
,
00100000
00000000
10010000
00000000
;
