#TITLE:Gnchu;
#SUBTITLE:;
#ARTIST:Lilit Hovhannisyan;
#TITLETRANSLIT:;
#SUBTITLETRANSLIT:;
#ARTISTTRANSLIT:;
#GENRE:;
#CREDIT:;
#BANNER:[Low Speed] - Gnchu.png;
#BACKGROUND:[Low Speed] - Gnchu-bg.png;
#LYRICSPATH:;
#CDTITLE:;
#MUSIC:[Low Speed] - Gnchu.ogg;
#OFFSET:0.019;
#SAMPLESTART:20.173;
#SAMPLELENGTH:20.171;
#SELECTABLE:YES;
#BPMS:0.000=95.000
,134.000=90.000
,134.500=81.522
,135.000=77.922
,135.500=58.050
,140.000=58.196
,141.000=59.642
,142.000=61.100
,143.000=62.696
,144.000=64.103
,145.000=65.862
,146.000=67.265
,147.000=68.807
,148.000=70.340
,149.000=71.942
,150.000=73.350
,151.000=74.906
,152.000=76.433
,153.000=77.922
,154.000=79.681
,155.000=80.863
,156.000=82.645
,157.000=84.270
,158.000=85.349
,159.000=87.083
,160.000=88.496
,161.000=90.498
,162.000=91.047
,163.000=94.191
,164.000=94.787
,165.000=96.308
,166.000=97.561
,167.000=98.684
,168.000=99.668
,169.000=100.671
,170.000=101.868
,171.000=102.740
,172.000=103.806
,173.000=105.079
,174.000=105.820
,175.000=107.143
,176.000=107.914
,177.000=109.090
,178.000=110.294
,179.000=110.906
,180.000=112.150
,181.000=113.422
,182.000=114.286
,183.000=115.385
,184.000=116.505
,185.000=117.417
,186.000=118.343
,187.000=119.284
,188.000=120.968
,189.000=121.704
,190.000=122.699
,191.000=123.711
,192.000=124.740
,193.000=125.786
,194.000=126.850
,195.000=127.932
,196.000=129.032
,197.000=129.590
,198.000=130.719
,199.000=131.004
,200.000=130.719
,204.000=114.723
,205.000=116.054
,206.000=120.000
,207.000=124.000
,208.000=132.000
,210.000=95.000
;
#STOPS:
;
#BGCHANGES:15.750=[Low Speed] - Gnchu.avi=1.000=1=0=0=StretchNoLoop==CrossFade==,
99999=-nosongbg-=1.000=0=0=0 // don't automatically add -songbackground-
;
#KEYSOUNDS:;
#ATTACKS:;

//---------------dance-single - ----------------
#NOTES:
     dance-single:
     :
     Hard:
     7:
     0.365,0.345,0.160,0.146,0.055,308.000,22.000,20.000,0.000,0.000,0.000,0.365,0.345,0.160,0.146,0.055,308.000,22.000,20.000,0.000,0.000,0.000: // measure 0
0000
0000
0000
0000
,  // measure 1
0000
0000
0000
0000
,  // measure 2
0000
0000
0000
0000
,  // measure 3
0000
0000
0000
0000
,  // measure 4
1000
0000
0010
0100
0001
0000
0101
0000
,  // measure 5
1001
0000
1000
0100
0010
0000
0110
0000
,  // measure 6
0011
0000
0010
0001
1000
0000
1001
1000
,  // measure 7
0010
0000
1010
0010
0100
0000
0110
0000
,  // measure 8
0001
1000
0000
0001
0001
0001
0002
0000
,  // measure 9
1003
0010
0100
0010
0100
0001
1000
0001
,  // measure 10
1000
0000
0100
0000
0010
0100
0010
0001
,  // measure 11
1000
0000
0001
0000
0100
0100
0010
0010
,  // measure 12
1000
0010
1010
0000
1000
1000
0001
0001
,  // measure 13
0010
0001
0011
0000
0001
0001
1000
1000
,  // measure 14
0001
1000
1001
0000
1000
0001
1001
0000
,  // measure 15
0001
0010
0100
1000
0010
0100
0001
0000
,  // measure 16
0010
0001
0100
0001
1000
0001
1000
0001
,  // measure 17
1000
0010
1000
0100
1000
0001
1000
0001
,  // measure 18
0100
1000
0002
0000
0013
1000
0002
0000
,  // measure 19
0013
1000
0002
0000
0103
1000
0001
0000
,  // measure 20
2002
0000
0000
0000
3003
0000
1001
1000
,  // measure 21
1001
0000
0001
0100
0001
0000
0001
0000
1000
0000
0100
1000
0100
0000
0100
0000
,  // measure 22
0010
0000
0001
0000
1000
0001
1000
0010
,  // measure 23
0100
0000
0010
0000
0100
0001
1000
0100
,  // measure 24
1000
0000
0001
0000
0100
0010
1000
0010
,  // measure 25
1000
0000
0001
0000
0010
0100
1000
0010
,  // measure 26
0010
0000
0100
0010
0100
0000
0001
0000
,  // measure 27
1000
0000
0100
1000
0100
0000
0010
0000
,  // measure 28
0001
0000
0100
0001
0100
0000
0001
1000
,  // measure 29
0001
0000
1000
0100
1000
0000
0001
0000
,  // measure 30
1000
0001
0000
1000
1000
1000
2000
0000
,  // measure 31
3010
1000
0010
0100
0001
0100
0001
1000
,  // measure 32
0200
0000
0320
0000
0031
0010
0001
1000
,  // measure 33
0020
0000
0230
0000
0301
1000
0200
0020
,  // measure 34
0000
0000
0000
0000
0000
0000
0000
0330
,  // measure 35
0010
0000
0001
0000
1000
0010
0001
0010
,  // measure 36
1000
0000
0001
0000
1000
0100
0001
0100
,  // measure 37
1000
0000
0010
0000
0100
0100
0200
0000
,  // measure 38
0301
0000
0010
0000
0100
0100
0200
0000
,  // measure 39
1300
0001
2000
0000
3010
0010
0100
0100
,  // measure 40
0001
1000
0002
0000
0013
0010
0100
0100
,  // measure 41
1000
0010
0002
0000
0013
1000
0002
0000
,  // measure 42
1003
0100
0001
0100
1000
1000
1000
0000
,  // measure 43
1001
0000
0000
0000
1010
0000
0000
0000
1000
0010
1000
0000
0010
0000
0100
0000
,  // measure 44
0001
0000
0000
0000
0011
0000
0000
0000
0001
0010
0001
0000
0010
0000
0100
0000
,  // measure 45
1000
0000
0000
0000
1001
0000
0000
0000
0001
0000
0100
0000
0010
1000
0001
0010
,  // measure 46
0100
0000
0010
0100
0010
0000
0100
1000
0100
0000
1000
0000
0002
0000
0000
0000
,  // measure 47
0103
0000
0000
0000
0110
0000
0000
0000
0010
1000
0010
0000
1000
0000
0001
0000
,  // measure 48
0010
0000
0000
0000
0110
0000
0000
0000
0100
0010
0100
0000
0010
0000
0001
0000
,  // measure 49
1000
0000
0000
0000
1001
0000
0000
0000
0001
0000
0100
0000
0010
0100
0010
0100
,  // measure 50
0010
0000
1000
0010
1000
0000
0001
1000
0001
0000
0010
0000
0100
0000
1000
0000
,  // measure 51
0001
0000
0000
0000
1000
0000
0000
0000
0001
1000
0001
0000
0100
0000
0010
0000
,  // measure 52
1000
0001
1001
0000
;

//---------------dance-single - ----------------
#NOTES:
     dance-single:
     :
     Medium:
     6:
     0.276,0.249,0.058,0.058,0.000,249.000,8.000,8.000,0.000,0.000,0.000,0.276,0.249,0.058,0.058,0.000,249.000,8.000,8.000,0.000,0.000,0.000: // measure 0
0000
0000
0000
0000
,  // measure 1
0000
0000
0000
0000
,  // measure 2
0000
0000
0000
0000
,  // measure 3
0000
0000
0000
0000
,  // measure 4
1001
0000
0000
1000
0001
0000
0101
0000
,  // measure 5
1100
0000
0000
1000
0100
0000
1100
0000
,  // measure 6
0110
0010
0000
0010
0001
0000
0000
0001
,  // measure 7
1000
0000
0000
1000
0001
0000
0100
0000
,  // measure 8
0010
0100
0000
0010
0010
0010
0010
0000
,  // measure 9
1000
0001
1000
0001
,  // measure 10
0010
0010
0100
1000
,  // measure 11
0001
0000
0100
0000
0010
0010
1000
1000
,  // measure 12
0010
1000
0001
0000
1000
0000
1000
0000
,  // measure 13
1000
0001
0010
0000
0001
0000
0001
0000
,  // measure 14
0001
0010
0100
0000
1000
0010
1000
0000
,  // measure 15
0001
0000
0010
0000
0100
0010
0100
0000
,  // measure 16
1000
0000
0001
0000
0100
0010
0100
0000
,  // measure 17
0010
0000
1000
0000
0001
1000
0001
0000
,  // measure 18
0010
0000
0100
0000
0010
0100
0010
0000
,  // measure 19
0001
0000
1000
0000
0001
1000
0001
0000
,  // measure 20
2002
0000
0000
0000
3003
0000
1000
0001
,  // measure 21
1000
0010
0000
0010
0000
0100
0000
0100
,  // measure 22
0001
0010
0001
0001
,  // measure 23
1000
0001
0100
0100
,  // measure 24
0010
1000
0010
0010
,  // measure 25
1000
0000
0001
0000
1000
0001
1000
0001
,  // measure 26
0001
0000
0010
0100
2000
0000
0100
0000
,  // measure 27
3001
0000
0001
0100
0020
0000
0100
0000
,  // measure 28
1030
0000
1000
0010
1000
0000
0001
0010
,  // measure 29
0001
0000
1000
0001
1000
0000
0001
0000
,  // measure 30
0010
0100
0000
0010
0010
0010
0010
0000
,  // measure 31
0001
0000
0010
0000
0001
1000
0001
0000
,  // measure 32
0100
0000
0100
0000
0010
0100
0010
0000
,  // measure 33
1000
0000
0001
0000
0010
0100
2000
0002
,  // measure 34
0000
0000
0000
0000
0000
0000
0000
3003
,  // measure 35
0001
0000
1000
0000
0010
0001
0010
1000
,  // measure 36
0001
0000
1000
0000
0001
0010
1000
0010
,  // measure 37
0001
0000
1000
0000
0010
0100
0010
0000
,  // measure 38
1000
0000
0001
0000
0010
0100
0010
0000
,  // measure 39
0100
1000
0001
0000
0100
0100
0010
0010
,  // measure 40
0100
0010
1000
0000
0010
0010
1000
1000
,  // measure 41
0001
0010
1000
0000
1000
0010
0001
0000
,  // measure 42
0001
1000
0010
0001
0010
1000
0001
0000
,  // measure 43
0010
0000
0100
0000
1000
0100
1000
0001
,  // measure 44
0100
0000
0010
0000
0100
0010
1000
0010
,  // measure 45
1000
0010
0001
0000
0001
0010
1000
0000
,  // measure 46
0001
1000
0100
0001
0100
1000
0001
0000
,  // measure 47
1000
0000
0010
0000
0100
0001
0010
0100
,  // measure 48
1000
0000
0100
0000
1000
0001
0100
0010
,  // measure 49
1000
0000
0010
0000
1000
0001
1000
0100
,  // measure 50
0010
0000
0001
0000
1000
0001
1000
0001
,  // measure 51
2002
0000
0000
3003
,  // measure 52
1000
0010
0110
0000
;

//---------------dance-single - ----------------
#NOTES:
     dance-single:
     :
     Challenge:
     9:
     0.499,0.517,0.372,0.153,0.343,407.000,51.000,21.000,0.000,0.000,0.000,0.499,0.517,0.372,0.153,0.343,407.000,51.000,21.000,0.000,0.000,0.000: // measure 0
0000
0000
0000
0000
,  // measure 1
0000
0000
0000
0000
,  // measure 2
0000
0000
0000
0000
,  // measure 3
0000
0000
0000
0000
,  // measure 4
1000
0000
0010
0100
0001
0000
1000
0000
1001
0000
0000
0000
0101
0000
0000
0000
,  // measure 5
1100
0000
1000
0100
0010
0000
0001
0000
0011
0000
0000
0000
1001
0000
0000
0000
,  // measure 6
1000
1010
0000
0010
0110
0000
0100
0001
,  // measure 7
0101
0000
0100
0001
1001
0000
1100
0000
,  // measure 8
0110
0000
0110
0000
0000
0000
0010
0001
0010
0001
0010
0001
0020
0000
0000
0000
,  // measure 9
0031
0000
1000
0000
0001
0100
0001
0100
0010
1000
0010
1000
0001
0010
0001
0010
,  // measure 10
0200
0000
0000
0000
2300
0000
0000
0000
3001
0000
0100
0000
0010
0100
0010
1000
,  // measure 11
0001
0000
0010
0100
1000
0000
0001
0000
0101
0000
1100
0000
0011
0000
1010
0000
,  // measure 12
1000
0000
1000
0010
0100
0000
0100
0001
0010
0000
0011
0000
0001
0000
0011
0000
,  // measure 13
0010
0000
0010
0100
1000
0000
1000
0001
1000
0000
1001
0000
0001
0000
1001
0000
,  // measure 14
1000
0000
1000
0010
0100
0000
0100
0010
0100
0000
0110
0000
0110
0000
0000
0000
,  // measure 15
0100
0001
1000
0100
1100
0110
0011
0000
,  // measure 16
0001
0000
0100
0000
1000
0000
0100
0000
0001
0100
0001
0000
0100
0000
0100
0000
,  // measure 17
0001
0000
0010
0000
1000
0000
0010
0000
0001
0010
0001
0000
0010
0000
0010
0000
,  // measure 18
0001
1000
0010
0010
1000
0001
2000
0000
,  // measure 19
3001
1000
0100
0100
1000
0001
1000
0000
,  // measure 20
2002
0000
0000
0000
3003
0000
1001
0001
,  // measure 21
1001
0000
0001
0100
0001
0001
0100
0000
0001
0000
1000
0100
1000
1000
0100
0000
,  // measure 22
0010
0000
0001
0000
0010
0001
1000
0001
,  // measure 23
1000
0000
0010
0000
0100
0010
0100
0001
,  // measure 24
0010
0001
0010
0001
0000
0001
1000
0000
0020
0000
0000
0000
0130
0000
0010
0000
,  // measure 25
0100
0000
0100
0001
0000
0100
0000
0001
1000
0000
1000
0000
0001
0000
0001
0000
,  // measure 26
0010
0000
0100
0010
0100
0000
0110
0000
,  // measure 27
1100
0000
1000
0001
0100
0000
0101
0000
,  // measure 28
0120
1030
2010
3002
,  // measure 29
0023
0000
0000
0000
0000
0000
0000
0000
0000
0000
0000
0000
0130
0000
0000
0000
0010
0000
0000
0000
0100
0000
0000
0000
2000
0000
0000
0000
0000
0000
0000
0000
0000
0000
0000
0000
3001
0000
0000
1000
0000
0000
0001
0000
0000
1000
0000
0000
,  // measure 30
0010
0000
1010
0000
0000
0000
1000
0010
1000
0010
1000
0010
2000
0000
0000
0000
,  // measure 31
3001
0010
0100
0010
0100
1000
0001
1000
0001
0100
0010
0100
0010
1000
0001
1000
,  // measure 32
0002
0000
0000
0000
2003
0000
0000
0000
3100
1000
0100
0010
0001
1000
0010
0100
,  // measure 33
0002
0000
2003
0000
3001
1001
1000
2002
,  // measure 34
0000
0000
0000
0000
0000
0000
0000
3003
,  // measure 35
1000
0000
0001
1000
0010
0000
0000
0010
0100
0000
0110
0000
0100
0000
0101
0000
,  // measure 36
0001
0000
1000
0100
0010
0000
0000
0010
0001
0000
0011
0000
0001
0000
1001
0000
,  // measure 37
1000
0000
0010
0100
0001
0000
0000
0100
0001
0000
1000
0000
0100
0000
1000
0000
,  // measure 38
0100
0000
0000
0010
0000
0000
0001
0000
0010
0000
0001
0000
1000
0000
0000
0010
0000
0000
0200
0000
0000
0000
0000
0000
,  // measure 39
0310
0000
1000
0010
1000
0000
0000
1000
0100
0000
1100
0000
0100
0000
0110
0000
,  // measure 40
0010
0000
0001
1000
0010
0000
0000
0010
0100
0000
0110
0000
0100
0000
0101
0000
,  // measure 41
0001
0000
1000
0001
0010
0000
0000
0001
0010
0000
0001
0000
1000
0000
0001
0000
,  // measure 42
1000
0000
0010
0100
0000
0001
1000
0000
0100
0000
0010
0000
0002
0000
0000
0000
,  // measure 43
1003
0000
0001
0100
0010
0000
0000
0010
1000
0100
0010
0000
0001
0000
0001
0000
,  // measure 44
0001
0000
0100
0001
0010
0000
0000
0010
0100
1000
0001
0000
0100
0000
0100
0000
,  // measure 45
0100
0000
0010
1000
0001
0000
0000
1000
0001
0000
1000
0000
0100
0010
0001
1000
,  // measure 46
0010
0000
0010
1000
0100
0000
0100
0010
0001
0000
0011
0000
1001
0000
0001
0000
,  // measure 47
1000
0000
0001
1000
0010
0000
0000
0010
0100
0001
1000
0000
0001
0000
0001
0000
,  // measure 48
0101
0000
0100
0010
1000
0000
0000
1000
0001
0010
0100
0000
1100
0000
1001
0000
,  // measure 49
0101
0000
0100
0001
1000
0000
0000
1000
0100
0000
0010
0000
0001
0010
0001
0010
,  // measure 50
0001
0000
0100
0001
0100
0000
0001
1000
0001
0000
1000
0000
0100
0000
0010
0000
,  // measure 51
0001
0000
0100
0001
0100
0000
0000
0001
0010
0100
1000
0000
0010
0000
0100
0000
,  // measure 52
0001
1000
1001
0000
;

//---------------dance-single - ----------------
#NOTES:
     dance-single:
     :
     Easy:
     3:
     0.178,0.191,0.044,0.044,0.000,159.000,6.000,6.000,0.000,0.000,0.000,0.178,0.191,0.044,0.044,0.000,159.000,6.000,6.000,0.000,0.000,0.000: // measure 0
0000
0000
0000
0000
,  // measure 1
0000
0000
0000
0000
,  // measure 2
0000
0000
0000
0000
,  // measure 3
0000
0000
0000
0000
,  // measure 4
1000
0000
0010
0100
,  // measure 5
0010
0000
1000
0001
,  // measure 6
1000
0000
0100
0000
,  // measure 7
0010
0000
0001
1000
,  // measure 8
0001
0000
0000
0000
,  // measure 9
1000
0010
1000
0001
,  // measure 10
0010
0010
0100
0010
,  // measure 11
0100
0100
1000
0001
,  // measure 12
1000
0010
1000
1000
,  // measure 13
0001
0010
0001
0001
,  // measure 14
0010
0100
0010
0010
,  // measure 15
0001
0200
0020
0330
,  // measure 16
0010
1000
0010
0010
,  // measure 17
1000
0001
1000
1000
,  // measure 18
0100
0010
0100
0100
,  // measure 19
1000
0001
1000
1000
,  // measure 20
1001
0000
0000
0000
,  // measure 21
1000
0000
0001
0000
,  // measure 22
1000
0010
1000
0000
,  // measure 23
0001
0000
1000
0000
,  // measure 24
0001
0010
0001
0000
,  // measure 25
0010
0000
0100
0000
,  // measure 26
0010
0100
0010
0010
,  // measure 27
0001
1000
0001
0001
,  // measure 28
0100
0000
0010
1000
,  // measure 29
0001
0000
0010
0100
,  // measure 30
1000
0000
0000
0000
,  // measure 31
0001
0100
0001
1000
,  // measure 32
0100
0100
0010
0100
,  // measure 33
0010
0010
0002
2000
,  // measure 34
0000
0000
0000
0000
0000
0000
0000
3003
,  // measure 35
1000
0010
0100
0100
,  // measure 36
0001
0010
0100
0100
,  // measure 37
1000
0001
0010
0010
,  // measure 38
0001
1000
0010
0010
,  // measure 39
0100
0001
0101
0000
,  // measure 40
0001
1000
1001
0000
,  // measure 41
1000
0100
1100
0000
,  // measure 42
0100
0010
0220
0330
,  // measure 43
0010
0001
1000
1000
,  // measure 44
0001
1000
0010
0010
,  // measure 45
1000
0010
0100
0100
,  // measure 46
0001
0010
0100
0100
,  // measure 47
1000
0100
1000
0100
,  // measure 48
0010
0001
0010
0001
,  // measure 49
1000
0001
1000
0001
,  // measure 50
0100
0010
0100
0010
,  // measure 51
0110
0000
0000
0000
,  // measure 52
0100
0001
1000
0000
;

//---------------dance-single - ----------------
#NOTES:
     dance-single:
     :
     Beginner:
     1:
     0.101,0.115,0.007,0.000,0.000,96.000,1.000,0.000,0.000,0.000,0.000,0.101,0.115,0.007,0.000,0.000,96.000,1.000,0.000,0.000,0.000,0.000: // measure 0
0000
0000
0000
0000
,  // measure 1
0000
0000
0000
0000
,  // measure 2
0000
0000
0000
0000
,  // measure 3
0000
0000
0000
0000
,  // measure 4
1000
0000
0001
0000
,  // measure 5
1000
0000
0100
0100
,  // measure 6
0100
0000
0010
0000
,  // measure 7
0001
0000
0010
0010
,  // measure 8
0010
0000
0000
0000
,  // measure 9
0001
0000
0100
0000
,  // measure 10
0010
0000
0100
0100
,  // measure 11
0100
0000
0010
0000
,  // measure 12
1000
0000
0000
0000
,  // measure 13
0001
0000
0000
0000
,  // measure 14
0010
0000
0010
0000
,  // measure 15
0100
0000
0000
0000
,  // measure 16
1000
0000
0100
0000
,  // measure 17
1000
0000
0001
0000
,  // measure 18
0100
0000
0000
0000
,  // measure 19
0010
0000
0000
0000
,  // measure 20
1001
0000
0000
0000
,  // measure 21
1000
0000
0001
0000
,  // measure 22
1000
0000
0000
0000
,  // measure 23
0100
0000
0100
0000
,  // measure 24
0010
0000
0000
0000
,  // measure 25
0001
0000
0001
0000
,  // measure 26
1000
0000
0010
0010
,  // measure 27
0010
0000
0100
0100
,  // measure 28
0100
0000
0001
0000
,  // measure 29
1000
0000
0100
0000
,  // measure 30
0010
0000
0000
0000
,  // measure 31
0100
0000
0100
0000
,  // measure 32
1000
0000
1000
0000
,  // measure 33
0001
0000
1000
0000
,  // measure 34
0000
0000
0000
0000
,  // measure 35
0001
0000
1000
0000
,  // measure 36
0010
0000
0100
0000
,  // measure 37
0001
0000
1000
0000
,  // measure 38
0100
0000
0010
0000
,  // measure 39
0001
0000
1000
1000
,  // measure 40
1000
0000
0010
0010
,  // measure 41
0010
0000
0100
0100
,  // measure 42
0100
0000
0001
0001
,  // measure 43
0001
0000
0001
0000
,  // measure 44
0010
0000
0010
0000
,  // measure 45
0100
0000
0100
0000
,  // measure 46
1000
1000
1000
0000
,  // measure 47
0001
0000
0001
0000
,  // measure 48
0100
0000
0100
0000
,  // measure 49
0010
0000
0010
0000
,  // measure 50
1000
1000
1000
0000
,  // measure 51
0001
0000
0000
0000
,  // measure 52
1000
0000
0001
0000
;
