#TITLE:Get My Phone Call;
#SUBTITLE:;
#ARTIST:MINA;
#TITLETRANSLIT:;
#SUBTITLETRANSLIT:;
#ARTISTTRANSLIT:;
#CREDIT:;
#BANNER:Get My Phone Call.png;
#BACKGROUND:Get My Phone Call-bg.png;
#LYRICSPATH:;
#CDTITLE:;
#MUSIC:Get My Phone Call.mp3;
#OFFSET:-0.143;
#SAMPLESTART:63.730;
#SAMPLELENGTH:12.000;
#SELECTABLE:YES;
#BPMS:0.000=108.000;
#STOPS:;
#BGCHANGES:0.000=Get My Phone Call.avi=1.000=1=1=0,
99999=-nosongbg-=1.000=0=0=0 // don't automatically add -songbackground-
;

//---------------dance-single - ----------------
#NOTES:
     dance-single:
     :
     Beginner:
     1:
     0.079,0.121,0.046,0.000,0.000:
0000
0000
0000
0000
,
0000
0000
0000
0000
,
1000
0000
0001
0000
,
0100
0000
0000
0000
,
1000
0000
0001
0000
,
0100
0000
0000
0000
,
0010
0000
0000
0000
,
0010
0000
0000
0000
,
0100
0000
0000
0000
,
1000
0000
0000
0000
,
0001
0000
0001
0000
,
0001
0000
0000
0000
,
1000
0000
1000
0000
,
1000
0000
0000
0000
,
0100
0000
0000
0000
,
0010
0000
0000
0000
,
0100
0000
0000
0000
,
1000
0000
0000
0000
,
0001
0000
0000
0000
,
1000
0000
0000
1001
,
0001
0000
0000
0110
,
1000
0000
0000
0000
,
0001
0000
0000
0000
,
1100
1000
0000
0000
,
0011
0001
0000
0000
,
0100
0000
0000
0000
,
0010
0000
0000
0000
,
1000
0000
0000
0000
,
0000
0000
0000
0000
,
0001
0000
1000
0000
,
0001
0000
1000
0000
,
0010
0000
0000
0000
,
0000
0000
0000
0000
,
1000
0000
0001
0000
,
1000
0000
0001
0000
,
0100
0000
0000
0000
;

//---------------dance-single - ----------------
#NOTES:
     dance-single:
     :
     Easy:
     2:
     0.166,0.191,0.023,0.011,0.000:
0000
0000
0000
0000
,
0000
0000
0000
0000
,
1000
1000
0000
0001
,
0000
0100
0100
0010
,
0000
1000
0000
0001
,
0000
0100
0100
0010
,
1000
0001
1000
0000
,
0001
1000
0001
0000
,
0100
0010
0100
0010
,
0010
0000
0000
0000
,
1000
0010
0100
0001
,
0001
0001
0000
0000
,
0010
1000
0010
1000
,
1000
0000
0000
0000
,
0001
0000
1000
0000
,
0010
0000
0100
0000
,
0001
0000
1000
0000
,
0100
0000
0010
0000
,
1001
0000
0000
0000
,
1000
0001
1000
1000
,
0001
1000
0001
0001
,
0100
0010
1000
0100
,
0010
0001
0001
0000
,
1000
0001
1000
1000
,
0001
1000
0001
0001
,
0100
0010
1000
0001
,
0100
0010
0010
0000
,
0200
0000
0000
0300
,
0001
1000
0000
0000
,
0010
1000
0000
0010
,
0100
0001
0000
0010
,
1000
0100
0000
0010
,
0100
0001
0000
0000
,
1000
0000
0001
0000
,
0100
0010
0000
1000
,
0001
0000
0100
0010
,
0000
1000
0001
1000
,
1001
0000
0000
0000
;

//---------------dance-single - Copied from----------------
#NOTES:
     dance-single:
     Copied from:
     Medium:
     4:
     0.250,0.276,0.126,0.011,0.000:
0000
0000
0000
0000
,
0000
0000
0000
0000
,
1000
0001
0100
1000
,
0001
1000
0000
0000
0010
0000
0100
0000
,
0001
1000
0010
0100
,
1000
0001
0000
0000
0100
0000
0010
0000
,
1000
0001
0100
0110
,
0001
1000
0001
1001
,
0010
1000
0001
0100
,
0110
0000
0000
1000
,
0001
0000
0100
0000
0010
1000
0010
0000
,
0100
0100
0001
0001
,
1000
0010
0100
0000
0001
0000
0001
0000
,
0010
1000
1000
0100
,
0001
0000
1000
0000
0010
0100
0010
0000
,
1000
0000
0010
0000
0100
0000
0001
1000
,
0001
0110
0001
1000
,
1001
0010
1010
0001
,
1001
0000
0000
0000
,
1000
0000
0010
0000
0100
0001
0100
0000
,
0010
0000
1000
0000
0010
0100
0010
0000
,
0001
1000
0001
0100
,
1000
0100
0010
0001
0001
0000
0000
0000
,
1000
0000
0010
0000
0100
0001
0100
0000
,
0010
0000
0100
0000
0010
1000
0010
0000
,
0100
0001
1000
0100
,
0010
0000
0001
0010
0100
0000
1000
0000
,
0001
0000
1000
0000
,
0010
0000
0100
0000
,
1001
0010
0100
0010
,
0001
0000
1000
0000
0010
0100
0010
0000
,
0001
1000
0001
0100
,
0002
0000
1003
0000
,
0010
1000
0010
0100
,
0001
0000
1000
0000
0010
0100
0010
0000
,
1000
0001
0100
0010
,
1001
0000
0110
0000
,
1001
0000
0000
0000
;

//---------------dance-single - Copied from----------------
#NOTES:
     dance-single:
     Copied from:
     Hard:
     8:
     0.394,0.368,0.264,0.092,0.000: // measure 1
0000
0000
0000
0000
,  // measure 2
0000
0000
0000
0000
,  // measure 3
1000
0100
0010
0001
0010
1000
0010
1000
,  // measure 4
0200
0000
0001
0300
0000
0000
0010
0000
,  // measure 5
1000
0001
0100
0010
1000
0001
0100
0010
,  // measure 6
0100
0020
0000
0000
0000
0000
0130
0000
,  // measure 7
0001
0000
1000
0000
0001
1000
1001
0000
,  // measure 8
0010
0000
0100
0000
1000
0001
1001
0000
,  // measure 9
0010
0100
0010
1000
0100
0010
0001
0010
,  // measure 10
0100
0110
0000
0000
0000
0001
0001
0010
,  // measure 11
0020
0000
0130
0001
0010
0100
1000
0010
,  // measure 12
0100
0000
1001
0000
0010
0000
0110
0001
,  // measure 13
0010
0100
1000
0000
0010
0100
0010
0000
,  // measure 14
1000
0001
1000
0001
1000
0010
1010
0000
,  // measure 15
0002
0000
1003
0000
0010
0100
0010
0000
,  // measure 16
1000
0010
0100
0000
0001
1000
0001
0100
,  // measure 17
0010
1000
0100
0010
0001
0010
0100
0100
,  // measure 18
0010
1001
1010
0101
,  // measure 19
0110
0000
0000
0000
,  // measure 20
0001
1000
0001
1000
0001
0100
0010
0100
,  // measure 21
0001
1000
0001
1000
0010
0100
0010
0100
,  // measure 22
1000
0100
0010
0001
0010
0100
0010
0000
,  // measure 23
1000
0001
1000
0001
1001
0000
0110
0000
,  // measure 24
0001
0010
0100
1000
0001
1000
1001
0000
,  // measure 25
0010
0100
0010
1000
0001
1000
1001
0000
,  // measure 26
0010
0100
0010
1000
0010
0100
0010
0001
,  // measure 27
1000
0100
1000
0010
1010
0000
0110
0000
,  // measure 28
0001
1000
0000
0010
,  // measure 29
1000
0001
0000
0000
,  // measure 30
1000
0100
0010
0001
0010
0100
0010
2000
,  // measure 31
0001
0000
3001
0000
0010
0000
0100
1000
,  // measure 32
0100
0010
0001
0010
0100
0010
1000
0010
,  // measure 33
1001
0000
1010
0000
0101
1000
0100
0010
,  // measure 34
0002
0000
1003
0000
0010
0100
0010
0000
,  // measure 35
1000
0001
0100
0010
1000
0001
0100
0001
,  // measure 36
0011
0000
1000
0000
0100
1000
0100
0010
,  // measure 37
0001
0000
1001
0000
0110
0000
0010
0100
,  // measure 38
2002
0000
0000
0000
0000
3003
0000
0000
;

//---------------dance-single - Copied from----------------
#NOTES:
     dance-single:
     Copied from:
     Challenge:
     6:
     0.282,0.304,0.149,0.080,0.011:
0000
0000
0000
0000
,
0000
0000
0000
0000
,
1000
0010
0100
MMMM
0000
MMMM
0000
MMMM
,
1000
0001
1000
0000
0010
0100
0010
0000
,
MMMM
MMMM
MMMM
MMMM
,
1000
0001
1000
0000
0010
0100
0010
0000
,
MMMM
MMMM
MMMM
1001
,
MMMM
MMMM
MMMM
1010
,
MMMM
0101
MMMM
1010
,
MMMM
0000
0101
0000
MMMM
1000
0001
1000
,
0200
0000
0310
0000
1000
0001
1000
0001
,
MMMM
0000
MMMM
0000
MMMM
0000
1000
0001
,
1000
0010
0100
0000
0001
1000
0010
0100
,
MMMM
0000
MMMM
0000
MMMM
1000
0010
0100
,
0002
0000
1003
0000
0010
0100
0010
0000
,
1000
0010
0100
0001
1000
0000
0001
0010
,
0200
0000
1300
0010
0100
1000
0001
0100
,
MMMM
MMMM
MMMM
MMMM
,
1001
0000
0000
0000
,
1001
0100
0010
1000
0010
0000
MMMM
0000
,
0001
0100
0010
1000
0001
0000
MMMM
0000
,
1000
0100
0010
0001
0010
0100
0010
0000
,
1000
0100
1000
0010
0100
0000
MMMM
0000
,
0001
0000
0010
0000
0100
0000
1000
0000
0010
0000
0100
0000
0000
MMMM
0000
0000
,
0001
0000
0010
0000
0100
0000
1000
0000
0010
0000
0100
0000
0000
MMMM
0000
0000
,
0001
1000
0001
0100
0010
1000
0100
0000
,
0001
1000
0010
0100
0110
0000
0001
0000
,
MMMM
1010
MMMM
0101
,
MMMM
1100
MMMM
0000
,
1000
0010
0100
0000
0001
1000
0010
0000
,
0100
0001
1000
0000
0010
0100
0010
1000
,
0002
0000
1003
0000
0010
0100
0010
0100
,
MMMM
0000
MMMM
0000
MMMM
1000
0100
0010
,
0002
0000
0103
0000
0010
1000
0010
0000
,
0100
0010
0100
0001
1000
0000
0010
0000
,
0110
0000
1000
0100
0010
0001
0001
1000
,
MMMM
MMMM
MMMM
MMMM
,
2002
0000
0000
3003
;
