#TITLE:Ganymede;
#SUBTITLE:;
#ARTIST:玄武;
#TITLETRANSLIT:;
#SUBTITLETRANSLIT:;
#ARTISTTRANSLIT:GENBU;
#GENRE:;
#CREDIT:;
#BANNER:;
#BACKGROUND:;
#LYRICSPATH:;
#CDTITLE:;
#MUSIC:Ganymede.mp3;
#OFFSET:-2.740000;
#SAMPLESTART:37.841953;
#SAMPLELENGTH:11.707317;
#SELECTABLE:YES;
#BPMS:0.000000=82.000000
,156.000000=78.000000
,158.000000=75.000000
,159.000000=72.000000
,160.000000=78.000000
;
#STOPS:
;
#BGCHANGES:;
#KEYSOUNDS:;
#ATTACKS:;

//---------------dance-single - ----------------
#NOTES:
     dance-single:
     :
     Beginner:
     1:
     0.059117,0.079028,0.030653,0.061306,0.000000,42.000000,4.000000,8.000000,0.000000,0.000000,0.000000,0.059117,0.079028,0.030653,0.061306,0.000000,42.000000,4.000000,8.000000,0.000000,0.000000,0.000000:
0000
0000
0000
0000
,
0000
0000
0000
0000
,
0000
0000
0000
0000
,
0000
0000
0000
0000
,
1000
0000
0000
0000
,
0001
0000
0000
0000
,
0100
0000
0000
0000
,
0010
0000
0000
0000
,
1000
0000
0000
0000
,
0100
0000
0000
0000
,
0010
0000
0000
0000
,
0001
0000
0000
0000
,
1001
0000
0000
0000
,
0110
0000
0000
0000
,
1001
0000
0000
0000
,
0110
0000
1000
0000
,
0001
0000
0000
0000
,
0100
0000
0000
0000
,
0010
0000
0000
0000
,
1000
0000
0000
0000
,
0001
0000
0010
0000
,
0100
0000
0000
0000
,
1000
0000
0010
0000
,
0100
0000
0000
0000
,
0000
0000
0000
0000
,
0002
0000
0000
0003
,
0020
0000
0000
0030
,
0200
0000
0000
0300
,
2000
0000
0000
3000
,
0001
0000
0000
0000
,
0200
0000
0300
0000
,
0020
0000
0030
0000
,
2000
0000
3000
0000
,
0001
0000
0001
0000
,
1000
0000
0000
0000
,
0010
0000
0010
0000
,
0100
0000
0000
0000
,
0001
0000
0000
0000
,
0010
0000
0000
0000
,
0100
0000
0000
0000
,
2000
0000
0000
0000
,
3000
0001
0000
0000
;

//---------------dance-single - ----------------
#NOTES:
     dance-single:
     :
     Easy:
     5:
     0.202530,0.256721,0.153266,0.114950,0.000000,150.000000,20.000000,15.000000,0.000000,0.000000,0.000000,0.202530,0.256721,0.153266,0.114950,0.000000,150.000000,20.000000,15.000000,0.000000,0.000000,0.000000:
0000
0000
0000
0000
,
0000
0000
0000
0000
,
0000
0000
0000
0000
,
0000
0000
0000
0000
,
1000
0000
0100
0000
0010
0000
0001
0100
,
0001
0000
1000
0000
0100
0000
0010
1000
,
0010
0000
0001
0000
0100
0000
1000
0100
,
1000
0000
0001
0000
0010
0000
0100
0100
,
0110
0000
1001
0000
0100
1000
0001
0000
,
0010
0000
1100
0000
0010
0100
0001
0000
,
0010
0000
0011
0000
0001
1000
0100
0000
,
0110
0000
1001
0000
0010
0100
0110
0110
,
0001
1000
0000
0000
0000
0000
0000
0000
,
0100
0010
0000
0000
0000
0000
0000
0000
,
1000
0001
0000
0000
0000
0000
0000
0000
,
0010
0100
0000
0000
0001
0000
1001
0000
,
1000
0000
0100
0000
1000
0100
0001
0000
,
1000
0000
0010
0000
1000
0010
0001
0000
,
1000
0000
0010
0000
1000
0010
0001
0000
,
1000
0000
0100
0000
1000
0100
0001
0000
,
2000
0000
3200
0000
,
0302
0000
0000
0000
,
0023
0000
2030
0000
,
3200
0000
0000
0300
,
0110
0000
0000
0000
,
0020
0000
0000
0000
,
0032
0000
0000
0000
,
0203
0000
0000
0000
,
0320
1000
0001
1000
,
0130
0000
0101
0000
0010
1000
1100
0000
,
0001
0000
0011
0000
0100
0010
1001
0000
,
0010
0000
0101
0000
0001
1000
1100
0000
,
0010
0000
0011
0000
0100
0010
0110
0000
,
0010
0000
2000
0000
3100
1000
0001
0000
,
0100
0000
0020
0000
0130
0001
0010
0000
,
1000
0000
0020
0000
0130
1000
0001
0000
,
0100
0000
2000
0000
3100
0010
0001
0010
,
1000
0000
0100
0000
0010
0000
0001
0010
,
0001
0000
0100
0000
0010
0000
1000
0100
,
1000
0010
0100
0001
,
2001
0100
0010
3001
,
0100
0000
0110
0000
1000
0100
0010
0001
;

//---------------dance-single - ----------------
#NOTES:
     dance-single:
     :
     Medium:
     7:
     0.322954,0.352991,0.314195,0.107286,0.084296,240.000000,41.000000,14.000000,0.000000,0.000000,0.000000,0.322954,0.352991,0.314195,0.107286,0.084296,240.000000,41.000000,14.000000,0.000000,0.000000,0.000000:
0000
0000
0000
0000
,
0000
0000
0000
0000
,
0000
0000
0000
0000
,
0000
0000
0000
0000
,
1000
0000
0100
0000
1000
0000
0100
0000
0010
0000
0001
0000
0010
0000
0001
0010
,
0001
0000
0100
0000
0001
0000
0100
0000
0010
0000
1000
0000
0010
0000
1000
0010
,
1000
0000
0100
0000
0010
0000
0001
0000
1000
0000
0010
0000
0100
0000
0001
1000
,
0001
0000
0010
0000
0100
0000
1000
0000
0010
0000
0100
0000
0001
1000
0001
0000
,
1000
0100
1100
0000
0001
0010
0011
0001
,
0100
0010
0110
0000
1000
0001
1001
0100
,
0010
0100
0110
0000
0010
0001
0101
0001
,
1000
0000
0100
0000
1100
0000
0000
0000
1000
0000
0001
0000
0100
0010
0100
0000
,
0110
1001
0000
0000
0000
0000
0000
0000
,
0110
1001
0000
0000
0000
0000
0000
0000
,
1100
0101
0000
0000
0000
0000
0000
0000
,
0011
0000
1010
0000
0000
1000
0000
1000
0001
0000
0010
0000
0200
0000
0000
0000
,
1300
0000
0100
0000
1100
0000
1000
0000
0001
0000
0100
0000
0101
0000
0001
0100
,
0010
0000
0100
0000
0110
0000
0010
0000
1000
0000
0001
0000
1001
0000
0001
0010
,
0100
0000
0010
0000
0110
0000
0100
0000
1000
0000
0100
0000
1100
0000
1000
0010
,
0001
0010
0011
0010
0100
0001
0101
0000
,
0020
0000
0032
0000
,
0203
0000
0000
0000
,
2300
0000
3020
0000
,
0230
0000
0000
0300
,
2002
0000
0000
0000
0000
0000
3003
0000
0000
1000
0100
0010
,
0002
0000
0000
0000
0000
0000
0000
1000
,
2003
0000
0000
0000
0000
0000
0000
0010
,
3020
0000
0000
0000
0000
0000
0000
0100
,
0230
0000
1000
0000
0001
0001
1000
0301
,
0100
0000
0001
0000
0101
0000
0010
1000
0010
0000
1000
0000
1010
0000
0000
0000
,
0001
0000
0010
0000
0011
0000
0100
1000
0100
0000
1000
0000
1001
0000
0000
0000
,
1000
0000
0010
0000
0101
0000
0001
0010
0001
0000
1000
0000
1100
0000
0010
0000
,
0100
0000
0001
0000
1010
0000
0010
0100
0001
0000
1000
0000
0011
0000
0100
0000
,
1000
0000
0100
0000
1100
0000
0001
0000
0100
0010
0100
0000
0101
0000
0000
0000
,
0010
0000
1000
0000
0101
0000
0001
0000
0010
0100
0010
0000
1001
0000
0010
0000
,
1000
0010
0101
0001
1000
0100
1100
0100
,
0010
0000
0001
0000
0011
0000
0100
1000
0001
1000
0100
0000
0110
0000
0001
0000
,
1000
0000
0010
0000
1000
0000
0010
0000
0100
0000
0001
0000
0100
0000
0001
0100
,
0001
0000
1000
0000
0001
0000
1000
0000
0100
0000
1000
0000
0100
0000
1000
0100
,
0010
0100
0010
0100
1000
0010
0001
0100
,
2000
0000
0010
0000
0001
0001
3100
0000
,
0100
0000
0110
0000
0001
0010
0100
1000
;

//---------------dance-single - ----------------
#NOTES:
     dance-single:
     :
     Hard:
     8:
     0.395208,0.417171,0.344849,0.130276,0.379334,299.000000,45.000000,17.000000,0.000000,0.000000,0.000000,0.395208,0.417171,0.344849,0.130276,0.379334,299.000000,45.000000,17.000000,0.000000,0.000000,0.000000:
0000
0000
0000
0000
,
0000
0000
0000
0000
,
0000
0000
0000
0000
,
0000
0000
0000
0000
,
1000
0100
0000
1000
0000
0100
0000
1000
0001
0100
0000
0001
0000
0100
0000
0001
,
1000
0010
0000
1000
0000
0010
0000
1000
0001
0010
0000
0001
0000
0010
0000
0001
,
0100
0010
0000
1000
0000
0100
0000
0010
0001
0100
0000
0010
0000
1000
0000
0100
,
0010
0100
0000
1000
0000
0010
0000
0100
0000
0001
0000
1000
0100
1000
0001
0000
,
1000
0000
0001
0000
0101
0000
0001
0100
1000
0100
0010
0000
1010
0000
1000
0000
,
0001
0000
0010
0000
1100
0000
0100
0010
0001
0010
0100
0000
0011
0000
0001
0000
,
0100
0000
0010
0000
0101
0000
0010
1000
0100
1000
0001
0000
0101
0000
0010
0000
,
1000
0000
0001
0000
1010
0000
0010
0100
0001
0100
0010
0000
0100
0100
0110
0000
,
1001
0110
0000
0000
1000
0000
0000
0000
,
1001
0110
0000
0000
0200
0000
0300
0000
,
0110
0000
1001
0000
0000
0000
0001
0001
1000
0000
0000
0000
0000
0000
0000
0000
,
1001
0000
0110
0000
0000
0110
0000
0010
0001
0000
1000
0000
2100
0000
0000
0000
,
3001
0000
0100
0000
0101
0000
0001
1000
0100
1000
0001
0000
0101
0000
0100
0000
,
0010
0000
0100
0000
1001
0000
0100
0001
0100
1000
0010
0000
0110
0000
0100
0000
,
0001
0000
0100
0000
1010
0000
0010
0100
0001
0100
0010
0000
1010
0000
1000
0000
,
0001
0000
0010
0000
0011
0000
0100
1000
0100
0010
0001
0000
0011
0000
0001
0000
,
2001
0000
3020
0000
,
0032
0000
0000
0000
,
0203
0000
2300
0000
,
3020
0000
0000
0030
,
0220
0000
0000
0000
0000
0000
0330
0000
0000
1010
0110
0101
,
2002
0000
0000
0000
0000
0000
0000
0000
0000
0000
0000
0000
3003
0000
1000
0100
,
2200
0000
0000
0000
0000
0000
0000
0000
0000
0000
0000
0000
3300
0000
0001
0010
,
0022
0000
0000
0000
0000
0000
0000
0000
0000
0000
0000
0000
0033
0000
0001
1000
,
1002
0000
0000
0000
0010
0000
0000
1000
1000
0000
0100
0000
0010
0000
1000
0003
,
0001
0000
0100
0000
0101
0000
0001
1000
0100
1000
0010
0000
1010
0000
0100
0001
,
0010
0000
0001
0000
1001
0000
1000
0100
0001
0100
1000
0000
1100
0000
0010
0100
,
0001
0000
0100
0000
1010
0000
0010
0001
0010
0100
0001
0000
1001
0000
1000
0100
,
0010
0000
0011
0000
1100
0000
0001
0100
1000
0100
0010
0000
1010
0000
1000
0001
,
0010
0001
0000
0001
1000
0100
0000
0100
1000
0010
0000
0010
0100
0000
0001
1000
,
0100
0010
0000
0010
0100
1000
0000
1000
0001
0100
0000
0100
0010
0000
0100
0001
,
1000
0100
0000
0100
0001
0100
0000
0100
0010
0001
0000
0001
1000
0000
0010
0100
,
0001
1000
0000
1000
0001
0100
0000
0100
0010
1000
0000
1000
0001
0000
0010
0000
,
0100
0000
1000
0000
0100
0000
1000
0000
0001
0000
0100
0000
0001
0000
0100
0010
,
0100
0000
0001
0000
1000
0000
0100
0000
1000
0000
0010
0000
0001
0000
0010
1000
,
0010
0000
0100
0000
0001
0000
1000
0000
0010
0000
0001
0000
0100
0000
1000
0100
,
1000
0010
0100
0001
0010
0100
1000
0001
,
0100
0010
1001
0100
0010
1000
0100
0001
;

//---------------dance-single - ----------------
#NOTES:
     dance-single:
     :
     Challenge:
     10:
     0.568179,0.770162,0.421482,0.084296,0.728014,453.000000,55.000000,11.000000,0.000000,0.000000,0.000000,0.568179,0.770162,0.421482,0.084296,0.728014,453.000000,55.000000,11.000000,0.000000,0.000000,0.000000:
// measure 0
0000
0000
0000
0000
,  // measure 1
0000
0000
0000
0000
,  // measure 2
0000
0000
0000
0000
,  // measure 3
0000
0000
0000
0000
,  // measure 4
1000
0100
1000
0001
0100
0000
0010
0000
0100
0001
1000
0100
0010
0000
0001
0000
,  // measure 5
0010
0100
1000
0001
0100
0000
0010
0000
0100
0001
1000
0100
0010
0000
1000
0000
,  // measure 6
0010
0001
0100
0010
0100
0000
0001
0000
1000
0100
0001
0100
1000
0000
0010
0000
,  // measure 7
0100
0001
0010
0001
1000
0000
0010
0000
0100
0000
0001
0000
1000
0001
1001
0000
,  // measure 8
0110
0000
0101
0000
1010
0000
0010
0100
0001
1000
0100
0000
0011
0000
0100
1000
,  // measure 9
0001
0000
0101
0000
1010
0000
0010
0100
0001
1000
0100
0000
0011
0000
0100
1000
,  // measure 10
1001
0000
0101
0000
0110
0000
0010
1000
0010
0100
0001
0000
0101
0000
0010
1000
,  // measure 11
0001
0000
0011
0000
1100
0000
0001
0100
1000
0100
0010
0000
0110
0110
1001
0000
,  // measure 12
0011
1010
0000
0000
0010
0000
0000
0000
,  // measure 13
1010
1100
0000
0000
2000
0000
3000
0000
,  // measure 14
1100
0101
0000
0000
0200
0000
0300
0000
,  // measure 15
0101
0000
0011
0000
0000
0011
0000
0011
0001
0000
1000
0000
1000
0010
0100
0000
,  // measure 16
0001
0000
0100
0000
0101
0000
0001
1000
0100
1000
0010
0000
0110
0000
0100
0001
,  // measure 17
1000
0000
0100
0000
0011
0000
0100
1000
0010
1000
0001
0000
0101
0000
0001
1000
,  // measure 18
0100
0010
0100
1000
1010
0000
0010
0000
0100
0000
0001
1000
0100
0000
0010
0000
,  // measure 19
0001
0100
1000
0100
0001
0000
0010
0000
0100
0000
1000
0001
0100
0000
0010
0000
,  // measure 20
1020
0000
0032
0000
,  // measure 21
0203
0000
0000
0000
,  // measure 22
2300
0001
0001
0000
3020
0100
0100
0000
,  // measure 23
0230
0000
0001
0000
0002
0300
0000
0000
0000
0000
1000
0000
1003
0000
0000
0000
,  // measure 24
2002
0000
0000
0000
0000
0000
0000
0000
0000
0000
0000
0000
0000
0000
0000
3003
0000
0000
1100
0000
0011
0000
1001
0000
,  // measure 25
1000
0100
0010
0001
1000
0100
0010
0001
1000
0100
0010
0001
1000
0100
0010
0001
1000
0100
0010
0001
1000
0100
0010
0001
,  // measure 26
1000
0010
0100
0001
1000
0010
0100
0001
1000
0010
0100
0001
1000
0010
0100
0001
1000
0010
0100
0001
1000
0010
0100
0001
,  // measure 27
1000
0100
0010
0100
1000
0010
0100
0001
0100
0010
0100
0001
1000
0100
0010
0100
1000
0010
0100
0001
0010
0001
0100
0010
,  // measure 28
1000
0100
0010
0100
1000
0010
0100
0001
0010
0100
0010
0100
1000
0001
1000
0010
0100
0001
0010
0100
1000
0010
0100
0001
,  // measure 29
0010
0001
0010
0000
0011
0000
0100
1000
0001
1000
0100
0000
0011
0000
0001
1000
,  // measure 30
0010
1000
0001
0000
0101
0000
0010
0100
0001
1000
0100
0000
0110
0000
0100
1000
,  // measure 31
0010
0001
0010
0000
0110
0000
0100
0001
0010
1000
0001
0000
0101
0000
0100
1000
,  // measure 32
0010
0001
1000
0000
1100
0000
0100
0010
1000
0001
0010
0000
0011
0000
0001
0000
,  // measure 33
1000
0010
1000
0001
0010
0001
1000
0010
1000
0001
0010
0001
1000
0100
0010
0001
0010
0100
1000
0010
0100
0001
0100
0010
,  // measure 34
1000
0100
1000
0001
0100
0001
1000
0100
1000
0001
0100
0001
1000
0100
0010
0100
1000
0010
0100
0001
0100
0010
0100
0001
,  // measure 35
1000
0010
1000
0001
0010
0001
1000
0010
1000
0001
0010
0001
1000
0010
0100
0001
0010
0100
1000
0010
0100
0001
0010
0100
,  // measure 36
1000
0001
0100
0001
1000
0100
1000
0001
0100
0001
1000
0100
1000
0001
0100
0010
1000
0001
0010
0100
1000
0010
0100
0001
,  // measure 37
0010
0000
0011
0000
0100
0000
1100
0000
0010
0000
0011
0000
0100
0000
1000
0001
,  // measure 38
0100
0000
1010
0000
0100
0000
0101
0000
0010
0000
1010
0000
0100
0000
0001
1000
,  // measure 39
0100
0000
0110
0000
0001
0000
1001
0000
0010
0000
0011
0000
0001
0000
0100
1000
,  // measure 40
0010
0100
0001
0010
0100
1000
0010
0001
,  // measure 41
1000
0100
0110
1000
0010
0001
0100
1000
;
