#VERSION:0.81;
#TITLE:G.U.Y.;
#SUBTITLE:;
#ARTIST:Lady Gaga;
#TITLETRANSLIT:;
#SUBTITLETRANSLIT:;
#ARTISTTRANSLIT:;
#GENRE:;
#ORIGIN:;
#CREDIT:;
#BANNER:G.U.Y.-banner.png;
#BACKGROUND:G.U.Y.-bg.png;
#PREVIEWVID:;
#JACKET:jacket.png;
#CDIMAGE:;
#DISCIMAGE:;
#LYRICSPATH:;
#CDTITLE:;
#MUSIC:G.U.Y..ogg;
#OFFSET:-0.276710;
#SAMPLESTART:59.419998;
#SAMPLELENGTH:12.000000;
#SELECTABLE:YES;
#BPMS:0.000=110.000;
#STOPS:;
#DELAYS:;
#WARPS:;
#TIMESIGNATURES:0.000=4=4;
#TICKCOUNTS:0.000=4;
#COMBOS:0.000=1;
#SPEEDS:0.000=1.000=0.000=0;
#SCROLLS:0.000=1.000;
#FAKES:;
#LABELS:0.000=Song Start;
#BGCHANGES:;
#KEYSOUNDS:;
#ATTACKS:
;

//---------------dance-single - ----------------
#NOTEDATA:;
#CHARTNAME:;
#STEPSTYPE:dance-single;
#DESCRIPTION:;
#CHARTSTYLE:;
#DIFFICULTY:Beginner;
#METER:1;
#RADARVALUES:0.086255,0.135852,0.000000,0.000000,0.000000,74.000000,0.000000,0.000000,0.000000,0.000000,0.000000,0.000000,0.000000,0.086255,0.135852,0.000000,0.000000,0.000000,74.000000,0.000000,0.000000,0.000000,0.000000,0.000000,0.000000,0.000000;
#CREDIT:;
#NOTES:
0000
0000
0000
0000
,
0000
0000
0000
0000
,
0000
0000
0000
0000
,
0000
0000
0000
0000
,
0000
0000
0000
0000
,
0000
0000
0000
0000
,
0000
0000
0000
0000
,
0000
0000
0000
0000
,
1000
0000
0000
0000
,
0001
0000
0000
0000
,
0100
0000
0000
0000
,
0010
0000
0010
0000
,
1000
0000
0000
0000
,
0100
0000
0000
0000
,
1000
0000
1000
0000
,
0001
0000
0000
0000
,
0100
0000
0000
0000
,
0010
0000
0000
0000
,
0100
0000
0100
0000
,
0001
0000
0000
0000
,
1000
0000
0000
0000
,
0100
0000
0000
0000
,
0010
0000
0000
0000
,
0001
0000
0000
0000
,
1000
0000
1000
0000
,
0001
0000
0001
0000
,
0100
0000
0100
0000
,
0010
0000
0000
0000
,
1000
0000
1000
0000
,
1000
0000
0000
0000
,
0001
0000
0001
0000
,
0001
0000
0000
0000
,
0100
0000
0100
0000
,
0100
0000
0000
0000
,
0010
0000
0010
0000
,
0010
0000
0000
0000
,
1000
0000
1000
0000
,
0100
0000
0100
0000
,
0010
0000
0010
0000
,
0001
0000
0001
0000
,
1000
0000
1000
0000
,
0010
0000
0010
0000
,
0100
0000
0100
0000
,
0001
0000
0001
0000
,
1000
0000
0000
0000
,
0100
0000
0000
0000
,
0010
0000
0000
0000
,
0001
0000
0000
0000
,
0100
0000
0000
0000
,
0010
0000
0000
0000
,
1000
0000
0000
0000
,
0001
0000
0000
0000
,
1000
1000
1000
0000
,
0001
0001
0001
0000
,
0100
0100
0100
0000
,
0010
0010
0010
0000
;

//---------------dance-single - ----------------
#NOTEDATA:;
#CHARTNAME:;
#STEPSTYPE:dance-single;
#DESCRIPTION:;
#CHARTSTYLE:;
#DIFFICULTY:Easy;
#METER:4;
#RADARVALUES:0.198154,0.251305,0.048956,0.089752,0.000000,153.000000,6.000000,11.000000,0.000000,0.000000,0.000000,0.000000,0.000000,0.198154,0.251305,0.048956,0.089752,0.000000,153.000000,6.000000,11.000000,0.000000,0.000000,0.000000,0.000000,0.000000;
#CREDIT:;
#NOTES:
0000
0000
0000
0000
,
0000
0000
0000
0000
,
0000
0000
0000
0000
,
0000
0000
0000
0000
,
0000
0000
0000
0000
,
0000
0000
0000
0000
,
0000
0000
0000
0000
,
0000
0000
0000
0000
,
1000
0000
0000
0000
,
0001
0000
0000
0000
,
0100
0000
0000
0000
,
0010
0000
0010
1000
,
1000
0000
0100
0000
,
1000
1000
0000
0001
,
0001
0100
0010
0100
,
0001
0000
1000
0100
,
0010
0000
0100
0000
,
1000
1000
0000
0001
,
0100
0010
0100
0001
,
1000
0000
0000
0000
,
0001
0010
0001
0100
,
0010
0000
1000
0000
0000
1000
1000
0000
,
0010
0100
0001
0002
,
0000
1000
1003
0000
,
1000
0100
1000
1100
,
0001
0100
0001
0101
,
0001
0010
0100
1000
,
1000
0000
0000
0000
,
2000
3000
0100
0100
,
0000
0010
0001
0100
,
0020
0030
1000
1000
,
0000
0001
0100
0010
,
0200
0300
0010
0010
,
0000
1000
0100
0010
,
0001
0100
0100
0001
,
1000
0100
1000
0000
,
0001
0010
0100
2000
,
3010
0000
0100
0000
0000
0001
0001
0000
,
1000
0100
0010
0001
,
0100
0010
1000
2001
,
3100
1000
0100
0020
,
0031
0000
0001
0000
0000
0100
0100
0000
,
0001
0001
0010
0100
,
1000
0001
0001
0000
,
1000
0000
0000
1000
0000
0000
2000
0000
,
0000
0000
0001
3001
,
0001
0000
0000
0001
0000
0000
0002
0000
,
0000
0000
1000
1003
,
0100
0100
0010
1000
,
0010
0010
0100
0001
,
1000
1000
0100
0010
,
0001
0001
0100
0010
,
1000
0100
1000
1100
,
0001
0100
0001
0101
,
0001
0010
0100
1000
,
0010
0010
0100
2002
,
3003
0000
0000
0000
;

//---------------dance-single - ----------------
#NOTEDATA:;
#CHARTNAME:;
#STEPSTYPE:dance-single;
#DESCRIPTION:;
#CHARTSTYLE:;
#DIFFICULTY:Medium;
#METER:6;
#RADARVALUES:0.319377,0.365535,0.130548,0.089752,0.028557,247.000000,16.000000,11.000000,0.000000,0.000000,0.000000,0.000000,0.000000,0.319377,0.365535,0.130548,0.089752,0.028557,247.000000,16.000000,11.000000,0.000000,0.000000,0.000000,0.000000,0.000000;
#CREDIT:;
#NOTES:
0000
0000
0000
0000
,
0000
0000
0000
0000
,
0000
0000
0000
0000
,
0000
0000
0000
0000
,
0000
0000
0000
0000
,
0000
0000
0000
0000
,
0000
0000
0000
0000
,
0000
0000
0000
0000
,
1000
0000
0000
0100
0000
0000
1000
0000
0000
0100
0000
0000
1000
0000
0000
0000
,
0001
0000
0000
0100
0000
0000
0001
0000
0000
0100
0000
0000
0001
0000
0000
0000
,
1000
0000
0000
0001
0000
0000
0010
0000
0000
0100
0000
0000
1000
0000
0000
0000
,
0001
0000
0000
0100
0000
0000
0010
0000
0100
0000
0100
0000
0001
0000
0000
0000
,
1000
0000
0100
0000
0010
0000
0010
0100
,
0000
0100
0000
1000
0000
0001
0100
0010
,
0100
0001
1000
0100
0010
0000
1001
0000
,
1001
0000
0001
0100
0010
0100
0001
1000
,
0100
0000
0010
0000
0010
0000
0100
1000
,
0000
1000
0000
0010
0000
0100
0001
0000
,
1000
0100
1000
0100
0010
0000
0010
0000
,
0001
1000
1000
0001
,
1000
0100
0010
0100
,
1000
0000
0100
0000
0100
0000
0100
0010
,
0001
1000
0100
1000
0001
1000
0001
0000
,
0000
1000
1000
0100
0100
0000
0110
0000
,
0001
0100
0001
1000
0001
1000
0001
0000
,
1000
0100
1000
0001
1000
0001
1000
0000
,
0001
0010
0100
1000
0100
0100
0010
0010
,
0002
0000
0000
0003
,
1100
0000
0000
0101
0000
0000
1100
0000
,
0000
0001
0100
0020
1000
0000
1030
0000
,
0011
0000
0000
1010
0000
0000
0011
0000
,
0000
0001
1000
0200
0010
0000
0310
0000
,
0110
0000
0000
1001
0000
0000
0110
0000
,
0000
0010
0001
0100
0010
0000
0010
0000
,
1002
0103
1000
1000
,
0001
0100
0010
0010
,
0000
1000
0100
0010
0100
1000
0001
0001
,
0000
1000
0100
0010
0100
1000
0001
0000
,
1000
0100
0010
0100
1000
0000
0001
0000
,
0100
0010
1001
2100
,
3001
1000
0010
0100
0001
1000
0100
0010
,
0000
0010
0100
1000
0010
0100
0001
0001
,
1000
0000
0100
1000
0010
0000
0010
0100
,
0001
1000
0100
1000
,
0002
0000
0000
0203
0000
0000
0310
0000
,
0000
0000
0000
0000
1000
0100
0010
0100
,
2000
0000
0000
3002
0000
0000
1003
0000
,
0000
0000
0000
0000
0010
1000
0010
0100
,
0001
1000
0100
1000
,
0001
0000
0100
0000
0010
0100
0001
1000
,
0100
0010
0100
1000
,
0001
0000
0100
0000
0010
0100
0001
0000
,
1000
0100
1000
0100
0010
0100
0010
0000
,
0001
0010
0001
0010
0100
0010
0100
0000
,
0000
1000
0001
1000
0001
0100
0010
0000
,
1000
0010
0100
0001
0010
0100
2002
0000
,
3003
0000
0000
0000
;

//---------------dance-single - ----------------
#NOTEDATA:;
#CHARTNAME:;
#STEPSTYPE:dance-single;
#DESCRIPTION:;
#CHARTSTYLE:;
#DIFFICULTY:Hard;
#METER:7;
#RADARVALUES:0.424282,0.456919,0.285574,0.171345,0.101991,308.000000,35.000000,21.000000,0.000000,0.000000,0.000000,0.000000,0.000000,0.424282,0.456919,0.285574,0.171345,0.101991,308.000000,35.000000,21.000000,0.000000,0.000000,0.000000,0.000000,0.000000;
#CREDIT:;
#NOTES:
0000
0000
0000
0000
,
0000
0000
0000
0000
,
0000
0000
0000
0000
,
0000
0000
0000
0000
,
0000
0000
0000
0000
,
0000
0000
0000
0000
,
0000
0000
0000
0000
,
0000
0000
0000
0000
,
1000
0000
0000
0100
0000
0000
0010
0000
0000
0001
0000
0000
0100
0000
0010
0100
,
0001
0000
0000
0010
0000
0000
0100
0000
0000
1000
0001
0000
0100
0000
0010
0000
,
0100
0000
0000
0001
0000
0000
0010
0000
0000
1000
0000
0000
0001
0000
0100
1000
,
0001
0000
0000
0100
0000
0000
0010
0000
1000
0000
0100
0000
0010
0000
0100
0000
,
1000
0000
0000
0000
0002
0100
0000
0103
0000
0000
0010
0000
0100
0000
0001
0000
,
0010
0000
0100
0000
2000
0001
0000
3001
0000
0000
1010
0000
0110
0000
0100
0000
,
0001
0010
0100
1000
0011
0000
1100
0000
,
1001
0000
0001
0100
0010
1000
0100
0010
,
0100
0000
0000
0000
2000
0001
0000
3001
0000
0000
0100
0000
0010
0000
0100
0000
,
0001
0000
0010
0000
0200
1000
0000
1300
0000
0000
0011
0000
1100
0000
0001
0000
,
0100
0010
0100
0001
1000
0000
0100
0000
,
0010
0100
1000
0001
,
1000
0010
0001
1000
0100
0001
0010
0100
,
1000
0100
0001
0100
1000
0011
1100
0001
,
0100
1000
0100
0001
0010
0100
1000
0000
,
0001
0100
0010
0100
0001
0000
1000
0000
,
1000
0100
1000
0001
2000
0001
3001
0000
,
1000
0000
0010
0000
0100
0000
0001
0000
0020
0000
0100
0000
0130
0000
0010
0001
,
0100
0000
0010
0100
0000
0000
0001
1000
0100
0000
1000
0000
0001
0000
0100
0010
,
0000
1000
0100
0010
2002
0000
3003
0000
,
2100
0000
3001
0100
0010
0100
0101
0001
,
0010
0100
1000
0001
1000
1100
0011
0000
,
2001
0000
3001
0100
0010
1000
1010
0010
,
0100
0001
0010
0100
1000
0000
0011
0000
,
1200
0000
0301
0100
0010
0001
1001
1000
,
0100
0010
0001
0010
0100
1001
1010
0000
,
0110
0001
1000
1000
,
0001
0100
0001
0001
,
1001
1000
0010
0100
0001
0010
2100
0000
,
3001
0001
0200
0000
0310
0110
1001
0001
,
0100
0010
1000
0100
0010
0000
0010
0100
,
2000
3020
0130
1002
,
0103
0001
1000
0100
0010
0001
0012
0000
,
1003
0001
0010
1000
0010
0011
0110
0100
,
1000
0100
0001
0100
1000
0000
0001
0001
,
0100
0010
1000
1002
,
1003
1000
0001
0100
,
0010
0000
0010
0000
1000
0100
1000
0100
,
0010
0010
0001
1000
,
0010
0000
0100
0000
0001
1000
0100
0010
,
0100
0100
1000
1000
,
0001
0000
0100
0000
0010
0100
0010
0000
,
1000
0100
0010
0001
,
0100
0000
0010
1000
0100
0000
1000
0000
,
0001
0001
1000
1000
0002
1000
1003
0000
,
0001
0000
1000
0010
0000
0000
0100
0001
0100
0000
1010
0000
0101
0000
0000
0000
,
0001
0100
0010
1000
0010
0100
0001
0000
,
1000
0000
0100
0010
0000
0000
0100
1000
0001
0000
0101
0000
2002
0000
0000
0000
,
3003
0000
0000
0000
;
