#TITLE:Don't Bother Me;
#SUBTITLE:;
#ARTIST:타샤니;
#TITLETRANSLIT:;
#SUBTITLETRANSLIT:;
#ARTISTTRANSLIT:Tashannie;
#CREDIT:;
#BANNER:[Low Speed] - Don't Bother Me.png;
#BACKGROUND:[Low Speed] - Don't Bother Me-bg.png;
#LYRICSPATH:;
#CDTITLE:cdtitle.png;
#MUSIC:[Low Speed] - Don't Bother Me.mp3;
#OFFSET:0.000;
#SAMPLESTART:73.245;
#SAMPLELENGTH:9.960;
#SELECTABLE:YES;
#BPMS:0.000=110.000;
#STOPS:;
#BGCHANGES:0.000=[Low Speed] - Don't Bother Me.avi=1.000=1=0=0,
176.000=[Low Speed] - Don't Bother Me.avi=1.000=1=0=0,
99999=-nosongbg-=1.000=0=0=0 // don't automatically add -songbackground-
;

//---------------dance-single - ----------------
#NOTES:
     dance-single:
     Lisek:
     Hard:
     6:
     0.370,0.382,0.473,0.048,0.000:
0000
0000
0000
0000
,
0000
0000
0000
0000
,
0001
0100
1000
0100
,
0001
1000
0100
0000
0001
0000
0100
0000
,
1000
0001
0100
0000
1000
0000
0100
0000
,
0001
1000
0100
0000
0001
0000
0100
0000
,
1000
0010
0100
0001
1000
0100
0110
0000
,
0001
0100
0010
1000
0010
0110
0000
0101
,
0001
1000
0100
0010
0100
1000
0001
0100
,
0000
0101
0000
1001
0000
1000
0001
0000
,
1000
0010
0001
0100
,
1000
0001
2000
3000
,
0001
0100
1000
0010
,
0002
0000
0000
0000
0003
1000
0000
0001
,
1000
0100
0001
0010
,
1000
0001
2000
3000
,
0001
0010
1000
0100
,
0002
0000
0003
0000
0000
1000
0001
0000
,
1000
0100
0010
0000
0010
0100
1000
0000
,
0001
0100
1000
0000
1000
0100
0001
0000
,
1000
0001
0100
0010
1000
0001
1000
0000
,
0001
0010
0200
0000
0300
0000
0000
0000
,
1001
0000
0010
0000
1100
1000
0100
0000
,
0011
0000
0001
0000
1001
1000
0001
0000
,
0110
0000
0010
0000
0101
0001
0100
0000
,
1010
0000
0100
0000
1001
1000
0001
0000
,
1100
0000
0010
0000
0101
0001
0100
0000
,
1010
0000
0001
0000
1100
1000
0100
0000
,
0011
0000
0001
0000
0101
0001
0100
0000
,
0110
0000
1001
0000
0110
0010
1001
0000
,
1000
0100
0001
0100
1000
0010
0100
0000
,
0010
0100
0001
0010
1000
0010
0001
0000
,
1000
0100
0010
0001
1000
0100
0010
0011
,
0000
1001
0000
1010
1000
0001
1000
0000
,
0101
0000
1100
0000
0101
0001
1000
0000
,
1100
0000
0110
0000
0011
0001
1000
0000
,
0001
0100
0010
0100
0001
1000
0100
0010
,
0001
0101
0000
0110
0000
1010
0000
0000
,
1001
0000
0101
0000
1010
0010
0100
0000
,
0101
0000
1001
0000
1100
0100
0010
0000
,
0100
1000
0010
0100
0001
1000
0010
0100
,
0001
1000
0000
0000
0000
0001
1000
0000
,
0000
1001
0000
0110
0000
1001
0000
0110
,
0000
1001
0000
0110
0000
1001
0000
0110
;

//---------------dance-single - ----------------
#NOTES:
     dance-single:
     Lisek:
     Medium:
     4:
     0.273,0.254,0.039,0.039,0.000: // measure 1
0000
0000
0000
0000
,  // measure 2
0000
0000
0000
0000
,  // measure 3
1000
0001
0100
0010
,  // measure 4
1000
0100
0010
0001
,  // measure 5
1000
0010
0100
0001
,  // measure 6
1000
0100
0010
0001
,  // measure 7
1000
0000
0100
0000
1000
0100
1000
0000
,  // measure 8
0001
0000
0100
0000
0001
0100
0000
0001
,  // measure 9
1000
0000
0100
0000
1000
0001
1000
0000
,  // measure 10
0001
0100
0010
1000
,  // measure 11
0001
0100
0001
0000
0100
0000
0010
0000
,  // measure 12
1000
0010
1000
0000
0010
0000
0100
0000
,  // measure 13
0001
0010
0100
0000
1000
0000
0100
0000
,  // measure 14
1000
0000
0001
0000
1000
0001
1000
0000
,  // measure 15
0001
0000
0010
0000
0001
0100
0001
0000
,  // measure 16
1000
0000
0010
0000
0100
0010
0100
0000
,  // measure 17
0001
0000
0010
0000
0100
1000
0100
0000
,  // measure 18
1000
0000
0001
0000
1000
0001
1000
0000
,  // measure 19
0001
0000
0001
0000
0100
0100
0100
0000
,  // measure 20
0010
0000
0010
0000
1000
1000
1000
0000
,  // measure 21
0001
1000
0001
2000
0000
0000
3000
0000
,  // measure 22
0001
0200
0300
0000
,  // measure 23
0001
0000
0100
0000
0001
1000
0010
0000
,  // measure 24
0100
0000
0010
0000
1000
0100
0010
0000
,  // measure 25
0001
0000
1000
0000
0001
0100
0010
0000
,  // measure 26
1000
0010
0100
0001
,  // measure 27
1000
0000
0001
0000
0100
0001
1000
0000
,  // measure 28
0010
0000
0100
0000
0010
1000
0001
0000
,  // measure 29
1000
0000
0100
0000
0010
0001
1000
0000
,  // measure 30
0001
0000
1000
0000
0001
1000
0001
0000
,  // measure 31
1001
1000
0010
0100
,  // measure 32
0110
0100
0001
1000
,  // measure 33
1001
1000
0001
0100
,  // measure 34
0220
0000
0330
0000
,  // measure 35
1000
0001
0100
0000
0010
0000
0100
0000
,  // measure 36
0001
1000
0100
0000
0010
0000
0001
0000
,  // measure 37
1000
0001
0100
0000
0001
0000
1000
0000
,  // measure 38
0001
0100
0010
1000
,  // measure 39
0001
1000
0100
0000
0010
0000
0100
0000
,  // measure 40
1000
0001
0100
0000
0001
0000
1000
0000
,  // measure 41
0010
1000
0001
0000
0100
0000
0010
0000
,  // measure 42
1000
0001
1000
0001
,  // measure 43
1000
0100
0000
0010
0000
0001
0000
1000
,  // measure 44
0000
0100
0000
0010
0000
0001
0000
1000
;

//---------------dance-single - ----------------
#NOTES:
     dance-single:
     Lisek:
     Easy:
     1:
     0.108,0.127,0.000,0.019,0.000: // measure 1
0000
0000
0000
0000
,  // measure 2
0000
0000
0000
0000
,  // measure 3
1000
0000
0001
0000
,  // measure 4
0100
0000
0010
0000
,  // measure 5
1000
0000
0100
0000
,  // measure 6
0010
0000
0001
0000
,  // measure 7
1000
0000
0001
0000
,  // measure 8
0100
0000
0010
0000
,  // measure 9
1000
0000
0001
0000
,  // measure 10
1000
0000
0000
0000
,  // measure 11
0001
0000
0010
0000
,  // measure 12
0001
0001
0001
0000
,  // measure 13
1000
0000
0010
0000
,  // measure 14
0100
0000
0000
0000
,  // measure 15
0001
0000
1000
0000
,  // measure 16
0010
0010
0010
0000
,  // measure 17
1000
0000
0001
0000
,  // measure 18
0100
0000
0000
0000
,  // measure 19
0001
0000
1000
0000
,  // measure 20
0100
0000
0010
0000
,  // measure 21
0001
0000
1000
0000
,  // measure 22
0001
0000
0000
0000
,  // measure 23
1000
0000
0010
0000
,  // measure 24
0100
0000
0010
0000
,  // measure 25
1000
0000
0001
0000
,  // measure 26
0010
0000
0000
0000
,  // measure 27
0001
0000
1000
0000
,  // measure 28
0010
0000
0100
0000
,  // measure 29
0010
0000
1000
0000
,  // measure 30
0002
0000
0000
0003
,  // measure 31
1000
0000
0100
0000
,  // measure 32
0010
0000
0100
0000
,  // measure 33
1000
0000
0001
0000
,  // measure 34
1000
0000
0000
0000
,  // measure 35
0001
0000
1000
0000
,  // measure 36
0001
0001
0001
0000
,  // measure 37
0100
0000
0010
0000
,  // measure 38
1000
0000
0000
0000
,  // measure 39
0010
0000
1000
0000
,  // measure 40
0001
0001
0001
0000
,  // measure 41
1000
0000
0100
0000
,  // measure 42
1000
0000
0000
0000
,  // measure 43
0000
0020
0000
0000
0000
0000
0000
0000
,  // measure 44
0000
0000
0000
0000
0000
0000
0000
0030
;

//---------------dance-single - ----------------
#NOTES:
     dance-single:
     Lisek:
     Beginner:
     1:
     0.059,0.079,0.000,0.000,0.000: // measure 1
0000
0000
0000
0000
,  // measure 2
0000
0000
0000
0000
,  // measure 3
1000
0000
0000
0000
,  // measure 4
0010
0000
0000
0000
,  // measure 5
0100
0000
0000
0000
,  // measure 6
0001
0000
0000
0000
,  // measure 7
1000
0000
0000
0000
,  // measure 8
0010
0000
0000
0000
,  // measure 9
0100
0000
0000
0000
,  // measure 10
0000
0000
0000
0000
,  // measure 11
0001
0000
0000
0000
,  // measure 12
1000
0000
0000
0000
,  // measure 13
0001
0000
1000
0000
,  // measure 14
0001
0000
0000
0000
,  // measure 15
1000
0000
0000
0000
,  // measure 16
0010
0000
0000
0000
,  // measure 17
1000
0000
0010
0000
,  // measure 18
1000
0000
0000
0000
,  // measure 19
0001
0000
0000
0000
,  // measure 20
0010
0000
0000
0000
,  // measure 21
0100
0000
0000
0000
,  // measure 22
1000
0000
0000
0000
,  // measure 23
0001
0000
0000
0000
,  // measure 24
1000
0000
0000
0000
,  // measure 25
0001
0000
0000
0000
,  // measure 26
0100
0000
0000
0000
,  // measure 27
0001
0000
0000
0000
,  // measure 28
1000
0000
0000
0000
,  // measure 29
0010
0000
0000
0000
,  // measure 30
1000
0000
0000
0000
,  // measure 31
0001
0000
0000
0000
,  // measure 32
0100
0000
0000
0000
,  // measure 33
0001
0000
0000
0000
,  // measure 34
1000
0000
0000
0000
,  // measure 35
0001
0000
0000
0000
,  // measure 36
1000
0000
0000
0000
,  // measure 37
0001
0000
1000
0000
,  // measure 38
0001
0000
0000
0000
,  // measure 39
0100
0000
0000
0000
,  // measure 40
0010
0000
0000
0000
,  // measure 41
0100
0000
0010
0000
,  // measure 42
0100
0000
0000
0000
;
