#TITLE:Disconnected;
#SUBTITLE:(Sanxion7 Remix);
#ARTIST:Sanxion7;
#TITLETRANSLIT:;
#SUBTITLETRANSLIT:;
#ARTISTTRANSLIT:;
#CREDIT:;
#BANNER:Disconnected Sanxion7 Remix.png;
#BACKGROUND:Disconnected Sanxion7 Remix-bg.png;
#LYRICSPATH:;
#CDTITLE:;
#MUSIC:Disconnected Sanxion7 Remix.mp3;
#OFFSET:-0.042;
#SAMPLESTART:17.200;
#SAMPLELENGTH:12.000;
#SELECTABLE:YES;
#BPMS:0.000=125.000,52.000=62.500,54.000=125.000,86.000=62.500,87.000=125.000,91.000=62.500,92.000=125.000,96.000=62.500,97.000=125.000,101.000=62.500,102.000=125.000,110.000=62.500,126.000=125.000;
#STOPS:87.000=0.960
,92.000=0.960
,97.000=0.960
,102.000=0.960
,192.000=0.480
,192.500=0.480
,193.000=0.480
,193.500=0.480
,194.000=0.480
;
#BGCHANGES:;

//---------------dance-single - ----------------
#NOTES:
     dance-single:
     :
     Easy:
     3:
     0.298,0.327,0.278,0.027,0.076: // measure 1
0000
0000
0000
0000
,  // measure 2
0000
0000
0000
0000
,  // measure 3
0000
0000
0000
0000
,  // measure 4
0000
0000
0000
0000
,  // measure 5
0000
0000
0000
0000
,  // measure 6
1001
0001
0100
0010
,  // measure 7
1100
1000
0001
0100
,  // measure 8
0110
0010
1000
0001
,  // measure 9
0101
0000
0001
0000
0000
1000
0000
0000
0010
0000
0000
0000
0110
0000
0000
0000
,  // measure 10
1000
0010
0100
0010
,  // measure 11
1000
0001
0100
0001
,  // measure 12
0010
0100
0010
0001
,  // measure 13
1000
0100
1000
0001
,  // measure 14
0020
0000
0000
0000
0130
1000
0001
0000
,  // measure 15
0100
0001
1000
0000
0010
1000
0001
0000
,  // measure 16
0010
0001
1000
0000
0010
0100
0001
0000
,  // measure 17
0010
0000
0001
0000
0100
0000
0000
0000
0000
0000
0010
0000
0000
1000
0000
0000
,  // measure 18
0110
0000
1001
0000
0010
0100
1000
0000
,  // measure 19
0010
0100
0001
0000
1000
0100
0010
0000
,  // measure 20
0100
1000
0001
0000
0100
0010
0100
0000
,  // measure 21
0001
0000
1000
0000
0001
0000
0000
0000
0000
0000
0100
0000
0000
0001
0000
0000
,  // measure 22
0110
0000
0000
0000
1001
0000
0000
0000
1000
0000
0000
1010
0000
0000
0000
0000
,  // measure 23
0000
0100
0000
0000
1001
0000
0000
0000
0010
0000
0000
0000
0100
0000
0000
0101
,  // measure 24
0000
0000
0000
0000
0000
0010
0000
0000
1100
0000
0000
0000
1010
0000
0000
0000
,  // measure 25
0100
0000
0000
0110
0000
0000
0000
0000
0000
1000
0000
0000
0011
0000
0000
0000
,  // measure 26
1010
0000
0000
0000
1000
0000
0000
1001
0000
0000
0000
0000
0000
0001
0000
0000
,  // measure 27
1001
0000
0000
0000
0000
0000
0000
0000
1000
0000
0010
0000
0000
0010
0000
0000
,  // measure 28
0010
0000
1000
0010
,  // measure 29
0100
0000
0001
1000
,  // measure 30
0010
1000
1001
0100
,  // measure 31
0010
0100
1000
0100
,  // measure 32
0001
0010
0100
1000
,  // measure 33
1001
0001
0100
0010
,  // measure 34
0110
1000
0001
1000
,  // measure 35
1001
0001
1000
0100
,  // measure 36
1100
1000
1001
0001
,  // measure 37
0011
1000
0100
0010
,  // measure 38
1010
0010
0001
0100
,  // measure 39
0110
0010
1000
0100
,  // measure 40
0010
0000
0001
0000
1001
0000
1000
0100
,  // measure 41
1000
0000
0000
1000
0000
0000
0000
0000
0001
0000
0100
0000
0001
0000
0010
0000
,  // measure 42
0100
0000
0000
0100
0000
0000
0000
0000
1001
0000
0000
0000
0100
0000
0001
0000
,  // measure 43
0010
0000
0000
0010
0000
0000
0000
0000
0000
0000
0100
0000
0000
1000
0000
0000
,  // measure 44
0001
0000
1001
0000
1000
0010
0100
0000
,  // measure 45
0010
1000
0100
0000
0010
0001
0100
1000
,  // measure 46
0100
0001
0010
0000
0100
1000
0001
0000
,  // measure 47
1000
0001
0010
0000
0100
1000
0010
0001
,  // measure 48
0010
0000
1000
0000
0100
0000
0010
0000
0001
0000
1000
0000
0000
2000
0000
0000
,  // measure 49
0020
0000
0000
0000
0000
3030
0000
0000
;

//---------------dance-single - ----------------
#NOTES:
     dance-single:
     :
     Medium:
     6:
     0.389,0.414,0.161,0.018,0.148:
0000
0000
0000
0000
,
0000
0000
0000
0000
,
0000
0000
0000
0000
,
0000
0000
0000
0000
,
0000
0000
0000
0000
,
1001
0000
0001
0100
0010
0000
0100
0001
,
1000
0000
0100
0010
1000
0000
0010
0001
,
0100
0000
0010
0100
1000
0000
0100
0001
,
1000
0000
0001
0000
0000
0001
0010
0100
1000
0000
0000
0000
1001
0000
0000
0000
,
0110
0000
0000
0000
0001
0000
0010
0000
0001
0000
0000
0100
0000
0000
0000
0000
,
1000
0000
0100
0000
0001
0000
0010
0000
0100
0000
0000
0001
0000
0000
0000
0000
,
0100
0000
1000
0000
0010
0000
0100
0000
0001
0000
0000
0001
0000
0000
0000
0000
,
0000
0000
0010
0000
0000
0100
1000
0001
0010
0000
0000
0000
0110
0000
0000
0000
,
2000
0000
0000
0000
3001
0100
0001
0000
,
1000
0000
0010
0000
0000
0010
0000
0000
1000
0000
0010
0000
1000
0000
0000
0000
,
0100
0000
0010
0000
0000
0010
0000
0000
0100
0000
1000
0000
0001
0000
0000
0000
,
1000
0000
0100
0000
0000
0100
0000
0000
1000
0000
0100
0000
0000
0100
1000
0100
,
1000
0000
1001
0000
0110
1000
0100
0010
,
0100
0000
0001
0000
0000
0001
0000
0000
0100
0000
1000
0000
0010
0000
0100
0000
,
1000
0000
0100
0000
0000
0100
0000
0000
0001
0000
0100
0000
0010
0000
0100
0000
,
0001
0000
1000
0000
0000
1000
0000
0000
0000
0000
0001
0000
0000
1000
0010
1000
,
0010
0000
0000
0000
0000
0000
0000
0000
0110
0000
0000
0000
0000
0000
0000
0000
1001
0000
0000
1000
0000
0000
0001
0000
0000
0000
0000
0000
1000
0000
0000
0000
,
0000
0000
0001
0000
0010
0000
0100
0000
1000
0000
0000
0000
0000
0000
0000
0000
0110
0000
0000
0000
0000
0000
0000
0000
1010
0000
0000
0010
0000
0000
1000
0000
,
0000
0000
0100
0000
0000
1000
0010
0100
0001
0000
0000
0000
1001
0000
0000
0000
,
0110
0000
0000
0010
0000
0000
0100
0000
0000
0000
0000
0000
0001
0000
0000
0000
1000
0000
0100
0000
0001
0000
0100
0000
0000
0000
0000
0000
0000
0000
0000
0000
,
1100
0000
0000
0000
0000
0000
0000
0000
0011
0000
0000
0001
0000
0000
0010
0000
0000
0000
0000
0000
1000
0000
0000
0000
0100
0000
0000
0000
0010
0000
0000
0000
,
0001
0000
1000
0000
0010
0000
0100
0000
0001
0000
1000
0000
0000
0010
0000
0000
,
0100
0000
0000
0000
1001
1000
0010
0100
,
0010
0000
0000
0000
1000
0001
0010
0100
,
1000
0000
0010
0000
0110
1000
0100
0001
,
0100
0000
1000
0010
0100
1000
0100
0001
,
0010
1000
0010
0001
1000
0010
0100
0000
,
0001
1000
0001
0000
0010
0100
0010
1000
,
0010
0001
0010
0000
0100
0010
1000
0010
,
0001
0010
1000
0010
0100
0000
0000
0000
,
1001
0000
0000
0000
0110
1000
0001
0010
,
0001
1000
0100
1000
0010
0000
0000
0000
,
0010
0000
1000
0001
0100
1000
0100
0001
,
0010
1000
0010
0001
0100
0000
0000
0000
,
0001
1000
0001
1000
0010
1000
0100
1000
,
0010
0100
0001
0100
0010
1000
0010
0100
,
0001
0010
0100
1000
0001
0100
0010
0001
,
0010
1000
0100
0001
0100
1000
0010
0100
,
1000
0100
0001
0010
0100
0010
0001
0100
,
0010
0100
0001
1000
0010
1000
0001
0100
,
0010
0100
1000
0100
0010
0001
0010
1000
,
0100
1000
0010
0100
0010
1000
0001
1000
,
0100
0000
0010
0000
0001
0000
1000
0000
0010
0000
0100
0000
0000
0001
0000
0000
,
2000
0000
0000
0000
0000
3000
0000
0000
;

//---------------dance-single - ----------------
#NOTES:
     dance-single:
     :
     Hard:
     8:
     0.475,0.523,0.143,0.063,0.493:
0000
0000
0000
0000
,
0000
0000
0000
0000
,
0000
0000
0000
0000
,
0000
0000
0000
0000
,
0000
0000
0000
0000
,
1001
0000
0000
0000
1000
0100
0000
0000
0100
0001
0000
0000
0100
1000
0000
0000
,
0010
0000
0000
0000
0100
0010
0000
0000
1000
0010
0000
0000
0100
0001
0000
0000
,
1000
0000
0000
0000
0100
0010
0000
0000
0100
1000
0000
0000
0001
0100
0000
0000
,
0000
0010
0000
0000
0000
1000
0100
0010
0001
0000
0000
0000
0110
0000
0000
0000
,
1000
0000
0100
1000
0000
0010
0000
0100
0001
0000
0000
0010
0000
0000
0100
1000
,
0010
0000
0100
0001
0000
0010
0000
0100
1000
0000
0000
0010
0000
0000
0100
0001
,
1000
0000
0100
0010
0000
0100
0000
1000
0001
0000
0000
0100
0000
0000
0001
0010
,
0100
0000
0010
0000
0100
1000
0100
0010
0000
0000
0100
1000
0001
0000
0000
0000
,
2000
0000
0000
0000
0000
0000
0000
0000
3001
0000
0100
0001
0100
1000
0000
0000
,
1000
0100
0010
1000
0000
0001
0000
0000
1000
0000
0010
0001
0000
0010
0000
0000
,
0100
0000
0001
1000
0000
0010
0000
0000
0100
0001
0010
1000
0010
0100
1000
0000
,
0001
0000
0100
0010
0000
0100
0000
0000
0000
0000
0001
0000
0000
1000
0100
0010
,
0001
0000
0000
0000
0110
0000
0000
0000
1000
0100
1000
0100
0010
0000
1000
0000
,
0010
0000
0000
0001
0100
0000
0010
0000
1000
0001
1000
0001
0100
0000
0010
0000
,
0100
0000
0000
0001
1000
0000
0100
0000
0010
0001
0010
0001
0100
0000
1000
0000
,
0100
0000
0010
1000
0000
0001
0000
0000
0000
0000
0010
0000
0000
0100
1000
0001
,
0010
0000
0000
0000
0000
0000
0000
0000
1001
0000
0000
0000
0000
0000
0000
0000
0102
0000
0000
0100
0000
0000
0100
0000
0000
0003
0000
0000
0110
0000
0000
0000
,
0000
0000
0100
0000
1000
0000
0100
0000
0001
0000
0000
0000
0000
0000
0000
0000
0100
0000
0001
0000
1000
0000
0100
0000
0020
0000
0000
0001
0000
0000
0001
0000
,
0000
0030
0000
0000
0101
0000
0000
0000
0000
0000
0001
0000
0010
0000
1000
0000
0010
0000
0000
0000
0000
0000
0000
0000
0001
0000
0100
0000
1000
0000
0100
0000
,
0002
0000
0000
0010
0000
0000
1000
0000
0000
0003
0000
0000
1001
0000
0000
0000
0000
0000
1000
0000
0100
0000
0001
0000
0100
0000
0000
0000
0000
0000
0000
0000
,
1000
0000
0010
0000
0100
0000
1000
0000
0200
0000
0000
0010
0000
0000
0001
0000
0300
0000
0000
0000
0110
0000
0000
0000
0000
0000
1000
0000
0001
0000
1000
0000
,
0001
0000
0000
0000
0100
0010
1000
0000
0100
0000
1000
0000
0000
0001
0000
0000
,
0100
0000
0000
0000
1001
1000
1000
0001
,
0001
0000
0000
0000
0000
0000
1000
0001
0100
0000
0010
0000
0010
0000
1000
0000
,
1000
0000
0100
0000
0110
0010
0010
0100
,
0100
0000
0000
0000
1000
0000
0001
0100
0010
0000
0100
0000
0100
0000
0001
0000
,
0001
0000
0000
0000
1000
0100
0001
0100
1000
0000
0010
0000
0100
0000
1000
0000
,
0100
0001
0100
0010
1000
0000
0000
0000
,
0000
0000
0100
0100
0100
0010
0100
1000
,
0010
0100
1000
0100
0001
0010
1000
0000
,
0110
0000
0000
0000
1001
0000
0100
0010
,
1000
0100
0010
1000
0010
0000
0000
0000
,
0001
0000
1000
1000
1000
0001
0100
0001
,
1000
0100
1000
0010
0100
0100
0001
0001
,
1000
0000
1000
0000
0010
0000
0010
0000
0110
0000
1000
0001
1000
0000
0010
0000
,
0100
0000
0001
0010
0001
0000
1000
0100
1000
0000
0001
0010
0001
0000
0100
0000
,
1000
0000
0100
0001
0100
0000
0010
1000
0010
0000
0100
0010
0100
0000
0001
0000
,
0010
0000
0100
0010
0100
0000
0010
0100
0010
0000
0100
0000
0000
1000
0001
1000
,
0001
0000
0000
0000
0100
0010
1000
0000
1001
0000
0001
0000
0100
0000
0010
0000
,
0100
0010
0000
1000
0000
0100
0010
0001
1000
0000
0100
0000
1000
0000
0100
0000
,
0001
0100
0000
1000
0000
0010
0100
0001
1000
0000
0010
0000
1000
0000
0010
0000
,
0100
1000
0000
0100
0000
0010
1000
0000
0100
0000
0010
0000
1000
0000
0010
0000
,
0001
0000
1000
0000
0100
0000
0001
0000
0000
0000
1000
0000
0000
0010
0000
0000
,
2002
0000
0000
0000
0000
3003
0000
0000
;
