#TITLE:[Low Speed] - Come Clean;
#SUBTITLE:;
#ARTIST:NM featuring Susan Z;
#TITLETRANSLIT:;
#SUBTITLETRANSLIT:;
#ARTISTTRANSLIT:;
#CREDIT:;
#BANNER:COME CLEAN.png;
#BACKGROUND:COME CLEAN-bg.png;
#LYRICSPATH:;
#CDTITLE:./CDTITLES/Dance Dance Revolution SuperNOVA.png;
#MUSIC:COME CLEAN.ogg;
#OFFSET:0.020;
#SAMPLESTART:41.240;
#SAMPLELENGTH:15.000;
#SELECTABLE:YES;
#DISPLAYBPM:108.000;
#BPMS:0.000=108.434,4.000=108.411,156.000=55.591,156.250=42.371,156.500=30.571,156.750=21.651,156.875=7.291,157.000=114.991;
#STOPS:71.500=2.260
,142.500=0.540
,143.000=0.300
,143.500=0.240
,144.500=0.540
,145.000=0.600
,146.500=0.540
,147.000=0.300
,147.500=0.220
,148.500=0.600
,149.000=0.540
,156.938=1.300
;
#BGCHANGES:;

//---------------dance-single - ----------------
#NOTES:
     dance-single:
     :
     Hard:
     9:
     0.484,0.588,0.379,0.360,0.205: // measure 1
0000
0000
0000
0000
,  // measure 2
1100
0010
0010
0000
,  // measure 3
0001
1000
0001
0000
,  // measure 4
1000
0000
1000
0100
1000
0100
1000
0010
,  // measure 5
0000
0000
0010
0100
0010
0001
0010
1000
,  // measure 6
0011
0000
0001
0010
1000
0010
0001
1000
,  // measure 7
0000
1000
0100
0001
0100
1000
0010
0001
,  // measure 8
0000
0000
1000
0100
1000
0100
0001
0100
,  // measure 9
0000
0000
0001
0010
0001
0010
1000
0020
,  // measure 10
0002
0030
2000
0000
3020
0000
0230
0000
,  // measure 11
2323
0032
0203
0302
,  // measure 12
3223
0302
0203
2300
,  // measure 13
3232
2003
3002
0023
,  // measure 14
1331
0100
0010
0000
1001
0100
0010
0000
,  // measure 15
1001
0010
0100
0000
1001
0010
0100
0010
,  // measure 16
0110
0001
1000
0000
0110
0001
1000
0000
,  // measure 17
1000
0010
0001
0010
1000
0010
0001
0010
,  // measure 18
1000
0100
0001
0100
1000
0100
0001
0100
1000
0100
1000
0100
1000
0001
1000
0000
,  // measure 19
1000
0000
0100
0000
0001
0000
0000
0100
0001
0000
0100
0000
1000
0000
0000
1000
,  // measure 20
0100
1000
0100
0000
0001
0000
0000
0001
0010
0001
0010
0000
1000
0000
0010
0000
,  // measure 21
0001
0000
0010
0000
1000
0000
0000
1000
0010
0000
0001
0000
0010
0000
0000
1000
,  // measure 22
0100
0000
0010
0000
0100
0000
0001
0000
0010
0100
1000
0100
1000
0100
1000
0100
,  // measure 23
2000
0000
3100
0000
1001
0000
0000
0000
0001
0000
0010
0000
1001
0000
0000
1000
,  // measure 24
0100
0000
0010
0000
0001
0000
0010
0000
0001
0000
0100
0000
0010
0000
0000
1000
,  // measure 25
0100
1000
0100
0000
0001
0000
0000
0010
0001
0010
0001
0000
1000
0000
0000
1000
,  // measure 26
0100
1000
0100
0000
0010
0001
0010
0000
1000
0001
2000
0000
0010
0000
3000
0000
,  // measure 27
0200
0000
0001
0300
0020
0000
1000
0030
,  // measure 28
0002
0000
0100
0003
0001
0100
1000
0000
,  // measure 29
1010
0000
0101
0000
1000
0100
0001
0000
,  // measure 30
0011
0011
1010
0000
0001
0010
1000
0000
,  // measure 31
1010
0000
0011
0000
1000
0010
0001
0010
,  // measure 32
1100
0000
1100
0000
1010
0000
0000
0000
2000
0000
0000
0000
0000
0000
0000
0001
,  // measure 33
3020
0000
0000
0000
0000
0000
0000
1000
0130
0000
0000
0010
0100
0000
0000
0010
,  // measure 34
0001
0000
0000
1000
0001
0000
0000
0100
1000
0000
0000
0100
0010
0000
0000
0100
,  // measure 35
0001
0000
0000
0001
1000
0000
0000
1000
0100
0000
1000
0000
0100
0000
1000
0000
,  // measure 36
0100
0000
0001
0000
0100
0000
1000
0000
0120
0030
0210
0300
1002
0003
1200
0300
,  // measure 37
0021
0030
0012
0003
0210
0300
1010
0000
1100
0000
1100
0000
0011
0000
1100
0000
,  // measure 38
1001
1001
0110
0000
0100
0001
0100
0010
,  // measure 39
1000
0000
0001
0000
0100
0000
0001
0000
1000
0001
1000
0001
1000
0001
1000
0002
,  // measure 40
2000
3003
0000
0000
;

//---------------dance-single - ----------------
#NOTES:
     dance-single:
     :
     Medium:
     6:
     0.379,0.372,0.190,0.090,0.055:
0000
0000
0000
0000
,
1000
0000
0100
0000
1000
0000
0001
0010
,
0001
1000
0100
1001
,
0100
0000
1000
0100
0001
0000
1000
0000
,
0100
0101
0001
0010
,
1000
0100
1000
0100
1000
0000
0001
0000
,
1100
0000
1000
0100
1000
0010
1000
0001
,
0000
1000
0001
1000
0010
1000
0100
1000
,
0000
0000
0001
0010
1000
0010
0001
1000
,
0200
0000
0001
0000
1300
0000
0010
0100
,
2000
0000
0100
0000
3001
0000
1000
0010
,
0002
0000
0010
0000
1003
0000
0010
0100
,
0020
1000
0031
1001
,
1000
0010
0001
0000
0001
0010
1000
0000
,
1000
0100
0001
0100
0001
0100
1000
0000
,
1000
0100
0001
0000
0001
0100
1000
0000
,
1000
0010
0001
0010
1000
0010
0001
0000
,
1000
0000
0000
0000
0000
0000
0000
0000
0001
0000
0000
0000
0000
0000
0000
0000
1000
0000
0000
0000
0000
0000
0000
0000
0001
0000
0000
0000
0000
0000
0000
0000
1000
0000
0000
0000
0000
0000
0000
0000
0001
0000
0000
0000
0000
0000
0000
0000
1000
0000
0000
0000
0001
0000
0000
0000
2000
3000
0000
0000
0000
0000
0000
0000
,
0110
0001
1100
0010
,
0001
0010
1000
0010
0001
0000
1100
0000
,
0011
0100
0011
1000
,
0001
0010
1000
0010
0001
0100
0100
0000
,
1010
0000
0000
0100
1000
0000
0000
0000
0011
0000
0000
1000
0001
0000
0100
0000
,
1000
0000
0000
0010
0100
0000
0000
0000
0011
0000
0000
1000
0001
0000
1000
0000
,
0001
0001
0001
0000
1000
1000
1000
0000
,
0001
0010
0100
1000
0200
0000
0010
0300
,
0200
0000
0010
0300
0100
0010
0100
0010
,
0100
0000
0010
0000
0100
0000
0010
0000
1000
0000
0000
0001
1000
0000
0100
0000
,
1000
0000
0100
0000
0010
0000
0100
0000
1000
0000
0000
1000
0001
0000
1000
0000
,
0001
0000
0100
0000
0001
0000
0010
0000
1000
0000
0000
0010
0100
0000
0010
0000
,
1000
0100
0010
0001
1000
0000
1010
0000
,
0101
0000
0000
0000
1001
0000
0000
0000
1000
0000
0000
0001
1000
0000
0100
0000
,
1000
0000
0100
0000
0010
0000
0100
0000
1000
0000
0000
1000
0001
0000
1000
0000
,
0001
0000
0100
0000
0001
0000
0010
0000
1000
0000
0000
0010
0100
0000
0010
0000
,
1000
0100
0010
0001
1000
0000
1010
0000
,
0101
0000
1001
0000
0001
1000
0001
1000
,
0001
1000
0001
1000
0001
1000
0001
1000
,
0001
1000
0001
0000
1000
0100
0010
0001
,
1000
0100
0010
0001
1000
0100
0001
0000
,
2002
3003
0000
0000
;

//---------------dance-single - ----------------
#NOTES:
     dance-single:
     :
     Easy:
     4:
     0.284,0.314,0.280,0.100,0.000:
0000
0000
0000
0000
,
0000
0000
0000
0000
,
0000
0000
0000
0000
,
1000
0000
0100
0000
1000
0000
0010
0010
,
0000
0001
0100
0001
,
1001
0000
0001
0000
0010
0000
1000
1000
,
0000
1000
0010
0100
,
0011
0000
0001
0000
1000
0000
0100
0100
,
0000
1000
0010
0100
,
0001
0110
1000
0110
,
0101
0011
1100
0110
,
0001
1000
0001
0000
0001
1000
0100
0000
,
0001
0010
0100
0000
0100
0010
0001
0000
,
1000
0010
0000
0010
1000
0000
1000
0001
,
0000
0001
1000
0000
1100
0000
1100
0000
,
1000
0100
1000
0000
0100
1000
0100
0000
,
1000
1000
0100
0010
,
2002
0000
0000
0000
0000
0000
0000
0000
0000
0000
0000
0000
0000
0000
0000
3003
,
0110
1001
0110
1001
,
0001
1000
0001
0000
1000
0001
1000
0000
,
0110
1001
0110
1001
,
0010
1000
0010
0000
0010
1000
0010
1000
,
0001
0010
1000
0010
,
0001
0100
0010
0000
1000
0000
0010
0000
,
1000
0001
1000
0000
0001
0000
0100
0000
,
0010
0000
1000
0100
1000
0000
0010
0000
,
1100
0010
1100
0010
,
1100
0010
2001
0001
,
0001
3001
1002
1000
,
1000
1003
0210
0010
,
0010
0310
0120
0100
,
0100
0000
1030
0000
0001
1000
0001
1000
,
0001
0000
1000
0000
0001
0010
1000
0000
,
1000
0010
0001
0000
1000
0001
1000
0001
,
1000
0000
0001
0000
1000
0100
0001
0000
,
0001
0100
1000
0000
2002
0000
0000
0000
,
0000
0000
0000
0000
,
0000
0000
3003
0000
1000
0001
0100
0000
,
0001
0100
0001
0100
0001
0000
0202
0000
,
0000
0303
0000
0000
;
