#TITLE:Be Okay;
#SUBTITLE:;
#ARTIST:Oh Honey;
#TITLETRANSLIT:;
#SUBTITLETRANSLIT:;
#ARTISTTRANSLIT:;
#GENRE:;
#CREDIT:;
#BANNER:[Low Speed] - Be Okay.png;
#BACKGROUND:[Low Speed] - Be Okay-bg.png;
#LYRICSPATH:;
#CDTITLE:;
#MUSIC:[Low Speed] - Be Okay.ogg;
#OFFSET:-0.227000;
#SAMPLESTART:53.549999;
#SAMPLELENGTH:15.000000;
#SELECTABLE:YES;
#DISPLAYBPM:58.500000:117.000000;
#BPMS:0.000000=117.000000
,80.000000=58.500000
,89.750000=117.000000
,179.000000=234.000000
,187.000000=117.000000
;
#STOPS:89.750000=1.200000
;
#BGCHANGES:;
#KEYSOUNDS:;
#ATTACKS:;

//---------------dance-single - ----------------
#NOTES:
     dance-single:
     :
     Hard:
     8:
     0.391893,0.387804,0.077493,0.410713,0.197607,291.000000,10.000000,53.000000,0.000000,0.000000,0.000000,0.391893,0.387804,0.077493,0.410713,0.197607,291.000000,10.000000,53.000000,0.000000,0.000000,0.000000:
// measure 0
0000
0000
0000
0000
,  // measure 1
0000
0000
0000
0000
,  // measure 2
0000
0000
0000
0000
,  // measure 3
0000
0000
0000
0000
,  // measure 4
2000
3020
0200
0330
,  // measure 5
0002
0203
0020
0330
,  // measure 6
0000
0000
1000
0000
0000
0100
0000
0000
0020
0000
0000
0000
0000
0000
0000
0000
,  // measure 7
0000
0000
0130
0000
0100
0000
0000
0000
0001
0000
0000
0010
0000
0000
1000
0000
,  // measure 8
0200
0000
0000
0000
0000
0000
0310
0100
0020
0000
0000
0000
0000
0000
0000
0000
,  // measure 9
0031
0000
0010
0000
0100
0000
1000
0000
0001
0000
0000
0010
0000
0000
0100
0000
,  // measure 10
0200
0310
0020
0130
,  // measure 11
0002
0103
2000
3100
,  // measure 12
0020
2030
0002
3003
,  // measure 13
0200
0302
2000
3003
,  // measure 14
0000
0000
0100
0000
0000
0010
0000
0000
0200
0000
0000
0000
0000
0000
0000
0000
,  // measure 15
0000
0000
0301
0000
1000
0000
0000
0000
0100
0000
0000
0010
0000
0000
0010
0000
,  // measure 16
0200
0000
0000
0000
0000
0000
0310
0100
0020
0000
0000
0000
0000
0000
0030
0000
,  // measure 17
0100
0000
0010
0000
0001
0000
0100
0000
1000
0000
0000
0100
0000
0000
0010
0000
,  // measure 18
0002
1000
0100
0013
,  // measure 19
2000
3001
0002
1003
,  // measure 20
2000
0000
3002
0000
0013
0100
1000
0100
,  // measure 21
0020
0000
0000
0000
0000
0000
0000
0000
0230
0000
0000
0000
0000
0000
0000
0000
0310
0000
0000
0100
0000
0000
0001
0000
1000
0000
0001
0000
0000
0000
0000
0000
,  // measure 22
0100
0000
0000
1000
0000
0000
0100
0000
2000
0000
0000
0000
0000
0000
0002
3003
0000
0000
0000
0000
0000
0000
0000
0000
0110
0000
0000
0000
0000
0000
0000
0000
,  // measure 23
1000
0000
0100
0010
0000
0100
0010
0000
1000
0000
0001
0000
0010
0000
0000
0000
,  // measure 24
1000
0000
0100
0010
0000
0001
0010
0000
0100
0000
0010
0000
0100
0000
0000
0000
,  // measure 25
2000
0000
0000
3002
0000
0000
1003
0000
0001
0000
0000
0000
1001
0000
0000
0000
,  // measure 26
0020
0000
0000
0230
0000
0000
0310
0000
0100
0000
0000
0000
0110
0000
0000
0000
,  // measure 27
0001
0000
0100
0010
0000
0100
0010
0000
1000
0000
0100
0000
0010
0000
0000
0000
,  // measure 28
0001
0000
0010
0100
0000
1000
0100
0000
0010
0000
0001
0000
0100
0000
0000
0000
,  // measure 29
0200
0000
0000
0320
0000
0000
0130
0000
0010
0000
0000
0000
0110
0000
0000
0000
,  // measure 30
2000
0000
0000
3002
0000
0000
1003
0000
0001
0000
0000
0000
1001
0000
0000
0000
,  // measure 31
1000
0100
0010
0001
0100
0010
1000
0100
,  // measure 32
0010
0000
0001
0000
0100
0000
0010
0000
1000
0000
0000
0100
0000
0000
0010
0000
,  // measure 33
0000
0000
0001
0000
0010
0000
0100
0000
1000
0000
0000
1000
0000
0000
1000
0000
,  // measure 34
0000
0000
0100
0000
0010
0000
0001
0000
0010
0000
0000
0010
0000
0000
0010
0000
,  // measure 35
0000
0000
0100
0000
0010
0000
0100
0000
0010
0000
0000
0010
0000
0000
0010
0000
,  // measure 36
0000
0000
0010
0000
0100
0000
0010
0000
0100
0000
0000
0100
0000
0000
0100
0000
,  // measure 37
1000
0000
0000
0000
0010
0000
0000
0000
0100
0000
0000
0001
0000
0000
0010
0000
,  // measure 38
0000
0000
0010
0000
0100
0000
0010
0000
0100
0000
0000
0100
0000
0000
0100
0000
,  // measure 39
0000
0000
0100
0000
0010
0000
0100
0000
0010
0000
0000
0010
0000
0000
0010
0000
,  // measure 40
1000
0000
0000
0000
0100
0000
0000
0000
0010
0000
0000
0001
0000
0000
1000
0000
,  // measure 41
0200
0000
0320
0000
,  // measure 42
0032
0000
2003
0000
,  // measure 43
3001
0000
0000
0100
0000
0000
0100
0000
0020
0000
0000
0000
0130
0000
0000
0000
,  // measure 44
0001
0000
0000
0010
0000
0000
0010
0000
0200
0000
0000
0000
0310
0000
0000
0000
,  // measure 45
0000
0000
0000
0000
,  // measure 46
0000
0000
0000
0110
,  // measure 47
0001
0000
0010
0100
0000
1000
0100
0000
0010
0000
0100
0000
0010
0000
0000
0000
,  // measure 48
0100
0000
0010
1000
0000
0001
0100
0000
0010
0000
1000
0000
0001
0000
0000
0000
,  // measure 49
2000
0000
0000
3200
0000
0000
0310
0000
0001
0000
0000
0000
0011
0000
0000
0000
,  // measure 50
0002
0000
0000
0203
0000
0000
0310
0000
1000
0000
0000
0000
1010
0000
0000
0000
,  // measure 51
1000
0000
0100
0010
0000
0001
0010
0000
0100
0000
0100
0000
0100
0000
0000
0000
,  // measure 52
0001
0000
0010
0100
0000
0000
1000
0000
0010
0000
0010
0000
0010
0000
0000
0000
,  // measure 53
0002
0000
0000
0023
0000
0000
0130
0000
1000
0000
0000
0000
1100
0000
0000
0000
,  // measure 54
2000
0000
0000
3020
0000
0000
0130
0000
0001
0000
0000
0000
0101
0000
0000
0000
,  // measure 55
0100
0010
1000
0001
0010
0100
1000
0100
,  // measure 56
0010
0000
0001
0000
0010
0000
0100
0000
0010
0000
0000
1000
0000
0000
0001
0000
,  // measure 57
0000
0000
0010
0000
0100
0000
1000
0000
0010
0000
0000
0100
0000
0000
0010
0000
,  // measure 58
0000
0000
0100
0000
0010
0000
0100
0000
0001
0000
0000
0100
0000
0000
1000
0000
;

//---------------dance-single - ----------------
#NOTES:
     dance-single:
     :
     Medium:
     6:
     0.306651,0.319368,0.224730,0.216980,0.034872,220.000000,29.000000,28.000000,0.000000,0.000000,0.000000,0.306651,0.319368,0.224730,0.216980,0.034872,220.000000,29.000000,28.000000,0.000000,0.000000,0.000000:
// measure 0
0000
0000
0000
0000
,  // measure 1
0000
0000
0000
0000
,  // measure 2
0000
0000
0000
0000
,  // measure 3
0000
0000
0000
0000
,  // measure 4
1000
0001
1000
0000
,  // measure 5
0001
1000
0001
0000
,  // measure 6
0100
0010
0100
0000
,  // measure 7
0100
0010
0100
0001
,  // measure 8
2000
0000
0000
0001
3001
0000
0000
0000
,  // measure 9
1000
0100
0010
0000
0001
0000
0010
0000
,  // measure 10
0200
1300
0020
0031
,  // measure 11
0200
0310
0020
0130
,  // measure 12
1000
0100
1100
0000
,  // measure 13
0001
0010
0011
0000
,  // measure 14
1000
0010
0100
0001
,  // measure 15
0010
0100
1000
0100
,  // measure 16
0002
0000
0000
1000
1003
0000
0000
0000
,  // measure 17
0100
0010
0100
0000
0001
0000
0100
0010
,  // measure 18
0010
1000
0100
0010
,  // measure 19
0002
0010
0100
0013
,  // measure 20
2000
0000
3002
0000
,  // measure 21
0203
0000
0020
0300
1000
0000
0130
0000
,  // measure 22
0100
0000
0000
0000
0002
0000
0000
2000
3003
0000
0000
0000
0110
0000
0000
0000
,  // measure 23
1001
0000
1100
0000
0001
1000
0001
0000
,  // measure 24
1001
0000
0101
0000
1000
0001
1000
0000
,  // measure 25
0200
0310
0020
0130
,  // measure 26
2000
3001
0002
1003
,  // measure 27
1100
0000
1010
0000
1000
0010
0100
0000
,  // measure 28
0011
0000
0101
0000
0001
0010
0100
0000
,  // measure 29
2000
3100
0020
0031
,  // measure 30
0002
0013
2000
3100
,  // measure 31
0010
0100
1000
0100
,  // measure 32
0010
0001
0010
0010
,  // measure 33
0000
0000
0010
0000
0100
0000
0010
0000
0100
0000
0000
0100
0000
0000
0100
0000
,  // measure 34
0000
0000
1000
0000
0001
0000
1000
0000
0001
0000
0000
0001
0000
0000
0001
0000
,  // measure 35
0000
0000
0010
0000
0100
0000
0010
0000
0100
0000
0000
0100
0000
0000
0100
0000
,  // measure 36
0000
0000
1000
0000
0001
0000
1000
0000
0001
0000
0000
0001
0000
0000
0001
0000
,  // measure 37
2000
0000
3002
0000
,  // measure 38
0003
0000
1000
0000
0100
0000
0010
0000
0001
0000
0000
0001
0000
0000
0001
0000
,  // measure 39
0000
0000
0001
0000
0010
0000
0100
0000
1000
0000
0000
1000
0000
0000
1000
0000
,  // measure 40
0200
0000
0320
0000
,  // measure 41
0130
0000
0000
0000
,  // measure 42
0100
0000
0000
0000
,  // measure 43
1000
1000
0001
0001
,  // measure 44
0010
0010
0100
0200
,  // measure 45
0000
0000
0000
0000
,  // measure 46
0000
0000
0000
0300
,  // measure 47
1001
0000
0110
0000
1000
0100
0001
0000
,  // measure 48
0110
0000
1001
0000
0001
0010
1000
0000
,  // measure 49
1000
1010
0010
0110
,  // measure 50
0100
0101
0001
0011
,  // measure 51
1100
0000
0110
0000
1000
0010
0100
0000
,  // measure 52
0011
0000
0110
0000
0001
0100
0010
0000
,  // measure 53
0011
0001
0101
0100
,  // measure 54
0110
0010
1010
1000
,  // measure 55
2100
0010
0100
3010
,  // measure 56
0012
0010
0100
0013
,  // measure 57
0000
0000
0010
0000
0001
0000
0010
0000
0001
0000
0000
0010
0000
0000
0001
0000
,  // measure 58
0000
0000
0100
0000
0010
0000
0100
0000
0010
0000
0000
0100
0000
0000
0010
0000
;

//---------------dance-single - ----------------
#NOTES:
     dance-single:
     :
     Easy:
     3:
     0.245763,0.273163,0.092992,0.263476,0.000000,176.000000,12.000000,34.000000,0.000000,0.000000,0.000000,0.245763,0.273163,0.092992,0.263476,0.000000,176.000000,12.000000,34.000000,0.000000,0.000000,0.000000:
// measure 0
0000
0000
0000
0000
,  // measure 1
0000
0000
0000
0000
,  // measure 2
0000
0000
0000
0000
,  // measure 3
0000
0000
0000
0000
,  // measure 4
2000
0000
3001
0000
,  // measure 5
0002
0000
1003
0000
,  // measure 6
0200
0000
0310
0000
,  // measure 7
0020
0000
0130
0000
,  // measure 8
2000
0000
0002
3003
,  // measure 9
0100
0010
1000
0001
,  // measure 10
0010
0200
1000
0310
,  // measure 11
0020
0001
0130
0100
,  // measure 12
0020
0000
0130
0000
,  // measure 13
0200
0000
0310
0000
,  // measure 14
1000
0010
0100
0001
,  // measure 15
0010
0010
0100
0100
,  // measure 16
0002
0000
2000
3003
,  // measure 17
1000
0100
1000
0100
,  // measure 18
0010
0001
0010
0001
,  // measure 19
0010
0100
0001
1000
,  // measure 20
0100
0000
0010
0000
,  // measure 21
1000
0001
0100
0010
,  // measure 22
0100
0001
0000
0110
,  // measure 23
1000
0100
0010
0010
,  // measure 24
0001
0010
0100
0100
,  // measure 25
2000
3100
0002
0103
,  // measure 26
2000
3100
0002
0103
,  // measure 27
0001
0100
0010
0010
,  // measure 28
1000
0100
0010
0010
,  // measure 29
0002
0013
2000
3010
,  // measure 30
0002
0013
2000
3010
,  // measure 31
1001
1000
1001
0001
,  // measure 32
0101
0100
0110
0010
,  // measure 33
1010
1100
0010
0010
,  // measure 34
0011
0101
0010
0010
,  // measure 35
0200
0000
0310
0000
,  // measure 36
0020
0000
0130
0000
,  // measure 37
2001
0010
0100
3010
,  // measure 38
0002
0000
1003
0000
,  // measure 39
2000
0000
3001
0000
,  // measure 40
1002
0100
0010
0103
,  // measure 41
1000
0000
0000
0000
,  // measure 42
1000
0000
0000
0000
,  // measure 43
0100
0000
0100
0000
,  // measure 44
0010
0000
0010
0110
,  // measure 45
0000
0000
0000
0000
,  // measure 46
0000
0000
0000
0000
,  // measure 47
1000
0100
0010
0010
,  // measure 48
0001
1000
0100
0100
,  // measure 49
0002
1003
2000
3001
,  // measure 50
0002
0103
2000
3100
,  // measure 51
0010
0010
1000
0001
,  // measure 52
0100
0100
0001
1000
,  // measure 53
0020
0031
0200
1300
,  // measure 54
0020
0130
0200
0310
,  // measure 55
1000
0010
0100
0001
,  // measure 56
0010
0100
1000
1000
,  // measure 57
1000
0100
0010
0001
,  // measure 58
0010
0100
0010
0010
;

//---------------dance-single - ----------------
#NOTES:
     dance-single:
     :
     Beginner:
     2:
     0.123989,0.136581,0.015499,0.092992,0.000000,98.000000,2.000000,12.000000,0.000000,0.000000,0.000000,0.123989,0.136581,0.015499,0.092992,0.000000,98.000000,2.000000,12.000000,0.000000,0.000000,0.000000:
// measure 0
0000
0000
0000
0000
,  // measure 1
0000
0000
0000
0000
,  // measure 2
0000
0000
0000
0000
,  // measure 3
0000
0000
0000
0000
,  // measure 4
1000
0000
0000
0000
,  // measure 5
0001
0000
0000
0000
,  // measure 6
0010
0000
0010
0000
,  // measure 7
0100
0000
0100
0000
,  // measure 8
1000
0000
0001
0000
,  // measure 9
0010
0000
0100
0000
,  // measure 10
1000
0000
1000
0000
,  // measure 11
0001
0000
0001
0000
,  // measure 12
0010
0000
0000
0000
,  // measure 13
0010
0000
0000
0000
,  // measure 14
0100
0000
0000
0000
,  // measure 15
0100
0000
0000
0000
,  // measure 16
2000
0000
0000
3000
,  // measure 17
0002
0000
0000
0003
,  // measure 18
1000
0000
1000
0000
,  // measure 19
0001
0000
0001
0000
,  // measure 20
0200
0000
0000
0300
,  // measure 21
0020
0000
0000
0030
,  // measure 22
1000
0001
0000
0110
,  // measure 23
1000
0000
1000
0000
,  // measure 24
0001
0000
0001
0000
,  // measure 25
0010
0010
0010
0000
,  // measure 26
0100
0100
0100
0000
,  // measure 27
2000
0000
3000
0000
,  // measure 28
0002
0000
0003
0000
,  // measure 29
1000
1000
1000
0000
,  // measure 30
0001
0001
0001
0000
,  // measure 31
0100
0000
0100
0000
,  // measure 32
0010
0000
0010
0000
,  // measure 33
1000
0000
1000
0000
,  // measure 34
0001
0000
0001
0000
,  // measure 35
0200
0000
0300
0000
,  // measure 36
0020
0000
0030
0000
,  // measure 37
1000
0000
0001
0000
,  // measure 38
2000
0000
3000
0000
,  // measure 39
0002
0000
0003
0000
,  // measure 40
0010
0000
0100
0000
,  // measure 41
2002
0000
0000
0000
,  // measure 42
0000
0000
0000
0000
,  // measure 43
0000
0000
0000
0000
,  // measure 44
0000
0000
0000
3003
,  // measure 45
0000
0000
0000
0000
,  // measure 46
0000
0000
0000
0000
,  // measure 47
1000
0000
1000
0000
,  // measure 48
0001
0000
0001
0000
,  // measure 49
0100
0010
0100
0100
,  // measure 50
0010
0100
0010
0010
,  // measure 51
0100
0000
0100
0000
,  // measure 52
0010
0000
0010
0000
,  // measure 53
1000
0001
1000
1000
,  // measure 54
0001
1000
0001
0001
,  // measure 55
1000
0000
0100
0000
,  // measure 56
0010
0000
0001
0000
,  // measure 57
0010
0000
0100
0000
,  // measure 58
1000
0100
0010
0001
;
