#TITLE:Apparition hunting;
#SUBTITLE:;
#ARTIST:El Dorado;
#TITLETRANSLIT:;
#SUBTITLETRANSLIT:;
#ARTISTTRANSLIT:;
#GENRE:;
#CREDIT:;
#BANNER:Apparition Hunting.png;
#BACKGROUND:Apparition Hunting - bg.png;
#LYRICSPATH:;
#CDTITLE:cd-rikame.png;
#MUSIC:Apparition hunting.ogg;
#OFFSET:-0.229;
#SAMPLESTART:21.247;
#SAMPLELENGTH:15.500;
#SELECTABLE:YES;
#BPMS:0.000=120.000;
#STOPS:;
#BGCHANGES:;
#KEYSOUNDS:;

//---------------dance-single - Rikame----------------
#NOTES:
     dance-single:
     Rikame:
     Challenge:
     13:
     0.813,1.000,0.215,0.359,1.000:
0000
0000
0000
0000
,
0000
0000
0000
0000
,
0000
0000
0000
0000
0000
0000
1001
0000
1000
0010
0000
0010
0100
0000
0101
0000
,
0011
0000
0010
0100
0000
0100
1000
0001
0000
0001
0100
0010
0100
0001
1000
0100
,
1000
0000
0001
0000
0010
0100
0010
0001
1000
0010
0100
0000
0101
0000
0001
0010
,
0100
1000
0010
1000
0100
1000
0010
0100
0001
0010
0001
0100
0001
1000
0100
0010
,
0001
0000
0101
0000
0110
0000
1010
0000
2000
0000
3001
0100
0000
0100
0001
0000
,
0010
0100
1000
0010
0000
0010
1000
0000
0001
0000
1000
0100
0000
0100
1000
0000
,
0001
1000
0010
0100
0001
0010
0100
2000
0001
0000
3010
0100
0010
1000
0100
1000
,
0001
0100
0001
0010
0100
0010
0001
1000
0010
0100
0001
1000
0100
0010
0100
1000
,
0010
0100
0001
1000
0100
0000
0010
0000
0004
0000
0000
0000
4003
0000
0000
0000
,
3020
0000
0000
0000
0000
0000
0130
0001
2000
0000
0000
3200
0000
0000
0310
0000
,
0002
0000
0000
0000
0013
0000
0100
0000
2000
0000
0000
3020
0000
0000
0130
0000
,
0001
0000
0000
0000
1000
0000
0000
0000
0100
0000
0000
0000
0010
0000
0000
0000
0001
0000
1000
0000
0010
0100
0010
0000
1000
0000
0001
0000
0000
0000
0001
0000
,
0100
0000
0110
0000
0010
1000
0010
0100
0002
0000
0000
0000
0023
0000
0000
0000
,
0230
0000
0000
0000
0000
1300
0000
0001
0200
0000
0000
0310
0000
1010
0000
1002
,
0000
0000
0013
0000
0100
0000
1000
0000
0001
0100
0010
1000
0100
0000
0100
0020
,
0000
0000
0000
0031
0000
0000
1000
0000
0000
0001
0000
0000
0100
0000
0000
0000
0000
0000
0100
0000
0000
0010
0000
0000
2000
0000
0000
0000
0000
0000
0000
0000
0000
3001
0000
0000
0100
0000
0010
0000
0100
0000
0001
0000
1000
0000
0001
0000
,
0020
0430
2300
3020
,
0032
0000
0000
0013
0100
0001
1000
0100
0020
0000
0000
2030
0000
0000
3010
0000
,
0002
0000
0000
0203
0000
0310
1000
0100
0010
0001
0100
2000
0000
3100
0001
1000
,
0001
0000
0000
0010
0000
0000
0100
0000
0000
0002
0000
0000
0000
0000
0000
0103
0000
0000
0010
0000
0000
0001
0000
0000
1000
0000
0010
0000
1000
0000
0001
0000
0100
0000
0001
0000
0010
0000
0100
0000
1000
0000
0100
0000
0010
0000
0001
0000
,
1000
0000
0001
0000
0100
0000
0010
0000
1000
0000
0001
0000
1000
0000
0000
0100
0000
0000
0010
0000
0000
0001
0000
0000
0200
0000
0000
0000
0000
0000
0000
0000
0000
0000
0000
0000
0000
0000
0000
0000
0000
0000
0000
0000
0000
0000
0000
0000
,
0320
0000
0000
0000
0000
0000
0000
0000
2030
0000
0000
0000
3200
0000
0000
0302
,
0000
0000
0103
0000
1000
0000
0010
0000
0001
0010
1000
0001
0010
1000
0010
0100
,
0001
0100
1000
0001
0100
1000
0100
0010
1000
0100
0010
0001
0100
0001
1000
0100
,
0040
0000
0000
0000
0000
0000
0000
0000
0000
0000
0000
0000
0000
0000
0000
0000
0031
0000
0100
0000
0001
0000
1000
0100
0010
0100
1000
0000
0001
0000
0100
0000
,
0001
0000
1000
0000
0100
0000
0010
0001
1000
0001
0010
0000
0100
0000
1000
0000
0001
0000
0100
0000
0010
0000
1000
0001
0100
0001
1000
0000
0010
0000
0100
0000
,
0001
0000
0000
0000
0000
0000
0000
0000
0000
0000
0000
0000
1000
0000
0000
0000
0000
0000
0000
0000
0000
0000
0000
0000
0001
0000
0000
0000
0000
0000
0000
0000
0000
0000
0000
0000
0010
0000
0000
0000
0000
0000
0100
0000
0000
0000
0000
0000
1000
0000
0000
0000
0000
0000
0100
0000
0000
0000
0000
0000
0010
0000
0000
0000
0000
0000
0000
0000
0000
0000
0000
0000
0001
0000
0000
0000
0000
0000
0000
0000
0000
0000
0000
0000
1000
0000
0000
0000
0000
0000
0000
0000
0000
0000
0000
0000
0001
0000
0000
0000
0000
0000
0000
0000
0010
0000
0000
0000
0000
0000
0000
0000
0001
0000
0000
0000
0000
0000
0000
0000
1000
0000
0000
0000
0000
0000
0000
0000
0010
0000
0000
0000
0000
0000
0000
0000
1000
0000
0000
0000
0000
0000
0000
0000
0001
0000
0000
0000
0000
0000
0000
0000
0100
0000
0000
0000
0000
0000
0000
0000
0001
0000
0000
0000
0000
0000
0000
0000
1000
0000
0000
0000
0000
0000
0000
0000
0100
0000
0000
0000
0000
0000
0000
0000
1000
0000
0000
0000
0000
0000
0000
0000
,
0010
0000
0000
0000
0000
0000
0000
0000
0100
0000
0000
0000
0000
0000
0000
0000
0010
0000
0000
0000
0000
0000
0000
0000
1000
0000
0000
0000
0000
0000
0000
0000
0001
0000
0000
0000
0000
0000
0000
0000
1000
0000
0000
0000
0000
0000
0000
0000
0100
0000
0000
0000
0000
0000
0000
0000
0010
0000
0000
0000
0000
0000
0000
0000
0100
0000
0000
0000
0000
0000
0000
0000
1000
0000
0000
0000
0000
0000
0000
0000
0001
0000
0000
0000
0000
0000
0000
0000
1000
0000
0000
0000
0000
0000
0000
0000
0010
0000
0000
0000
0000
0000
0100
0000
0000
0000
0000
0000
0010
0000
0000
0000
0000
0000
1000
0000
0000
0000
0000
0000
0001
0000
0000
0000
0000
0000
0100
0000
0000
0000
0000
0000
0010
0000
0000
0000
0000
0000
0100
0000
0000
0000
0000
0000
0001
0000
0000
0000
0000
0000
1000
0000
0000
0000
0000
0000
0001
0000
0000
0000
0000
0000
0010
0000
0000
0000
0000
0000
0100
0000
0000
0000
0000
0000
1000
0000
0000
0000
0000
0000
0001
0000
0000
0000
0000
0000
1000
0000
0000
0000
0000
0000
,
0010
0000
0000
0000
0000
0000
0100
0000
0000
0000
0000
0000
0001
0000
0000
0000
0000
0000
1000
0000
0000
0000
0000
0000
0001
0000
0000
0000
0000
0000
0010
0000
0000
0000
0000
0000
0100
0000
0000
0000
0000
0000
1000
0000
0000
0000
0000
0000
0001
0000
0000
0000
0000
0000
0000
0000
0000
0000
0000
0000
1000
0000
0000
0000
0000
0000
0000
0000
0000
0000
0000
0000
0100
0000
0000
0000
0000
0000
0000
0000
0000
0000
0000
0000
0010
0000
0000
0000
0000
0000
0000
0000
0000
0000
0000
0000
0001
0000
0000
0000
0000
0000
0000
0000
0100
0000
0000
0000
0000
0000
0000
0000
0010
0000
0000
0000
0000
0000
0000
0000
0100
0000
0000
0000
0000
0000
0000
0000
0000
0000
0001
0000
0000
0000
0000
0000
0000
0000
0000
0010
0000
0000
0000
0000
0000
0000
0000
0000
0000
0100
0000
0000
0000
0000
0000
0000
0000
0000
1000
0000
0000
0000
0000
0000
0000
0000
0000
0000
0001
0000
0000
0000
0000
0000
0000
0000
0010
0000
0000
0000
0000
0000
0000
0000
0001
0000
0000
0000
0000
0000
0000
0000
,
1000
0000
0000
0000
0000
0000
0000
0000
0010
0000
0000
0000
0000
0000
0000
0000
1000
0000
0000
0000
0000
0000
0000
0000
0100
0000
0000
0000
0000
0000
0000
0000
0000
0000
0010
0000
0000
0000
0000
0000
0000
0000
0000
0001
0000
0000
0000
0000
0000
0000
0000
0000
0000
1000
0000
0000
0000
0000
0000
0000
0000
0000
0010
0000
0000
0000
0000
0000
0000
0000
0000
0000
0100
0000
0000
0000
0000
0000
0000
0000
0001
0000
0000
0000
0000
0000
0000
0000
0010
0000
0000
0000
0000
0000
0000
0000
0001
0000
0000
0000
0000
0000
0000
0000
1000
0000
0000
0000
0000
0000
0000
0000
0100
0000
0000
0000
0000
0000
0000
0000
1000
0000
0000
0000
0000
0000
0000
0000
0000
0000
0010
0000
0000
0000
0000
0000
0000
0000
0000
0100
0000
0000
0000
0000
0000
0000
0000
0000
0000
0001
0000
0000
0000
0000
0000
0000
0000
0000
1000
0000
0000
0000
0000
0000
0000
0000
0000
0000
0100
0000
0000
0000
0000
0000
0000
0000
0010
0000
0000
0000
0000
0000
0000
0000
0100
0000
0000
0000
0000
0000
0000
0000
,
1000
0000
0000
0000
0000
0000
0000
0000
0001
0000
0000
0000
0000
0000
0000
0000
1000
0000
0000
0000
0000
0000
0000
0000
0010
0000
0000
0000
0000
0000
0000
0000
0000
0000
0100
0000
0000
0000
0000
0000
0000
0000
0000
0001
0000
0000
0000
0000
0000
0000
0000
0000
0000
1000
0000
0000
0000
0000
0000
0000
0000
0000
0100
0000
0000
0000
0000
0000
0000
0000
0000
0000
0010
0000
0000
0000
0000
0000
0000
0000
0001
0000
0000
0000
0000
0000
0000
0000
1000
0000
0000
0000
0000
0000
0000
0000
0020
0000
0000
0000
0000
0000
0000
0000
0000
0000
0000
0000
0000
0000
0000
0000
0000
0000
0000
0000
0000
0000
0000
0000
0130
0000
0000
0000
0000
0000
0000
0000
0000
0000
0000
0000
0001
0000
0000
0000
0000
0000
0000
0000
0000
0000
0000
0000
0000
0000
0000
0000
0000
0000
0000
0000
0000
0000
0000
0000
0001
0000
0000
0000
0000
0000
0000
0000
0000
0000
0000
0000
1000
0000
0000
0000
0000
0000
0000
0000
0000
0000
0000
0000
0000
0000
0000
0000
0000
0000
0000
0000
0000
0000
0000
0000
,
0200
0000
0000
0000
0000
0000
0000
0000
0310
0000
0000
0000
0001
0000
0000
0000
1000
0000
0000
0000
0001
0000
0000
0000
0100
0000
0000
0000
0000
0000
0000
0000
0020
0000
0000
0000
0000
0000
0000
0000
0000
0000
0000
0000
0000
2030
0000
0000
0000
0000
0000
0000
0000
0000
0000
0000
0000
0000
0000
0000
0000
0000
0000
0000
,
0000
0000
0000
0000
0000
0000
0000
0000
3001
0100
0000
0100
0010
0000
1010
0000
,
1100
0000
0100
0010
0000
0010
0001
0000
0101
0000
0100
0000
0010
1000
0000
1000
,
0001
0100
0010
0000
1010
0000
1000
0100
0000
0100
0010
0001
1000
0010
0100
0010
,
1000
0001
0000
0001
0010
0000
0100
1000
0001
1000
0010
0100
0000
0100
0001
0000
,
1001
0000
1100
0000
0100
0010
0000
0010
0001
0000
1000
0000
1010
0000
0010
0100
,
0001
0100
0010
1000
0001
0000
0011
0000
0010
0100
0010
0001
1000
0001
0100
1000
,
0100
0010
1000
0100
1000
0001
0100
0001
0010
1000
0010
0100
1000
0001
0100
0010
,
1000
0001
0010
1000
0010
0100
1000
0001
0010
0100
1000
0001
0010
0100
0001
0100
,
1000
0010
1000
0001
0010
0100
1000
0010
0001
0010
0100
0001
0010
0100
1000
0001
,
0010
0100
0001
0100
1000
0010
1000
0001
0010
0100
0010
1000
0010
0001
0100
0001
,
1000
0010
0100
0001
0100
1000
0100
0001
M010
0010
1000
010M
0100
0001
1000
0001
,
0010
0100
M001
0001
0010
100M
1000
0100
0010
0001
1000
0010
0100
0001
M010
0010
,
1000
010M
0100
0010
1000
0001
0100
0010
M001
0001
0100
100M
1000
0010
0100
0001
,
1000
0000
0001
0000
0010
0000
0100
0000
1000
0000
0001
0100
0001
0000
0010
0000
0100
1000
0100
0000
0010
0000
0001
0000
1000
0000
0010
0000
0100
0000
0001
0010
,
0001
0000
0100
0000
0010
1000
0010
0000
0100
0000
0001
0000
0010
0000
0100
0000
1000
0000
0001
0000
0100
0000
0010
0000
0010
0000
1000
0000
0100
0000
0100
0000
,
1000
0010
0100
0001
0010
0001
1000
0010
1000
0100
1000
0001
0100
0001
0010
0001
,
4000
0000
0000
3000
,
0002
0000
0000
0000
0000
0000
0000
0000
0103
0000
0000
0010
0000
0000
1000
0000
0100
0000
0000
0000
0010
0000
0000
0000
2000
0000
0000
0000
0000
0000
0000
0000
,
3020
0000
0000
0000
0000
0000
0000
0000
0031
0000
0000
0100
0000
0000
0010
0000
1000
0000
0000
0000
0100
0000
0000
0000
1000
0000
0000
0000
0010
0000
0000
0000
,
0002
0000
0000
0023
0000
0130
0001
1000
0001
0010
0100
0020
0000
0032
0000
1003
,
0010
1000
0100
0010
0000
0010
0001
1000
0010
0100
0000
0100
0001
0000
1000
0000
,
1100
0110
0011
0101
0110
1010
1001
0011
,
0110
0000
0000
0000
0000
0000
1100
0000
0000
0000
0000
0000
1001
0000
0000
0000
0000
0000
0001
0000
0000
0200
0000
0000
0000
0000
0000
0310
0000
0000
1000
0000
0000
0001
0000
0000
0010
0000
0100
0000
0010
0000
0001
0000
1000
0000
0001
0000
,
0200
0000
0000
0320
0000
1030
0001
1000
0010
0100
0001
0020
0000
0230
0000
1300
,
0020
0000
0000
0000
0000
0000
0000
0000
0000
0000
0000
0000
0000
0000
0000
0000
0000
0000
0000
0000
0000
0000
0000
0000
0000
0000
0000
0000
0000
0000
0000
0000
1030
0000
0000
0000
0100
0000
0000
0000
1000
0000
0000
0000
0010
0000
0000
0000
0200
0000
0000
0000
0000
0000
0000
0000
0000
0000
0000
0000
0000
0000
0000
0300
,
2002
0000
0000
0000
,
0000
0000
0000
0000
0000
0000
0000
3003
0000
0000
0000
0000
0000
0000
0000
0000
;

//---------------dance-single - Rikame----------------
#NOTES:
     dance-single:
     Rikame:
     Beginner:
     1:
     0.061,0.085,0.036,0.000,0.000:
0000
0000
0000
0000
,
0000
0000
0000
0000
,
0000
0000
0000
0000
,
0000
0000
0000
0000
,
0000
0000
0000
0000
,
0000
0000
0000
0000
,
0000
0000
0000
0000
,
0000
0000
0000
0000
,
0000
0000
0001
0000
,
0000
0000
0100
0000
,
0000
0000
0010
0000
,
0000
0000
1000
0000
,
0000
0000
0001
0000
,
0000
0000
0010
0000
,
0000
0000
0100
0000
,
0000
0000
1000
0000
,
0000
0000
0001
0000
,
0001
0000
0001
0000
,
0000
0000
0100
0000
,
0000
0000
0010
0000
,
0000
0000
1000
0000
,
0000
0000
0100
0000
,
0000
0000
0010
0000
,
0000
0000
0001
0000
,
0000
0000
1000
0000
,
1000
0000
1000
0000
,
0000
0000
0001
0000
,
0000
0000
0100
0000
,
0000
0000
0010
0000
,
0000
0000
1000
0000
,
0000
0000
0100
0000
,
0000
0000
0010
0000
,
0000
0000
0001
0000
,
0000
0000
1000
0000
,
0000
0000
0110
0000
,
0000
0000
0000
1001
,
0000
0000
0000
0000
,
0110
0000
0000
0000
,
0000
1001
0000
0000
,
0000
0000
0001
0000
,
0000
0000
0000
1000
,
0000
0000
0000
0000
,
0010
0000
0000
0000
,
0000
0100
0000
0000
,
0000
0000
0001
0000
,
0000
0010
0000
0000
0000
0000
0000
0001
,
0000
0000
0010
0000
,
0000
0000
0100
0000
0000
0000
0000
1000
,
0000
0000
0000
0000
0000
0100
0000
0000
,
0000
1000
0000
0000
,
0001
0000
0000
0000
,
1000
0000
0000
0000
,
0010
0000
0000
0000
,
0100
0000
0000
0000
,
0010
0000
0000
0000
,
1000
0000
0000
0000
,
0100
0000
0000
0000
,
0010
0000
0000
0000
,
0001
0000
0000
0000
,
1001
0000
0000
0000
;

//---------------dance-single - Rikame----------------
#NOTES:
     dance-single:
     Rikame:
     Easy:
     3:
     0.102,0.085,0.007,0.007,0.000:
0000
0000
0000
0000
,
0000
0000
0000
0000
,
0000
0000
0000
0001
0000
0000
0000
0000
,
0001
0000
0000
0000
0000
1000
0000
0000
,
0000
0000
1000
0000
0000
0000
0000
0020
,
0000
0000
0000
0000
,
1030
0001
1000
0000
,
0000
0000
0000
0000
,
0000
0000
0001
0000
,
0010
0000
0100
0000
,
1000
0000
0010
0000
,
0100
0000
0001
0000
,
0001
0000
1000
0000
,
0100
0000
0010
0000
,
0000
0000
0100
0000
,
1000
0000
0010
0000
,
0100
0000
0001
0000
,
1000
0000
0001
0000
,
0000
0000
0010
0000
,
0100
0000
1000
0000
,
0010
0000
0100
0000
,
0001
0000
1000
0000
,
0000
0000
0100
0000
,
1000
0000
0001
0000
,
0100
0000
0010
0000
,
0010
0000
1000
0000
,
0001
0000
0010
0000
,
0000
0100
0010
0000
,
0001
0000
1000
0000
,
0010
0000
0100
0000
,
0010
0000
1000
0000
,
0001
0000
0010
0000
,
0100
0000
1000
0000
,
0010
0000
0100
0000
,
0000
0000
0001
0000
,
0000
0100
0000
0000
0000
0000
0010
0000
,
0000
0000
0000
1000
0000
0000
0000
0000
,
0100
0000
0000
0000
0000
0010
0000
0000
,
0000
0000
0001
0000
0000
0000
0000
1000
,
0000
0000
0010
0000
,
0000
0100
0000
0000
0000
0000
0010
0000
,
0000
0000
0000
1000
0000
0000
0000
0000
,
0001
0000
0000
0000
0000
0010
0000
0000
,
0000
0000
0001
0000
0000
0000
0000
0100
,
0000
0000
0010
0000
,
0000
0010
0000
0000
0000
0000
0000
1000
,
0000
0000
1000
0000
,
0000
0000
0001
0000
0000
0000
0000
0100
,
0000
0000
0000
0000
0000
0010
0000
0000
,
0000
1000
0000
0000
,
0001
0000
0000
0000
,
0010
0000
0100
0000
,
0010
0000
0001
0000
,
1000
0000
0010
0000
,
0100
0000
0010
0000
,
1000
0000
0001
0000
,
0010
0000
0100
0000
,
1000
0000
0010
0000
,
0100
0000
0000
0000
,
1001
0000
0000
0000
;

//---------------dance-single - Rikame----------------
#NOTES:
     dance-single:
     Rikame:
     Medium:
     6:
     0.313,0.297,0.000,0.172,0.118:
0000
0000
0000
0000
,
0000
0000
0000
0000
,
0000
0000
0000
0000
0000
0000
1000
0000
0000
0010
0000
0000
0100
0000
0000
0010
,
1000
0000
0000
0001
0000
0000
0010
0000
0001
0000
1000
0000
0000
0010
0000
0000
,
0100
0000
0001
0000
0010
0000
0000
0100
0000
0000
1000
0000
0001
0000
0100
0000
,
0000
0010
0000
0000
0010
0000
0000
1000
0000
0000
1000
0000
0000
0001
0000
0000
,
0001
0010
0100
1000
0002
0000
0000
0000
,
0000
0000
0003
0000
,
0000
0000
0000
0000
1000
0010
0100
0010
,
1000
0001
0010
0100
1000
0001
1000
0010
,
0100
0001
0010
0100
1000
0000
0010
0000
,
0100
0000
0010
1000
,
0001
0100
0001
0010
,
0100
0000
0000
0000
1000
0000
0000
0000
0001
0000
0100
0000
0000
0100
0000
0000
,
0100
0010
1000
0001
0010
0000
0100
0000
,
1000
0000
0010
0100
,
0001
0010
0100
0010
,
0001
1000
0010
0100
,
0010
0000
1000
0100
,
0010
0000
0001
1000
0010
0000
0100
0000
,
0001
0000
0010
0100
1000
0010
0000
0100
,
0001
0010
0000
0100
2000
0000
0000
0000
,
0000
0000
3001
0100
0020
0000
0000
0000
,
2030
0000
3100
0010
,
0001
0100
0010
0100
0002
0000
0000
0000
,
2003
0000
3200
0000
,
0310
0000
0000
0000
0001
0100
0001
0010
,
0100
1000
0001
1000
0010
0100
0001
1000
,
0010
0100
0010
1000
0200
0000
0320
0000
,
0032
0203
0320
0000
,
0000
0000
1030
0001
2000
0000
0000
0000
,
3020
0000
0230
0000
,
0302
0000
0023
0000
,
0130
1000
0002
0000
,
0000
0000
0000
0000
0000
0000
0000
0000
0103
0000
0000
0001
0000
0000
1000
0000
,
0100
0000
0010
0000
0000
0001
0000
0000
1000
0000
0010
0000
0100
0000
0000
0001
,
0000
0000
0010
0000
0100
0000
0010
0000
0000
0001
0000
0000
0100
0000
0010
0000
,
1000
0000
0000
0001
0000
0000
0100
0000
0001
0000
1000
0000
0000
0100
0000
0000
,
0010
0000
0100
0000
1000
0000
0000
0010
0000
0000
0100
0000
0001
0000
0010
0000
,
0000
0100
0000
0000
0010
0000
0001
0000
1000
0000
0000
0010
0000
0000
0100
0000
,
0010
0000
1000
0000
0000
0001
0000
0000
0010
0000
0001
0000
0100
0000
0000
0010
,
0000
0000
1000
0000
0010
0000
0100
0000
0000
0001
0000
0000
1000
0000
0001
0000
,
0010
0000
0000
0100
0000
0000
1000
0000
0100
0000
0010
0000
0000
0001
0000
0000
,
1000
0000
0010
0000
0100
0000
0000
0001
0000
0000
0100
0000
0010
0000
1000
0000
,
0000
0001
0000
0000
0010
0000
0100
0000
1000
0000
0000
1000
0000
0000
1000
0000
,
1000
0000
0001
0000
0000
0001
0000
0000
0001
0000
1000
0000
0010
0000
0100
0000
,
0000
0100
0000
0000
0100
0000
0100
0000
0010
0000
0000
0010
0000
0000
0010
0000
,
0010
0000
1000
0000
0001
0000
0000
0100
0000
0000
0001
0000
0010
0000
0100
0000
,
0000
1000
0000
0000
0010
0000
1000
0000
0001
0000
0100
0000
0000
0010
0000
0000
,
0100
0000
0001
0000
0010
0000
0000
0100
0000
0000
0010
0000
0001
0000
1000
0000
,
0020
0000
0000
0000
0130
0001
0000
1000
,
0200
0000
0310
0001
1000
0010
0200
0000
,
0302
0000
1003
0100
0010
0001
1000
0010
,
0100
0001
1000
0100
,
0020
0000
0000
0000
,
0031
0100
0001
1000
0001
0010
0001
1000
,
0100
0010
0100
1000
0010
0100
0001
0010
,
0100
1000
0010
0100
,
0002
0000
0000
0000
,
1003
0000
0000
0000
;

//---------------dance-single - Rikame----------------
#NOTES:
     dance-single:
     Rikame:
     Hard:
     10:
     0.628,0.694,0.165,0.352,0.811:
0000
0000
0000
0000
,
0000
0000
0000
0000
,
0000
0000
0000
0000
0000
0000
1000
0000
0000
0100
0000
0000
0010
0000
0010
0000
,
0001
0000
0000
0100
0000
0000
0010
0000
0000
0010
1000
0000
0001
0100
0000
0001
,
1000
0000
0100
0000
0010
0000
0001
1000
0000
0010
1000
0000
0100
0000
0010
0000
,
0000
0001
0000
0000
0001
0000
0000
0100
0000
0000
0100
0000
0000
0010
0000
0000
,
0010
0000
1000
0000
0001
0000
0010
0000
0100
0000
1000
0001
0000
0001
1000
0000
,
0010
0000
0100
0001
0000
0001
0100
0000
0010
0000
1000
0100
0000
0100
1000
0000
,
0001
0010
0001
0000
0100
0000
0010
2000
0000
0000
3100
0010
0001
0010
0100
1000
,
0001
0100
0010
1000
0010
0100
0001
1000
0100
0010
0001
0100
0001
0010
0100
1000
,
0010
0100
0010
1000
0001
0000
0010
0000
0200
0000
0000
0000
2300
0000
0000
0000
,
3002
0000
0000
0000
0000
0000
0103
0010
2000
0000
0000
3200
0000
0000
0310
0000
,
0002
0000
0000
0000
0103
0000
0010
0000
2000
0000
0000
3002
0000
0000
0013
0000
,
0100
1000
0100
0010
0002
0000
0000
0000
,
0000
0000
0000
0000
1003
0010
0100
0001
2000
0000
0000
0000
3200
0000
0000
0000
,
0320
0000
0000
0000
0000
0031
0000
0100
0020
0000
0000
1030
0000
1001
0000
0201
,
0000
0000
0310
0000
1000
0000
0001
0000
0010
0100
0010
0100
2000
0000
0000
3010
,
0000
0100
0001
0100
0001
0000
1000
0100
0020
0000
0000
0031
4000
0000
0000
0000
,
0000
3000
M000
0000
0002
0000
0203
0000
,
0320
0000
0000
1030
0001
1000
0100
0010
0002
0000
0000
0203
0000
0000
0310
0000
,
2000
0000
0000
3001
0000
0010
0100
0010
0001
1000
0001
0100
0000
0100
0010
1000
,
0001
0010
0100
1000
0000
1000
0001
0100
0040
0000
0000
0000
0000
0000
0000
0000
,
0000
0000
0000
0000
1030
0100
0010
0001
2000
0000
0000
0000
0000
0000
0000
0000
,
3020
0000
0000
0000
0000
0000
0000
0000
0230
0000
0000
0000
0302
0000
0000
0023
,
0000
0000
0130
0000
1000
0000
0001
0000
0100
0010
1000
0010
0100
0001
1000
0100
,
0010
0001
1000
0001
0010
0100
1000
0001
0100
0010
1000
0100
0010
0001
0100
0001
,
4000
0000
0000
0000
0000
0000
0000
0000
3100
0000
0010
0000
0001
1000
0001
0000
,
0100
0000
0010
1000
0000
1000
0010
0000
0100
0000
0001
0000
0010
0100
0010
0001
,
0000
0001
0100
0010
1000
0001
1000
0100
0040
0000
0000
0000
0034
0000
0000
0000
,
0403
0340
4030
0000
,
0000
0000
0000
0000
3001
0010
0001
1000
0040
0000
0000
0000
0000
0000
0000
0000
,
0430
0000
0304
0000
,
4003
0000
3200
0000
,
0320
0032
0203
0020
,
0000
0000
0000
0000
0000
0000
0330
0000
0001
0100
0000
0001
0010
0000
0110
0000
,
1100
0000
1000
0010
0000
0100
0010
0000
1010
0000
1000
0000
0001
0010
0000
0001
,
0100
0001
1000
0000
1100
0000
0100
0010
0000
0100
1000
0001
0100
0010
1000
0001
,
1000
0100
0000
1000
0010
0000
0100
0001
0100
0010
1000
0001
0000
0010
0001
0000
,
0101
0000
0110
0000
0010
1000
0000
1000
0100
0010
0001
0000
0101
0000
0100
0010
,
1000
0001
0010
0100
0010
0000
0011
0000
0001
1000
0100
1000
0010
1000
0001
1000
,
0010
1000
0100
0010
0001
1000
0010
0100
0001
1000
0100
0010
0001
1000
0001
0100
,
0001
0010
0001
0100
0001
1000
0010
0100
0001
1000
0001
0010
0100
1000
0010
0100
,
0001
0010
0001
0100
0001
1000
0100
1000
0010
1000
0001
0010
0001
0100
0001
1000
,
0010
1000
0100
1000
0001
0010
0001
1000
0010
1000
0100
1000
0001
0100
0001
0010
,
0001
0100
0001
1000
0100
1000
0010
1000
0001
0100
0001
0010
0001
0100
0010
1000
,
0001
0100
0001
0010
0001
0100
0001
0010
0100
1000
0001
1000
0010
0100
0010
1000
,
0100
1000
0010
1000
0001
0100
0001
1000
0100
1000
0010
1000
0100
1000
0001
0010
,
0001
1000
0010
0100
0001
1000
0001
0010
0100
1000
0010
0100
0001
1000
0001
0100
,
0010
1000
0001
1000
0100
0010
0001
1000
0010
0100
0001
1000
0001
0100
0010
1000
,
0100
0010
0001
1000
0001
0010
0100
1000
0001
1000
0010
0100
0001
1000
0100
0010
,
0004
0000
0000
0000
0103
0010
0000
1010
,
2000
0000
0000
0000
0000
0000
0000
0000
3100
0000
0000
0010
0000
0000
0001
0000
0100
0000
0000
0000
0010
0000
0000
0000
2000
0000
0000
0000
0000
0000
0000
0000
,
3002
0000
0000
0000
0000
0000
0000
0000
0013
0000
0000
0100
0000
0000
1000
0000
0001
0000
0000
0000
0100
0000
0000
0000
0010
0000
0000
0000
1000
0000
0000
0000
,
0200
0000
0000
0320
0000
0130
1000
0001
0100
0010
1000
0020
0000
0230
0000
0301
,
0010
0100
1000
0001
0000
0001
0100
0010
1000
0100
0000
0100
0010
0000
0001
0000
,
0101
0110
0101
0110
1010
1100
1010
1100
,
0110
0000
0011
0000
0110
0000
0100
2000
0000
3010
0100
0001
0040
0000
0000
0000
,
0230
0000
0000
2300
0000
3001
0010
0001
1000
0010
0100
0002
0000
2003
0000
3100
,
0020
0000
0000
0000
0000
0000
0000
0000
0000
0000
0000
0000
0000
0000
0000
0000
0000
0000
0000
0000
0000
0000
0000
0000
0000
0000
0000
0000
0000
0000
0000
0000
0031
0000
0000
0000
1000
0000
0000
0000
0001
0000
0000
0000
1000
0000
0000
0000
0020
0000
0000
0000
0000
0000
0000
0000
0000
0000
0000
0000
0000
0000
0000
0030
,
2002
0000
0000
0000
,
0000
0000
0000
0000
0000
0000
0000
3003
0000
0000
0000
0000
0000
0000
0000
0000
;
