#TITLE:生命の焔纏いて;
#SUBTITLE:;
#ARTIST:WALPULG;
#TITLETRANSLIT:Seimei no honoo matoite;
#SUBTITLETRANSLIT:;
#ARTISTTRANSLIT:;
#GENRE:;
#CREDIT:Silverhawke;
#MENUCOLOR:;
#METERTYPE:DDR;
#BANNER:[Last Burning] - Seimei no honoo matoite.png;
#BACKGROUND:[Last Burning] - Seimei no honoo matoite-bg.png;
#LYRICSPATH:;
#CDTITLE:cdtitle.png;
#MUSIC:[Last Burning] - Seimei no honoo matoite.mp3;
#OFFSET:-0.028;
#SAMPLESTART:80.877;
#SAMPLELENGTH:15.000;
#SELECTABLE:YES;
#LISTSORT:;
#BPMS:0.000=122.667,10.667=122.666,32.000=184.000;
#STOPS:;
#BGCHANGES:;
#ATTACKS:;

//---------------dance-single - ----------------
#NOTES:
     dance-single:
     :
     Hard:
     10:
     0.687,0.861,0.209,0.163,1.000: // measure 1
0000
0000
0000
0000
,  // measure 2
0000
0000
0000
0000
,  // measure 3
0000
0000
0000
0000
,  // measure 4
0000
0000
0000
0000
,  // measure 5
0001
0010
0100
1000
0000
0000
0000
0000
0000
0001
0010
0100
,  // measure 6
1000
0000
0000
0000
0000
0000
0000
0000
0000
0001
0100
0010
,  // measure 7
1000
0000
0000
0000
0000
0000
0000
0000
0000
0000
0000
0000
0000
0000
0000
0000
0000
0000
0000
0000
0000
0000
0000
0000
0000
0000
0000
0000
0000
0000
0000
0000
0000
0000
0000
0000
0000
0000
0000
0000
0000
0000
0000
0000
0000
0000
0000
0000
0000
0000
0000
0000
0000
0000
0000
0000
0000
0000
0000
0000
0000
0000
0000
0000
0000
0000
0000
0000
0000
0000
0000
0000
0000
0000
0001
0000
0000
0000
0000
0000
0000
0000
0000
0000
0000
0010
0000
0000
0000
0000
0000
0000
0000
0000
0000
0000
0100
0000
0000
0000
0000
0000
0000
0000
0000
0000
0000
0000
0000
0000
0000
0000
0000
0000
0000
0000
0000
0000
0000
0000
0000
0000
0000
0000
0000
0000
0000
0000
0000
0000
0000
0000
0000
0000
0000
0000
0000
0000
0000
0000
0000
0000
0000
0000
1000
0000
0000
0000
0000
0000
0000
0000
0000
0000
0000
0000
0000
0000
0000
0000
0000
0000
0000
0000
0000
0000
0000
0000
0000
0000
0000
0000
0000
0000
0000
0000
0000
0000
0000
0000
0000
0000
0000
0000
0000
0000
0000
0000
0000
0000
0000
0000
,  // measure 8
0010
0000
0000
0000
0000
0000
0000
0000
0000
0000
0000
0000
0000
0000
0000
0000
0000
0000
0000
0000
0000
0000
0000
0000
0000
0000
0000
0000
0000
0000
0000
0000
0100
0000
0000
0000
0000
0000
0000
0000
0000
0000
0000
0000
0000
0000
0000
0000
0000
0000
0000
0000
0000
0000
0000
0000
0000
0000
0000
0000
0000
0000
0000
0000
0001
0000
0000
0000
0000
0000
0000
0000
0000
0000
0000
0000
0000
0000
0000
0000
0000
0000
0000
0000
0000
0000
0000
0000
0000
0000
0000
0000
0000
0000
0000
0000
1000
0000
0000
0000
0000
0000
0000
0000
0000
0000
0000
0000
0000
0000
0000
0000
0000
0000
0000
0000
0000
0000
0000
0000
0000
0000
0000
0000
0000
0000
0000
0000
0000
0000
0000
0000
0000
0000
0000
0000
0000
0000
0000
0000
0000
0000
0000
0000
0000
0000
0000
0000
0000
0000
0000
0000
0000
0000
0000
0000
0000
0000
0000
0000
0000
0000
0000
0000
0000
0000
0000
0000
0000
0000
0010
0000
0000
0000
0000
0000
0000
0000
0000
0000
0000
1000
0000
0000
0000
0000
0000
0000
0000
0000
0000
0000
,  // measure 9
0002
0000
0000
0000
,  // measure 10
0000
0000
0000
0003
,  // measure 11
2000
0000
0000
0000
,  // measure 12
0002
0000
0000
3003
,  // measure 13
0001
0000
0001
0100
0000
0000
0100
0000
0100
0010
0000
0000
,  // measure 14
0010
0000
0010
1000
0000
0000
1000
0000
1000
0100
0000
0000
,  // measure 15
0010
0000
0010
0001
0000
0000
0001
0000
0001
1000
0000
1000
,  // measure 16
0010
0100
0010
0100
0000
0001
1000
0001
1000
0001
0000
0010
,  // measure 17
0100
0000
0000
1000
0000
0001
0100
0000
0000
0001
0000
1000
,  // measure 18
0100
0000
0000
0010
0000
0001
1000
0000
0000
0010
0000
1000
,  // measure 19
0001
0000
0000
0010
0000
0100
1000
0000
0000
0010
0000
0100
,  // measure 20
0001
0000
0000
1001
0000
0000
1000
0010
0100
0001
0000
0001
,  // measure 21
1000
0000
0000
0010
0000
1000
0001
0000
0000
0010
0000
0001
,  // measure 22
1000
0000
0000
0100
0000
1000
0001
0000
0000
0100
0000
0001
,  // measure 23
1000
0000
0000
0010
0000
1000
0100
0000
0000
0010
0000
0001
,  // measure 24
0100
0000
0100
0010
0000
0010
1000
0000
1000
0001
0010
0100
,  // measure 25
2000
0000
0000
3010
0000
0100
0001
0000
0000
1000
0100
0010
,  // measure 26
0002
0000
0000
0103
0000
0000
0001
0100
0001
1000
0100
1000
,  // measure 27
0001
1100
1000
0101
,  // measure 28
1000
0100
0010
0001
0000
0001
0100
0010
1000
0001
0000
0001
,  // measure 29
0020
0130
2000
3001
,  // measure 30
1001
0000
0001
0100
0010
0100
0001
1000
0001
0010
0100
0010
,  // measure 31
0002
0000
0000
0103
0010
1000
0020
0000
0000
0130
0001
0010
,  // measure 32
0001
0000
0010
0000
0100
0000
1000
0000
0010
0000
0100
0000
,  // measure 33
1001
0101
1100
1001
,  // measure 34
1000
0100
0000
0010
0000
0011
0000
1001
0000
1010
0000
0010
,  // measure 35
0100
1010
0011
1001
,  // measure 36
1000
0100
0000
0100
0010
0000
0010
0001
0000
0001
1000
0000
,  // measure 37
0001
0100
0010
1000
0000
0000
0001
0100
0010
1000
0000
0000
,  // measure 38
1000
0100
0010
0001
1000
0000
1000
0100
0010
0001
0000
1000
,  // measure 39
0001
0100
0010
1000
0000
0000
0001
0010
0100
1000
0000
0000
,  // measure 40
0001
0100
0001
1000
0100
1000
0001
0010
0100
1000
0000
1000
,  // measure 41
0001
0100
0010
1000
0010
0100
0001
0010
0100
1000
0100
0010
,  // measure 42
0001
0100
0010
1000
0010
0100
0001
0010
0100
1000
0100
0010
,  // measure 43
0001
1000
0001
1000
0000
0000
0010
0100
0010
0100
0000
0000
,  // measure 44
1001
0000
0000
0001
0100
0001
1000
0100
1000
0010
0000
0000
,  // measure 45
1000
0100
0010
0001
0010
0100
1000
0010
0100
0001
0100
0010
,  // measure 46
1000
0100
0010
0001
0010
0100
1000
0010
0100
0001
0100
0010
,  // measure 47
1000
0000
0000
1000
0100
0010
0001
0000
0000
0001
0100
0010
,  // measure 48
1000
0000
0000
0001
0100
0010
1000
0100
0010
0001
0000
0000
,  // measure 49
2000
0000
3200
0000
,  // measure 50
0320
0000
0032
0000
,  // measure 51
2003
0000
3020
0000
,  // measure 52
0032
0000
0203
0000
,  // measure 53
1300
0000
0000
0001
0000
0010
0100
0000
1000
0000
0001
0000
,  // measure 54
0100
0000
0000
0010
0000
0100
0001
0000
1000
0000
0100
0000
,  // measure 55
0010
0000
0000
0001
0000
0100
0010
0000
0100
0000
0001
0000
,  // measure 56
1000
0000
0000
0100
0000
0010
0001
0000
0000
1001
0000
0000
,  // measure 57
0200
0000
0000
0000
,  // measure 58
0310
0001
1000
0010
0000
0010
0100
0001
1000
0100
0000
0000
,  // measure 59
1001
0000
0000
0001
1000
0001
0100
0000
0010
0000
1000
0000
,  // measure 60
0100
0000
0000
0010
0001
1000
0001
0000
0001
0100
0000
0100
,  // measure 61
0010
1000
0100
0010
0000
0000
0010
0001
0100
0010
0000
0000
,  // measure 62
0010
1000
0010
0100
0001
0100
0001
0010
0001
1000
0100
1000
,  // measure 63
0001
0000
0000
1000
0001
1000
0100
0000
0010
0000
0001
0000
,  // measure 64
0100
0000
0000
0010
1000
0001
1000
0000
1000
0100
0000
0100
,  // measure 65
0010
0001
0100
0010
0000
0000
0010
1000
0100
0010
0000
0000
,  // measure 66
0010
0001
0010
0100
1000
0100
1000
0010
1000
0001
0100
0001
,  // measure 67
1000
0000
0000
0001
0010
0100
0010
0000
0001
0000
1000
0000
,  // measure 68
0010
0000
0100
0000
0001
0000
1000
0100
0010
0001
0010
0100
,  // measure 69
1000
0001
0100
0001
0000
0000
0001
1000
0100
1000
0000
0000
,  // measure 70
0001
0010
0001
1000
0010
1000
0100
0010
0001
0100
0000
0000
,  // measure 71
0001
0000
0000
1000
0010
0100
0010
0000
1000
0000
0001
0000
,  // measure 72
0010
0000
0100
0000
1000
0000
0001
0100
0010
1000
0010
0100
,  // measure 73
0001
1000
0010
1010
0000
0000
1000
0001
0010
0011
0000
0000
,  // measure 74
0001
0100
0001
1000
0100
1000
0010
0100
0001
0010
0100
1000
,  // measure 75
0001
0000
0100
0000
0010
0000
0100
0000
0001
0000
0010
0000
,  // measure 76
0100
0000
0000
0000
0000
0000
1000
0000
0100
0000
0010
0000
,  // measure 77
0001
0000
0100
0000
1000
0000
0001
0000
0010
0000
1000
0000
,  // measure 78
1001
0000
0001
0000
0100
0000
0010
0000
1000
0000
0100
0000
,  // measure 79
0010
0000
0001
0000
0100
0000
0010
0000
0010
0000
0010
0000
,  // measure 80
1000
0000
0001
0000
0100
0000
0001
0000
1000
0000
0010
0000
,  // measure 81
1000
0000
0001
0000
0010
0000
0100
1000
0001
1000
0001
0000
,  // measure 82
1000
0100
0000
0110
0000
0010
0001
1000
0000
0010
0000
0100
,  // measure 83
0001
1000
0000
1100
0000
0100
0010
0001
0000
1000
0000
0010
,  // measure 84
0100
0001
0000
0011
0000
0010
0100
1000
0000
0001
0000
0100
,  // measure 85
0010
1000
0000
1001
0000
0001
0010
0100
1000
0001
0100
1000
,  // measure 86
0200
0000
0010
0310
,  // measure 87
1000
0100
0000
0110
0000
0001
0100
0010
0000
0110
0000
1000
,  // measure 88
2002
0000
0000
0000
,  // measure 89
0000
0000
0000
0000
,  // measure 90
3003
0000
0000
0000
;

//---------------dance-single - ----------------
#NOTES:
     dance-single:
     :
     Medium:
     7:
     0.452,0.505,0.163,0.070,0.403:
0000
0000
0000
0000
,
0000
0000
0000
0000
,
0000
0000
0000
0000
,
0000
0000
0000
0000
,
1000
0100
1000
0100
0000
0000
0000
0000
0000
0001
0100
0001
,
0100
0000
0000
0000
0000
0000
0000
0000
0000
0010
1000
0010
,
0100
0000
0001
1000
,
0010
0000
0100
0000
0010
0000
0100
0000
0000
0000
0000
0000
,
0001
0000
0000
0000
,
0010
0000
0100
0000
,
1000
0000
0000
0000
,
0010
0000
0100
0000
,
0001
1000
0100
0101
,
1000
0001
0100
1100
,
0001
1000
0010
0011
,
1000
0001
0010
1010
,
0001
0000
0000
0100
0000
0000
0010
0000
0000
0100
0000
0010
,
1000
0000
0000
0100
0000
0000
0010
0000
0000
0100
0000
0010
,
0001
0000
0000
0010
0000
0000
0100
0000
0000
0010
0000
0100
,
1000
0000
0000
0010
0000
0000
0100
0010
0000
0100
0000
0010
,
0100
0000
0000
0001
0000
0000
1000
0000
0000
0001
0000
1000
,
0100
0000
0000
1000
0000
0000
0001
0000
0000
1000
0000
0001
,
0010
0000
0000
0001
0000
0000
1000
0000
0000
0001
0000
1000
,
0010
0000
0000
0100
0000
0000
0001
0000
0000
1000
0100
1000
,
0100
0000
0000
0010
0000
0000
0001
0000
0000
0001
0100
0001
,
0100
0000
0000
0010
0000
0000
1000
0100
1000
0100
0000
0000
,
0010
0001
0100
1000
,
0010
0001
0000
0001
0000
0000
1000
0010
0000
1000
0000
0000
,
0001
0100
1000
0100
,
0001
0000
0001
1000
0000
0000
1000
0000
1000
0001
0000
0000
,
1000
0100
0001
0010
,
1000
0100
0000
0010
0000
0000
0001
0000
0100
0000
0010
0000
,
1000
1100
0001
0101
,
1000
0100
0000
0010
0000
0000
0010
0001
0000
1000
0000
0000
,
0001
0101
1000
1100
,
0002
0203
0320
2030
,
3001
0000
0001
0010
0000
0000
1000
0000
1000
0010
0000
0000
,
0001
0000
0001
0100
0000
0000
1000
0000
1000
0100
0000
0000
,
0001
0000
1000
0001
0000
0000
0010
0000
0100
0010
0000
0000
,
0001
1000
0010
0110
,
1000
0000
0100
0010
0000
0000
0002
0000
0000
1003
0000
0000
,
0001
0000
0100
0010
0000
0000
2000
0000
0000
3001
0000
0000
,
1000
0000
0100
0010
0000
0000
0001
0000
0100
0010
0000
0000
,
1000
0100
0001
0110
,
0001
0000
0100
0010
0000
0000
2000
0000
0000
3001
0000
0000
,
1000
0000
0100
0010
0000
0000
0002
0000
0000
1003
0000
0000
,
0001
0011
1000
1010
,
1001
0000
0000
0001
0100
0000
0010
0000
0010
0100
0000
0000
,
1001
0000
0000
0000
,
0100
0000
0000
0000
,
0010
0000
1000
0000
,
0001
0000
0000
0000
,
0100
0000
1000
0000
,
0001
0000
0100
0000
0001
0000
1000
0000
0100
0000
1000
0000
,
0001
0000
0010
0000
,
0100
0000
1000
0000
0001
0000
0100
0000
0000
0010
0000
0000
,
1000
0000
0000
0000
,
0010
0000
0000
0001
0000
1000
0010
0000
0000
0100
0000
0000
,
0001
0000
0000
0101
0000
0000
0100
0000
0100
0010
0000
0000
,
0001
0000
0000
1100
0000
0000
0100
0000
0010
0000
0001
0000
,
1000
0000
1000
0001
0000
0000
0010
0000
0010
0100
0000
0000
,
0001
1000
0000
0001
0000
1000
0100
0000
0000
1000
0000
0000
,
0001
0000
0000
1100
0000
0000
0100
0000
0100
0010
0000
0000
,
0001
0000
0000
0101
0000
0000
0100
0000
0010
0000
1000
0000
,
0001
0000
0001
1000
0000
0000
0010
0000
0010
0100
0000
0000
,
1000
0001
0000
1000
0000
0001
0100
0000
0000
0001
0000
0000
,
1000
0000
0000
0100
0010
0000
0001
0000
1000
0000
0001
0000
,
1000
0010
0100
0001
,
1000
0000
1000
0100
0000
0000
0010
0000
0000
0001
0000
0000
,
0001
0000
0001
0100
0000
0000
0010
0000
0000
1001
0000
0000
,
0001
0000
0000
0100
0010
0000
1000
0000
0001
0000
1000
0000
,
0001
0010
0100
1000
,
0001
0100
0000
0100
0000
0000
0010
1000
0000
1000
0000
0000
,
1000
0100
0000
0100
0000
0000
0010
0000
0000
1001
0000
0000
,
0001
0000
0010
0000
,
0200
0300
1000
0000
,
0010
0000
0100
0000
,
0001
0000
0100
0000
0001
0000
1000
0000
0100
0000
1000
0000
,
0001
0000
0010
0000
0001
0000
0100
0000
0100
0000
0100
0000
,
0010
0000
1000
0000
0010
0000
0100
0000
0001
0000
0100
0000
,
0010
0000
1000
0000
0001
0000
0010
0000
0000
0000
0110
0000
,
1000
0100
0000
0010
0000
0000
0001
0010
0000
0100
0000
0000
,
1000
0100
0000
0010
0000
0000
0001
0010
0000
0100
0000
0000
,
1000
0010
0000
0100
0000
0000
0001
0100
0000
0010
0000
0000
,
1000
0010
0000
0100
0000
0000
0001
0100
0000
0010
0000
0000
,
1000
0000
0001
0000
,
0100
0010
0000
1000
0000
0100
0010
0001
0000
0100
0000
0010
,
1000
0000
0000
0000
;

//---------------dance-single - ----------------
#NOTES:
     dance-single:
     :
     Easy:
     4:
     0.223,0.303,0.031,0.015,0.008:
0000
0000
0000
0000
,
0000
0000
0000
0000
,
0000
0000
0000
0000
,
0000
0000
0000
0000
,
1000
0100
0000
0001
,
0100
0000
0000
1000
,
0001
0000
0100
0010
,
1000
0000
0001
0000
,
0100
0000
0000
0000
,
0010
0000
0100
0000
,
0001
0000
0000
0000
,
0010
0000
0100
0000
,
1000
0100
0001
0100
,
1000
0100
0001
0000
,
0001
0100
1000
0100
,
0001
0100
1000
0000
,
0001
0010
0100
0000
,
1000
0010
0100
0000
,
0001
1000
0100
0000
,
1000
0001
0100
0110
,
0001
1000
0100
0000
,
1000
0001
0010
0000
,
0100
1000
0010
0000
,
0100
0001
1000
1001
,
0002
0000
0003
1000
,
2000
0000
3010
0010
,
0010
0000
0100
0000
,
0001
1000
0100
0010
,
0001
0000
1000
0000
,
0001
0000
0010
0100
,
1000
0000
0001
0000
,
0100
0010
0100
0010
,
1000
0000
0001
0000
,
0010
0100
1000
0000
,
0001
0000
1000
0000
,
0010
0100
0001
0000
,
1000
0000
0001
0000
,
0010
0100
1000
0000
,
0001
0000
1000
0000
,
0010
0100
0001
0000
,
1000
0100
0010
0100
,
1000
0100
0010
0100
,
1000
0000
0001
0000
,
1000
0001
0100
0000
,
0001
0100
0010
0100
,
0001
0100
0010
0100
,
0001
0000
1000
0000
,
0100
0010
0001
0000
,
1001
0000
0000
0000
,
0000
0000
0000
0000
,
0000
0000
0000
0000
,
0000
0000
0000
0000
,
0100
0000
0000
0000
,
0010
0000
1000
0000
,
0001
0000
0000
0000
,
0010
0000
0100
0000
,
1000
0000
0000
0000
,
0001
0000
1000
0000
,
0001
0000
0100
0000
,
0010
0100
0001
0000
,
0010
0000
0100
0000
,
1000
0001
0100
0000
,
0010
0000
1000
0000
,
0100
0010
0001
0000
,
1000
0000
0010
0000
,
0100
0001
1000
0000
,
0100
0000
0010
0100
,
1000
0000
0001
0000
,
0100
0000
0010
0000
,
0100
0001
1000
0000
,
0100
0000
0010
0001
,
1000
0000
0010
0000
,
0100
0000
0001
0000
,
1000
0100
0010
0000
,
0001
0000
0000
0000
,
0000
0000
0000
0000
,
0000
0000
0000
0000
,
1000
0000
0000
0000
,
0000
0000
0100
0000
,
0010
0000
0000
0000
,
0000
0000
0001
0000
,
1000
0000
0010
0000
,
0100
0000
0001
0000
,
0010
0000
0100
0000
,
1000
0000
0001
0000
,
0100
0000
0010
0000
,
1000
0001
0000
0001
0000
0000
0001
1000
0000
1000
0000
0000
,
1001
0000
0000
0000
;
