#TITLE:Pompeii;
#SUBTITLE:;
#ARTIST:Bastille;
#TITLETRANSLIT:;
#SUBTITLETRANSLIT:;
#ARTISTTRANSLIT:;
#GENRE:;
#CREDIT:hooky;
#BANNER:[Last Burning] - Pompeii.png;
#BACKGROUND:[Last Burning] - Pompeii-bg.png;
#LYRICSPATH:;
#CDTITLE:cdtitle.png;
#MUSIC:[Last Burning] - Pompeii.ogg;
#OFFSET:-2.759000;
#SAMPLESTART:47.908001;
#SAMPLELENGTH:16.299999;
#SELECTABLE:YES;
#DISPLAYBPM:128.000000;
#BPMS:0.000000=127.500000
;
#STOPS:
;
#BGCHANGES:;
#KEYSOUNDS:;
#ATTACKS:;

//---------------dance-single - hooky----------------
#NOTES:
     dance-single:
     hooky:
     Hard:
     8:
     0.417604,0.448869,0.112826,0.071799,0.184625,267.000000,11.000000,7.000000,0.000000,0.000000,0.000000,0.417604,0.448869,0.112826,0.071799,0.184625,267.000000,11.000000,7.000000,0.000000,0.000000,0.000000:
0000
0000
0000
0000
,
0000
0000
0000
0000
,
0000
0000
0000
0000
,
0000
0000
0000
0000
0000
0000
0000
0010
,
0000
0010
0100
0000
0010
0100
0000
0001
,
0000
0001
1000
0000
0001
1000
0000
0010
,
0000
0010
1000
0000
0010
1000
0000
0100
,
0000
0100
0010
0000
0100
0010
0000
0000
,
0001
0001
0100
0000
0001
0000
0001
0000
,
0010
0010
0001
0000
0100
0000
0100
0000
,
0010
0010
1000
0000
0100
0000
0100
0000
,
0010
0010
0001
0000
1000
0000
1000
0000
,
0001
0100
0010
0000
1000
0000
1000
0000
,
0010
0100
0001
0000
1000
0000
1000
0000
,
0100
1000
0010
0000
0100
0000
0100
0000
,
0002
2000
0000
0000
0000
0000
3003
0000
,
0010
0000
0100
0000
0001
0000
0010
0001
0000
0100
0000
0000
0010
0000
0010
0000
,
0100
0000
0010
0000
1000
0000
0100
1000
0000
0010
0000
0000
0100
0000
0100
0000
,
0001
0010
0100
0000
1000
0010
0001
0010
,
2000
0010
0010
3010
,
0100
0000
0010
0000
1000
0000
0100
1000
0000
0010
0000
0000
0100
0000
0100
0000
,
0010
0000
0100
0000
0001
0000
0010
0001
0000
0100
0000
0000
0010
0000
0010
0000
,
1000
0100
0010
0000
0001
0100
1000
0100
,
0002
0100
0100
0103
,
0220
0000
0000
0330
,
0010
0000
1000
0000
0100
0000
0010
0001
0000
0001
0000
0000
0100
0000
0100
0000
,
0010
0000
1000
0000
0100
0000
1000
0010
0000
0010
0000
0000
0100
0000
0100
0000
,
0001
0000
0010
0000
0100
0000
1000
0100
0000
0100
0000
0000
0010
0000
0010
0000
,
0001
0000
0100
0000
0010
0000
0100
0010
0000
0010
0000
0000
1000
0000
1000
0000
,
0010
0000
0100
0000
0001
0000
0010
0100
0000
0010
0000
0000
0100
0000
1000
0000
,
0010
0000
0100
0000
0001
0000
0010
0001
0000
0010
0000
0000
0100
0000
1000
0000
,
0010
0000
0100
0000
0001
0000
0010
0100
0000
0010
0000
0000
0100
0000
1000
0000
,
0020
0000
0000
0000
0100
0000
0100
0000
0030
0000
1001
0000
0000
0000
0100
0010
,
0000
0100
0001
0100
0001
0000
0010
0100
0000
0000
1000
0010
0000
0000
0100
0001
,
0000
0000
0001
0000
0000
0000
0010
0100
0010
0000
0010
0000
0000
0000
0001
1000
,
0000
0010
1000
0010
1000
0000
0100
0010
0000
0000
0001
0100
0000
0010
0000
1000
,
0000
1000
0100
0010
0100
0100
0110
0000
,
1010
0010
1010
0000
0100
0000
0100
0000
,
0101
0001
0101
0000
0010
0000
0010
0000
,
0011
0010
0011
0000
1000
0000
1000
0000
,
1100
0100
1100
0000
0001
0000
0001
0100
,
0000
0100
0010
0000
0100
0010
0000
1000
,
0000
1000
0001
0000
1000
0001
0000
0100
,
0000
0100
0001
0000
0100
0001
0000
0010
,
0000
0010
0100
0000
0010
0100
0000
0010
,
0000
0010
0001
0000
0010
0001
0000
0001
,
0000
0001
1000
0000
0001
1000
0000
0010
,
0000
0010
1000
0000
0010
1000
0000
0100
,
0000
0100
0010
0000
0100
0010
0000
0000
;

//---------------dance-single - hooky----------------
#NOTES:
     dance-single:
     :
     Medium:
     6:
     0.263750,0.298477,0.041028,0.174368,0.000000,159.000000,4.000000,17.000000,0.000000,0.000000,0.000000,0.263750,0.298477,0.041028,0.174368,0.000000,159.000000,4.000000,17.000000,0.000000,0.000000,0.000000:
0000
0000
0000
0000
,
0000
0000
0000
0000
,
0000
0000
0000
0000
,
0000
0000
0000
0000
0000
0000
0000
0020
,
0000
0000
0030
0000
0010
0000
0000
2000
,
0000
0000
3000
0000
1000
0000
0000
0002
,
0000
0000
0003
0000
0001
0000
0000
0200
,
0000
0300
0100
0000
,
0010
0010
0000
0000
,
0100
0100
0000
0000
,
0001
1000
0010
0000
,
0010
0100
0001
0000
,
1000
1000
0000
0000
,
0001
0001
0000
0000
,
0100
0010
1000
0000
,
0100
0010
0001
0000
,
0100
0010
1000
0000
0100
0000
0100
0000
,
1000
0010
0100
0000
0001
0000
0001
0000
,
0010
0001
0100
0000
0001
0000
0001
0000
,
2000
0001
0002
3003
,
0100
0010
1000
0000
0100
0000
0100
0000
,
1000
0010
0100
0000
0001
0000
0001
0000
,
0010
0001
0100
0000
0001
0000
0001
0000
,
0100
0001
1000
0010
,
0220
0000
0000
0330
,
0100
0010
1000
0000
0100
0000
0100
0000
,
1000
0010
0100
0000
0001
0000
0001
0000
,
0100
0100
0001
0000
0010
0010
0001
0000
,
1001
0000
0100
0100
,
0010
1000
0100
0000
1000
0000
1000
0000
,
0010
0100
0001
0000
0010
0000
0010
0000
,
0001
0100
0002
0003
1000
0010
1000
0000
,
0100
0100
1000
0000
,
0010
0100
0001
0000
0010
0000
0010
0000
,
0001
1000
0001
0000
0100
0010
0100
0000
,
0010
1000
0100
0000
1000
0000
1000
0000
,
0010
0100
0001
0000
0010
0000
0010
0000
,
0001
0100
0101
0000
0100
0000
0100
0000
,
0010
1000
1010
0000
1000
0000
1000
0000
,
0100
0100
1000
1000
,
0010
0000
0010
0000
1000
0000
1000
0002
,
0000
0000
0003
0000
0001
0000
0000
0200
,
0000
0000
0300
0000
0100
0000
0000
0020
,
0000
0000
0030
0000
0010
0000
0000
2000
,
0000
0000
3000
0000
1000
0000
0000
0200
,
0000
0000
0300
0000
0100
0000
0000
2000
,
0000
0000
3000
0000
1000
0000
0000
0020
,
0000
0000
0030
0000
0010
0000
0000
0200
,
0000
0300
0100
0000
;

//---------------dance-single - hooky----------------
#NOTES:
     dance-single:
     :
     Easy:
     4:
     0.193417,0.198985,0.041028,0.082055,0.000000,120.000000,4.000000,8.000000,0.000000,0.000000,0.000000,0.193417,0.198985,0.041028,0.082055,0.000000,120.000000,4.000000,8.000000,0.000000,0.000000,0.000000:
0000
0000
0000
0000
,
0000
0000
0000
0000
,
0000
0000
0000
0000
,
0000
0000
0000
0000
,
0010
0000
0010
0000
,
0100
0000
0100
0000
,
0001
0000
0001
0000
,
1000
0000
1000
0000
,
0020
0000
0000
0030
,
0200
0000
0000
0300
,
0002
0000
0000
0003
,
2000
0000
0000
3000
,
0200
0000
0000
0300
,
2000
0000
0000
3000
,
0020
0000
0000
0030
,
0200
0000
0000
0300
,
0001
0001
0010
0001
,
0100
0100
0010
1000
,
0100
0100
1000
0001
,
1000
0000
0000
0000
,
1000
0010
0100
0100
,
0001
0010
0001
0001
,
0100
0010
1000
0100
,
1000
1000
0010
0100
,
1001
0000
0000
0000
,
0100
0001
0010
0010
,
0001
0100
0010
0010
,
1000
0100
1000
1000
,
1010
0000
0101
0000
,
0010
0001
0100
0100
,
0010
1000
0100
0100
,
1000
0010
1000
0100
,
0010
0010
0001
0000
,
0001
0100
0001
0000
,
0010
0001
0010
0000
,
0001
1000
0001
0000
,
1000
0010
1000
0100
,
1000
1000
0001
0001
,
0100
0100
0001
0001
,
0010
0010
0001
0001
,
1000
0010
0100
0010
,
1010
0000
1000
0000
,
0001
0000
0001
0000
,
0100
0000
0100
0000
,
0010
0000
0010
0000
,
0100
0000
0100
0000
,
0001
0000
0001
0000
,
0010
0000
0010
0000
,
0100
0000
0100
0000
;

//---------------dance-single - hooky----------------
#NOTES:
     dance-single:
     :
     Beginner:
     1:
     0.101104,0.147700,0.010257,0.000000,0.000000,68.000000,1.000000,0.000000,0.000000,0.000000,0.000000,0.101104,0.147700,0.010257,0.000000,0.000000,68.000000,1.000000,0.000000,0.000000,0.000000,0.000000:
// measure 0
0000
0000
0000
0000
,  // measure 1
0000
0000
0000
0000
,  // measure 2
0000
0000
0000
0000
,  // measure 3
0000
0000
0000
0000
,  // measure 4
0010
0000
0000
0000
,  // measure 5
0100
0000
0000
0000
,  // measure 6
0001
0000
0000
0000
,  // measure 7
1000
0000
0000
0000
,  // measure 8
0001
0000
0000
0000
,  // measure 9
1000
0000
0000
0000
,  // measure 10
0010
0000
0000
0000
,  // measure 11
0100
0000
0000
0000
,  // measure 12
0001
0000
0000
0000
,  // measure 13
1000
0000
0000
0000
,  // measure 14
0100
0000
0000
0000
,  // measure 15
1000
0000
0000
0000
,  // measure 16
0001
0000
0001
0000
,  // measure 17
0001
0000
0000
0000
,  // measure 18
1000
0000
1000
0000
,  // measure 19
1000
0000
0000
0000
,  // measure 20
0010
0000
0010
0000
,  // measure 21
0010
0000
0000
0000
,  // measure 22
0100
0000
0100
0000
,  // measure 23
0100
0000
0000
0000
,  // measure 24
1001
0000
0000
0000
,  // measure 25
0001
0000
0010
0000
,  // measure 26
1000
0000
0001
0000
,  // measure 27
0010
0000
0100
0000
,  // measure 28
0010
0000
0100
0000
,  // measure 29
0001
0001
0001
0000
,  // measure 30
1000
1000
1000
0000
,  // measure 31
0010
0000
0100
0000
,  // measure 32
0010
0000
0000
0000
,  // measure 33
1000
0000
1000
0000
,  // measure 34
1000
0000
0000
0000
,  // measure 35
0001
0000
0001
0000
,  // measure 36
0001
0000
0000
0000
,  // measure 37
1000
1000
1000
0000
,  // measure 38
0001
0001
0001
0000
,  // measure 39
0010
0010
0010
0000
,  // measure 40
0100
0100
0100
0000
,  // measure 41
0010
0000
0000
0000
,  // measure 42
0100
0000
0000
0000
,  // measure 43
0001
0000
0000
0000
,  // measure 44
1000
0000
0000
0000
,  // measure 45
0010
0000
0000
0000
,  // measure 46
1000
0000
0000
0000
,  // measure 47
0001
0000
0000
0000
,  // measure 48
0100
0000
0000
0000
;
