#TITLE:My Sweet Summer;
#SUBTITLE:;
#ARTIST:The Dirty Heads;
#TITLETRANSLIT:;
#SUBTITLETRANSLIT:;
#ARTISTTRANSLIT:;
#GENRE:;
#CREDIT:;
#BANNER:My Sweet Summer - The Dirty Headsbn.png;
#BACKGROUND:My Sweet Summer - The Dirty Headsbg.png;
#LYRICSPATH:My Sweet Summer - The Dirty Heads.lrc;
#CDTITLE:encorerebirth.png;
#MUSIC:My Sweet Summer - The Dirty Heads.ogg;
#OFFSET:0.006;
#SAMPLESTART:71.389;
#SAMPLELENGTH:20.426;
#SELECTABLE:YES;
#BPMS:0.000=94.000
;
#STOPS:
;
#BGCHANGES:;
#KEYSOUNDS:;
#ATTACKS:;

//---------------dance-single - Spork!----------------
#NOTES:
     dance-single:
     :
     Beginner:
     1:
     0.082,0.095,0.051,0.051,0.000,55.000,6.000,6.000,0.000,0.000,0.000,0.082,0.095,0.051,0.051,0.000,55.000,6.000,6.000,0.000,0.000,0.000:
0000
0000
0000
0000
,
0000
0000
0000
0000
,
0000
0000
0000
0000
,
0000
0000
0000
0000
,
1000
0000
0000
0000
,
0001
0000
1000
0000
,
0001
0000
0000
0000
,
2000
0000
3000
0000
,
1001
0000
0000
0000
,
0100
0000
0010
0000
,
1001
0000
0000
0000
,
0020
0000
0130
0000
,
0001
0000
0000
0000
,
0010
0000
0000
0000
,
0100
0000
0000
0000
,
0220
0000
0330
0000
,
1000
0000
1000
0000
,
0100
0000
0100
0000
,
0010
0000
0010
0000
,
0001
0000
0001
0000
,
1000
0000
0000
0000
,
0010
0000
0000
0000
,
0100
0000
0000
0000
,
0001
0000
1000
0000
,
0100
0000
0000
0000
,
0010
0000
0100
0000
,
0010
0000
0000
0000
,
0001
0000
1000
0000
,
0010
0000
0000
0000
,
0100
0000
0010
0000
,
0100
0000
0000
0000
,
0002
0000
0003
0000
,
1001
0000
0000
0000
,
0010
0000
0100
0000
,
1001
0000
0000
0000
,
0200
0000
0310
0000
,
1000
0000
0000
0000
,
1000
0000
0000
0000
,
0001
0000
0000
0000
,
0001
0000
0000
0000
,
0001
0000
0000
0000
,
1000
0000
0000
0000
,
1000
0000
0000
0000
,
0001
0000
0000
0000
,
0100
0000
1001
0000
;

//---------------dance-single - Spork!----------------
#NOTES:
     dance-single:
     :
     Easy:
     3:
     0.180,0.172,0.043,0.197,0.000,119.000,5.000,23.000,0.000,0.000,0.000,0.180,0.172,0.043,0.197,0.000,119.000,5.000,23.000,0.000,0.000,0.000:
0000
0000
0000
0000
,
0000
0000
0000
0000
,
0000
0000
0000
0000
,
0000
0000
0000
0000
,
0010
0010
0200
0000
,
0301
1000
0010
1000
,
0100
0100
0020
0000
,
0031
1000
0001
0000
,
1002
0000
0103
0001
,
0010
0100
0100
1000
,
2001
0000
3010
1000
,
0200
0000
0310
0000
,
0001
0000
0001
1000
,
0100
0000
0100
1000
,
0010
0000
0010
1000
,
0001
0001
1000
1000
,
0001
0010
0001
1000
,
1000
0010
1000
0001
,
0001
0010
0100
1000
,
1000
0010
0100
0001
,
0002
0000
0023
0000
,
0230
0000
2300
0001
,
3002
0000
2003
0000
,
3020
0000
0130
0100
,
0001
0001
2000
0000
,
3010
1000
0100
0100
,
1000
1000
0002
0000
,
0013
0001
0100
1001
,
1000
1000
0002
0000
,
0103
0001
0010
0010
,
0001
0001
2000
0000
,
3001
1000
0001
0000
,
0120
0000
1030
0001
,
0010
0100
0100
0010
,
0120
0000
0031
1000
,
0020
0000
0130
0000
,
0002
0000
0000
0000
,
0003
0001
0010
0100
,
2000
0000
0000
0000
,
3000
1000
0001
0100
,
0020
0000
0000
0000
,
0030
0010
1000
0001
,
0020
0000
0000
0000
,
0030
0000
0000
0000
,
0010
0010
0100
0000
;

//---------------dance-single - Spork!----------------
#NOTES:
     dance-single:
     :
     Medium:
     5:
     0.213,0.229,0.086,0.137,0.000,148.000,10.000,16.000,0.000,0.000,0.000,0.213,0.229,0.086,0.137,0.000,148.000,10.000,16.000,0.000,0.000,0.000:
0000
0000
0000
0000
,
0000
0000
0000
0000
,
0000
0000
0000
0000
,
0000
0000
0000
0000
,
0100
0001
2000
0000
,
3010
1000
0100
0000
0010
0001
0100
0000
,
0010
1000
0002
0000
,
1003
0001
0100
0000
,
0001
0000
0001
0010
0001
0000
0100
0000
,
0010
0000
0010
1000
0020
0000
0000
0000
,
1030
0000
1000
0100
1000
0000
0010
0000
,
0100
0000
0100
0001
0200
0000
0000
0000
,
0301
0010
0110
1001
,
1000
0010
0110
1001
,
0100
0001
1001
0110
,
0100
1000
0001
0000
0100
0001
1000
0000
,
1000
1100
0001
0101
,
0001
0000
1000
0000
0001
1000
0001
0000
,
1000
0000
0100
0000
0010
0100
0010
0000
,
2002
0000
3003
0000
,
0001
0000
0000
0001
0010
0000
0100
0000
,
1000
0000
0000
1000
0010
0000
1000
0000
,
0001
0000
0000
1000
0100
0000
0010
0000
,
0001
0000
0000
0001
1000
0001
1000
0000
,
0001
0010
0200
0000
,
0310
0001
1000
0000
0010
1000
0001
0000
,
1000
0010
0200
0000
,
0310
1000
0100
1001
,
1000
0100
0020
0000
,
0130
1000
0010
0000
0100
0001
0010
0000
,
0001
0100
0020
0000
,
1030
0001
0010
0000
,
0010
0000
0010
0100
0010
0000
0001
0000
,
0100
0000
0100
0001
0200
0000
0000
0000
,
0310
0000
0010
0100
0010
0000
1000
0000
,
0100
0000
0100
0010
0200
0000
0000
0000
,
2300
0000
0000
0000
,
3000
1000
0010
0100
,
0002
0000
0000
0000
,
0003
0001
0010
0100
,
2000
0000
0000
0000
,
3000
1000
0100
0010
,
0002
0000
0000
0000
,
0003
0000
0000
0000
,
1000
0001
0100
0000
;

//---------------dance-single - Spork!----------------
#NOTES:
     dance-single:
     :
     Hard:
     7:
     0.354,0.381,0.077,0.231,0.073,253.000,9.000,27.000,0.000,0.000,0.000,0.354,0.381,0.077,0.231,0.073,253.000,9.000,27.000,0.000,0.000,0.000: // measure 0
0000
0000
0000
0000
,  // measure 1
0000
0000
0000
0000
,  // measure 2
0000
0000
0000
0000
,  // measure 3
0000
0000
0000
0000
,  // measure 4
0001
0100
1000
0100
0001
0000
1000
0000
,  // measure 5
0001
0010
0100
0000
0010
0100
1000
0000
,  // measure 6
1000
0010
0001
0010
1000
0001
1000
1000
,  // measure 7
0001
1000
0000
0000
1000
0001
0000
0000
0200
0000
0000
0000
0000
0000
0300
0000
,  // measure 8
0001
0000
0000
0001
0010
0000
0001
0000
0100
0000
0010
0000
1000
0000
0001
0000
,  // measure 9
2001
0000
3010
1000
0200
0000
0010
0300
,  // measure 10
1000
0000
0000
1000
0010
0000
1000
0000
0100
0000
0010
0000
0001
0000
1000
0000
,  // measure 11
1002
0000
0103
0001
0020
0100
0000
0130
,  // measure 12
0010
0001
0100
0000
0010
1000
1001
0000
,  // measure 13
0100
1000
0010
0000
0100
0010
0110
0000
,  // measure 14
0010
1000
0100
0000
0010
0001
0100
0000
,  // measure 15
0001
0010
1000
0100
0001
1000
1001
0000
,  // measure 16
1000
0100
0010
0010
0001
0100
0010
0010
,  // measure 17
1000
0001
0010
0001
1000
0010
0100
0100
,  // measure 18
0000
0100
0001
1000
0000
1000
0001
0010
,  // measure 19
1002
0000
0010
0000
1000
0000
0103
0000
0001
1000
0001
0000
0010
0000
0100
0000
,  // measure 20
2000
0000
0000
3010
1000
0000
0100
0000
,  // measure 21
0020
0000
0000
0031
0010
0000
0001
0000
,  // measure 22
0200
0000
0000
0310
0100
0000
0100
0000
,  // measure 23
0002
0000
0000
1003
0010
0010
0100
0100
,  // measure 24
0001
0010
1000
0010
0001
0000
0001
0000
,  // measure 25
1000
0100
0010
0000
0100
0010
0001
0000
,  // measure 26
1000
0010
0001
0010
1000
0000
0001
0000
,  // measure 27
1000
0100
1000
1000
0001
0100
0001
0001
,  // measure 28
1000
0100
0001
0100
1000
0000
1000
0000
,  // measure 29
0001
0010
0100
0000
0010
0100
1000
0000
,  // measure 30
0001
0100
1000
0100
0001
1000
0001
0001
,  // measure 31
1000
0001
0000
0000
0001
1000
0000
0000
0200
0000
0000
0000
0000
0000
0300
0000
,  // measure 32
1000
0000
0000
1000
0010
0000
1000
0000
0100
0000
0010
0000
0001
0000
0100
0000
,  // measure 33
0120
0000
0130
0100
0001
0010
1000
0010
,  // measure 34
0001
0000
0000
0001
0100
0000
0001
0000
0010
0000
0100
0000
1000
0000
0010
0000
,  // measure 35
0210
0010
0000
0310
0000
0010
0000
0010
,  // measure 36
1000
0000
0000
0100
0000
0000
0010
0000
0000
0001
0000
0000
0100
0000
0001
0000
,  // measure 37
1000
0000
0001
0000
1000
0001
1000
0000
,  // measure 38
0001
0000
0000
0010
0000
0000
0100
0000
0000
1000
0000
0000
0010
0000
1000
0000
,  // measure 39
0001
0000
1000
0000
0001
1000
0001
0000
,  // measure 40
0200
0000
0000
0302
0000
0000
0023
0000
0000
0230
0000
0000
2300
0000
0020
3000
,  // measure 41
0200
0030
0000
0300
0001
0000
1000
0000
0100
0000
1000
0000
0001
0000
0010
0000
,  // measure 42
0200
0000
0000
2300
0000
0000
3020
0000
0000
0230
0000
0000
0302
0000
0020
0003
,  // measure 43
0200
0030
0000
0000
0000
0000
0000
0300
0000
0000
0000
0000
0000
0000
0100
0000
,  // measure 44
1000
0010
0001
0010
0110
0000
0000
0000
;
