#VERSION:0.81;
#TITLE:Floor Burn;
#SUBTITLE:;
#ARTIST:Fracus and Darwin;
#TITLETRANSLIT:;
#SUBTITLETRANSLIT:;
#ARTISTTRANSLIT:;
#GENRE:;
#ORIGIN:;
#CREDIT:;
#BANNER:Floor Burn.png;
#BACKGROUND:Floor Burn-bg.png;
#PREVIEWVID:;
#JACKET:jacket.jpg;
#CDIMAGE:;
#DISCIMAGE:;
#LYRICSPATH:;
#CDTITLE:;
#MUSIC:FloorBurn.mp3;
#OFFSET:-0.009200;
#SAMPLESTART:43.952301;
#SAMPLELENGTH:12.000000;
#SELECTABLE:YES;
#DISPLAYBPM:175.000000;
#BPMS:0.000=175.000,
303.375=100.000,
303.500=55.000,
303.875=102.000,
304.000=175.000,
304.375=100.000,
304.500=55.000,
304.875=101.000,
305.000=175.000,
305.375=100.000,
305.500=55.000,
305.875=102.000,
306.000=175.000;
#STOPS:191.000=0.343;
#DELAYS:;
#WARPS:;
#TIMESIGNATURES:0.000=4=4;
#TICKCOUNTS:0.000=4;
#COMBOS:0.000=1;
#SPEEDS:0.000=1.000=0.000=0;
#SCROLLS:0.000=1.000;
#FAKES:;
#LABELS:0.000=Song Start;
#BGCHANGES:;
#KEYSOUNDS:;
#ATTACKS:
;

//---------------dance-single - ----------------
#NOTEDATA:;
#CHARTNAME:;
#STEPSTYPE:dance-single;
#DESCRIPTION:;
#CHARTSTYLE:;
#DIFFICULTY:Hard;
#METER:10;
#RADARVALUES:0.736466,1.000000,0.318438,0.335651,0.757367,523.000000,37.000000,39.000000,0.000000,0.000000,0.000000,0.000000,0.000000,0.736466,1.000000,0.318438,0.335651,0.757367,523.000000,37.000000,39.000000,0.000000,0.000000,0.000000,0.000000,0.000000;
#CREDIT:;
#DISPLAYBPM:175.000000;
#NOTES:
// measure 0
0000
0000
0000
0000
,  // measure 1
0000
0000
0000
0000
,  // measure 2
0000
0000
0000
0000
,  // measure 3
0000
0000
0000
0000
,  // measure 4
0000
0000
0000
0000
,  // measure 5
0000
0000
0000
0000
,  // measure 6
0000
0000
0000
0000
,  // measure 7
0000
0000
0000
0000
,  // measure 8
1000
0000
0000
0010
0000
0010
0000
0010
0000
0000
0100
0000
0001
0000
1000
0000
,  // measure 9
0100
0000
0010
0000
0100
1000
0001
0000
0001
0100
0000
0000
0100
0000
0010
0000
,  // measure 10
0001
0000
1000
0000
0001
0100
0010
0000
0000
1000
0000
1000
0000
0001
0010
0000
,  // measure 11
0100
0000
0001
0000
1000
0100
0010
0000
0000
0001
0000
0001
0000
0100
0001
0010
,  // measure 12
0100
0000
0000
1000
0000
1000
0000
1000
0000
0000
0001
0000
0100
0000
0010
0000
,  // measure 13
1000
0000
0001
0000
0010
0001
1000
0000
1000
0100
0000
0000
0100
0000
0010
0000
,  // measure 14
1000
0000
0001
0000
1000
0001
0100
0000
0000
0010
0000
0010
0000
1000
0100
0010
,  // measure 15
0001
0000
0100
0000
0001
1000
0100
0000
0000
0010
0000
0001
0000
0100
0001
1000
,  // measure 16
0010
0000
0000
0100
0000
0100
0000
0100
0000
0000
0001
0000
1000
0000
0100
0000
,  // measure 17
0010
0000
0000
0100
0000
0100
0000
0100
0000
0000
1000
0000
0010
0000
0100
0000
,  // measure 18
0001
0000
0000
0010
0000
0010
0000
0010
0000
0000
0001
0000
1000
0000
0010
0000
,  // measure 19
0100
0000
0000
0010
0000
0010
0000
0010
0000
0000
1000
0000
0001
0000
0010
0000
,  // measure 20
0011
0000
0000
0100
0000
0100
0000
0100
1010
0000
0000
0100
0000
0100
0000
0100
,  // measure 21
0011
0000
0000
0100
0000
0100
0000
0100
1010
0000
0000
0100
0000
0100
0000
0100
,  // measure 22
1001
0000
0100
0000
0010
0000
0001
0000
1000
0010
0100
0001
0010
0100
1000
0001
,  // measure 23
0100
0000
0000
0110
0000
0000
1010
0000
1000
0100
0000
0000
0101
0000
0000
0000
,  // measure 24
1001
0000
0000
1000
0000
0100
0000
1100
0000
0000
1000
0000
0010
0000
0100
0000
,  // measure 25
1000
0000
0100
0000
0001
0000
1000
0000
0100
0001
0000
0000
1001
0000
0001
0000
,  // measure 26
0011
0000
1000
0000
0100
0000
0010
0000
0000
1000
0000
1000
0100
0000
1000
0000
,  // measure 27
1010
0000
1000
0000
0100
0000
0001
0000
0000
1000
0000
0100
0000
0001
0010
0100
,  // measure 28
1000
0000
0000
0010
0000
0100
0000
0110
0000
0000
1000
0000
0001
0000
0010
0000
,  // measure 29
1000
0000
0010
0000
0100
0000
0001
0000
0010
1000
0000
0000
1001
0000
0100
0000
,  // measure 30
1010
0000
0001
0000
1000
0000
0010
0000
0000
0100
0000
0100
0000
1000
0001
0100
,  // measure 31
0010
0000
0100
0000
0001
0000
0010
0000
0000
1000
0000
0100
0000
0001
0100
0010
,  // measure 32
1000
0000
0000
0001
0000
1000
0000
0101
0000
0000
0001
0000
0010
0000
1000
0000
,  // measure 33
0010
0000
0001
0000
1000
0000
0100
0000
0001
1000
0000
0000
0010
0000
0100
0000
,  // measure 34
1000
0000
0001
0000
0010
0000
1000
0000
0000
0100
0000
0100
0010
0000
1000
0000
,  // measure 35
0001
0000
0100
0000
0010
0000
0001
0000
0000
1000
0000
1000
0000
0100
0010
0001
,  // measure 36
2000
0000
0000
3010
0000
0010
0000
0010
0000
0000
0001
0000
1000
0000
0100
0000
,  // measure 37
0011
1000
0001
0100
0010
0001
0100
0010
,  // measure 38
1100
0000
0001
0000
0100
0000
1000
0000
0001
0100
0010
0100
0001
0010
1000
0010
,  // measure 39
0100
0000
1000
0000
0000
0100
0001
0000
0000
0000
0000
0000
0000
0000
0000
0000
,  // measure 40
2001
0000
0100
3200
0000
0000
0010
0320
,  // measure 41
0000
0000
0001
0032
0000
0000
0100
0203
,  // measure 42
0000
0000
0010
0320
0000
0000
1000
2030
,  // measure 43
0000
0000
0100
3200
0000
0000
0302
0000
,  // measure 44
0023
0000
0100
0230
0000
0000
0001
0302
,  // measure 45
0000
0000
0010
0023
0000
0000
0100
0230
,  // measure 46
0000
0000
1000
2300
0000
0000
0010
3020
,  // measure 47
0000
0000
0100
0230
0000
0000
0300
0000
,  // measure 48
1000
0200
0000
0000
0301
0200
0000
0000
,  // measure 49
1300
0020
0000
0000
0031
2000
0000
0000
,  // measure 50
3010
0200
0000
0000
0301
0020
0000
0000
,  // measure 51
1030
0002
0000
0000
0103
0000
1100
1000
,  // measure 52
1001
1000
1010
0010
0110
0100
0101
0001
,  // measure 53
1001
0000
1000
0000
1100
0000
0100
0000
0110
0000
0010
0000
0001
0100
0010
0100
,  // measure 54
0001
0010
0100
0010
0001
0100
1000
0100
0001
0010
1000
0010
0001
0000
0000
0000
,  // measure 55
0000
0000
0000
0000
1000
0000
0000
0000
0000
0000
0000
0000
1000
0000
0000
0100
,  // measure 56
0000
0010
0000
0100
0000
0000
1000
0000
0001
0000
0100
0000
0010
0000
1000
0000
,  // measure 57
0001
0010
0100
0000
0010
0001
0000
0000
1000
0000
0100
0000
0010
0000
0001
0000
,  // measure 58
1000
0010
0100
0000
0000
0001
0000
0010
0000
0001
0100
0000
0010
0000
1000
0000
,  // measure 59
0001
0010
0100
0000
0000
1000
0000
0010
0000
1000
0100
0010
0001
0000
0000
0100
,  // measure 60
0000
0010
0000
0100
0000
0000
0001
0000
1000
0000
0100
0000
0010
0000
0001
0000
,  // measure 61
1000
0010
0100
0000
0010
1000
0000
0000
0001
0000
0100
0000
0010
0000
1000
0000
,  // measure 62
0001
0010
0100
0000
0000
1000
0000
0010
0000
1000
0100
0010
0001
0000
1000
0000
,  // measure 63
0001
0010
0100
0000
0000
1000
0000
0010
0000
0100
0001
1000
0100
0000
0000
0001
,  // measure 64
0000
0010
0000
0100
0000
0000
0010
0000
1000
0000
0001
0000
0010
0000
0100
0000
,  // measure 65
0001
0100
0010
0000
1000
0001
0000
0000
0100
0000
1000
0000
0010
0000
0100
0000
,  // measure 66
0001
1000
0100
0000
0000
0001
0000
0010
0000
0100
0001
0000
1000
0000
0100
0000
,  // measure 67
0010
0100
0001
0000
0000
1000
0000
0100
0000
0001
0100
0010
1000
0000
0000
0010
,  // measure 68
0000
0001
0000
1000
0000
0000
0100
0000
0001
0000
0010
0000
0100
0000
0001
0000
,  // measure 69
0010
0001
0100
0000
1000
0010
0000
0000
0001
0000
0100
0000
0010
0000
0001
0000
,  // measure 70
1000
0100
0010
0000
0000
0100
0000
0010
0000
1000
0100
0010
0001
0000
1000
0000
,  // measure 71
0100
0001
0000
0000
0000
0000
0000
0000
1000
0001
1000
0000
2002
0000
0000
3003
,  // measure 72
0000
0000
0000
0000
0000
0000
0000
0000
1000
0100
1000
0000
2200
0000
0000
3300
,  // measure 73
0000
0000
0000
0000
0000
0000
0000
0000
0001
0100
0001
0000
0202
0000
0000
0303
,  // measure 74
0000
0000
0000
0000
0000
0000
0000
0000
0100
0010
0100
0000
0220
0000
0000
0330
,  // measure 75
0000
0000
0000
0000
0000
0000
0000
0000
1000
0001
1000
0000
1001
0000
0000
0000
,  // measure 76
0110
0000
0000
0000
0022
0000
0033
0000
2020
0000
3030
0000
0100
0010
0100
0010
,  // measure 77
0100
0001
1000
0100
0010
0001
1000
0010
0100
0001
0010
0100
1000
0010
0001
0010
,  // measure 78
2000
3000
0002
0003
,  // measure 79
1001
0000
0000
0000
;

//---------------dance-single - ----------------
#NOTEDATA:;
#CHARTNAME:;
#STEPSTYPE:dance-single;
#DESCRIPTION:;
#CHARTSTYLE:;
#DIFFICULTY:Medium;
#METER:8;
#RADARVALUES:0.572943,0.645914,0.258193,0.240980,0.154916,408.000000,30.000000,28.000000,0.000000,0.000000,0.000000,0.000000,0.000000,0.572943,0.645914,0.258193,0.240980,0.154916,408.000000,30.000000,28.000000,0.000000,0.000000,0.000000,0.000000,0.000000;
#CREDIT:;
#DISPLAYBPM:175.000000;
#NOTES:
0000
0000
0000
0000
,
0000
0000
0000
0000
,
0000
0000
0000
0000
,
0000
0000
0000
0000
,
0000
0000
0000
0000
,
0000
0000
0000
0000
,
0000
0000
0000
0000
,
0000
0000
0000
0000
,
1000
0000
0000
0001
0000
0100
0000
0001
0000
0000
1000
0000
0001
0000
0100
0000
,
0001
1000
0001
0010
0100
0000
0100
1000
,
0010
0000
0100
0000
0001
0000
0010
0000
0000
0100
0000
0010
0000
0000
0001
0000
,
1000
0000
0100
0000
0010
0000
0001
0000
0000
0100
0000
0001
0000
0000
1000
0000
,
0001
0000
0000
1000
0000
0100
0000
1000
0000
0000
0001
0000
1000
0000
0100
0000
,
1000
0001
1000
0010
0100
0000
0100
0001
,
0010
0000
0100
0000
1000
0000
0010
0000
0000
0100
0000
0010
0000
0000
0001
0000
,
1000
0000
0100
0000
0010
0000
0001
0000
0000
0010
0000
0100
0000
0000
0001
0000
,
1001
0100
0100
0100
,
1010
0001
0001
0001
,
0110
1000
1000
1000
,
0011
0100
0100
0100
,
1010
0000
0000
0100
0000
0000
0000
0000
1001
0000
0000
0010
0000
0000
0000
0000
,
1100
0000
0000
0010
0000
0000
0000
0000
0101
0000
0000
0000
0010
0000
0100
0000
,
0010
1000
0001
0010
0100
1000
0001
0100
,
0010
0000
0000
1000
0000
0000
0001
0000
1000
0100
0000
1000
0001
0000
0000
0000
,
1001
0001
1000
0000
0100
0010
0001
1000
,
0010
1000
0100
1000
0010
0000
1000
0001
,
0011
0000
0100
1000
0100
0000
0001
1000
,
1100
0000
0010
0001
0010
0000
1000
0001
,
1001
1000
0100
0000
0010
0001
0100
0001
,
1000
0001
0100
0001
1000
0000
0100
0010
,
0011
0001
1000
0000
0010
1000
0001
1000
,
1010
0010
0100
0000
0001
0100
1000
0100
,
0101
0001
1000
0000
0100
0001
0010
0000
,
0100
1000
0010
0100
0001
0000
0001
0100
,
0110
0010
1000
0000
1000
0100
0010
0100
,
0110
0010
0001
0000
0001
0100
0010
0100
,
0110
1000
0001
0100
0001
1000
0100
1000
,
0110
0001
1000
0100
1000
0001
0100
0001
,
0110
1000
0100
0010
0001
0100
1000
0100
,
0001
0000
0010
0000
0000
0001
1000
0000
0000
0000
0000
0000
0000
0000
0000
0000
,
1200
0000
0000
0302
0000
0000
0000
2003
,
0000
0000
0000
3020
0000
0000
0000
0230
,
0000
0000
0000
2300
0000
0000
0000
3002
,
0000
0000
0000
0203
0000
0000
0310
0000
,
1002
0000
0000
0203
0000
0000
0000
0320
,
0000
0000
0000
0032
0000
0000
0000
0023
,
0000
0000
0000
2030
0000
0000
0000
3200
,
0000
0000
0000
0320
0000
0000
0030
0000
,
0001
0002
0000
0000
0103
0200
0000
0000
,
0010
0320
0000
0000
1000
2030
0000
0000
,
0100
3200
0000
0000
0010
0320
0000
0000
,
0001
0032
0000
0000
2003
0000
3010
0001
,
1000
0001
0010
0001
1000
0001
0100
0001
,
1000
0001
0100
0001
1000
0001
0010
0100
,
1000
0001
0100
0010
1000
0100
0001
0000
,
0000
0000
0000
0000
1000
0000
0000
0000
0000
0000
0000
0000
0001
0000
0000
0100
,
0000
0010
0000
0100
0000
0000
0001
0000
1000
0000
0100
0000
1000
0000
0010
0000
,
0100
1000
0001
0000
1000
0001
0100
0001
,
0010
0000
1000
0000
0000
0001
0000
0100
0000
0000
1000
0000
0010
0000
1000
0000
,
0100
0000
0001
0000
0000
0100
0000
0010
0000
0000
0100
0000
1000
0000
0000
0010
,
0000
0100
0000
0010
0000
0000
1000
0000
0001
0000
0010
0000
0001
0000
0100
0000
,
0010
0001
1000
0000
0001
1000
0010
1000
,
0100
0000
0001
0000
0000
1000
0000
0010
0000
0000
0001
0000
0100
0000
0001
0000
,
0010
0000
1000
0000
0000
0010
0000
0100
0000
0000
1000
0000
0001
0000
0010
0000
,
0010
0010
0001
1000
0010
0100
0001
1000
,
0010
0001
1000
0010
0100
1000
0001
0100
,
0010
0001
1000
1000
1000
0010
0100
0001
,
0010
1000
0100
0100
0100
0001
1000
0100
,
0100
0100
1000
0001
0100
0010
1000
0001
,
0100
1000
0001
0100
0010
0001
1000
0010
,
0100
1000
0001
0001
0001
0100
0010
1000
,
0100
0001
0000
0000
0000
0000
0000
0000
0000
0000
0000
0000
0011
0000
0000
0000
,
0000
0000
0000
0000
1000
1000
1100
0000
,
0000
0000
0000
0000
0001
0001
0101
0000
,
0000
0000
0000
0000
0010
0010
1010
0000
,
0000
0000
0000
0000
1000
1000
1001
0000
,
0100
0000
2002
3003
0220
0330
0100
0100
,
1000
0100
0001
1000
0010
0001
0010
1000
,
0001
0000
0100
0000
,
0110
0000
0000
0000
;

//---------------dance-single - ----------------
#NOTEDATA:;
#CHARTNAME:;
#STEPSTYPE:dance-single;
#DESCRIPTION:;
#CHARTSTYLE:;
#DIFFICULTY:Easy;
#METER:5;
#RADARVALUES:0.394667,0.543927,0.137703,0.284013,0.000000,272.000000,16.000000,33.000000,0.000000,0.000000,0.000000,0.000000,0.000000,0.394667,0.543927,0.137703,0.284013,0.000000,272.000000,16.000000,33.000000,0.000000,0.000000,0.000000,0.000000,0.000000;
#CREDIT:;
#DISPLAYBPM:175.000000;
#NOTES:
0000
0000
0000
0000
,
0000
0000
0000
0000
,
0000
0000
0000
0000
,
0000
0000
0000
0000
,
0000
0000
0000
0000
,
0000
0000
0000
0000
,
0000
0000
0000
0000
,
0000
0000
0000
0000
,
1000
0100
0010
0100
,
1000
0010
0100
0010
,
1000
0001
0100
0001
,
1000
0000
0001
0000
0010
0000
0100
1000
,
0001
0100
0010
0100
,
0001
0010
0100
0010
,
0001
0100
1000
0100
,
0001
0000
0010
0000
1000
0001
0100
0001
,
1000
0100
0100
0100
,
0001
0100
0100
0100
,
1000
0010
0010
0010
,
0001
0100
0100
0100
,
1001
0000
0110
0000
,
1100
0000
0011
0000
,
1001
0100
1001
0100
,
0011
0000
0000
0110
0000
0000
1100
0000
,
1000
0100
0001
0100
,
1000
1000
0001
0100
,
0010
0001
1000
0100
,
0010
0000
1000
0000
0001
0000
0100
0001
,
1000
0010
0001
0010
,
1000
1000
0001
0100
,
0010
0001
1000
0100
,
0001
0000
0010
0000
1000
0000
0001
1000
,
0001
0100
1000
0100
,
0001
0001
1000
0100
,
0010
1000
0001
0100
,
0010
0000
0001
0000
1000
0000
0100
1000
,
0001
0001
0100
0100
,
1000
1000
0100
0100
,
0010
0000
0010
0000
0100
0010
0100
0010
,
0100
0000
0000
0000
,
2000
0000
0000
3200
0000
0000
0000
0320
,
0000
0000
0000
0032
0000
0000
0000
0023
,
0000
0000
0000
0230
0000
0000
0000
2300
,
0000
0000
0000
3002
0000
0000
0203
0000
,
0302
0000
0000
0203
0000
0000
0000
0320
,
0000
0000
0000
2030
0000
0000
0000
3020
,
0000
0000
0000
0230
0000
0000
0000
0302
,
0000
0000
0000
2003
0000
0000
3002
0000
,
0103
2000
3100
0002
,
0013
2000
3010
0200
,
0301
0200
1300
0020
,
1030
0020
0031
2000
,
3200
0302
0203
2300
,
3020
0000
0032
0000
0023
0000
1030
0100
,
1000
0000
0001
0100
0001
0000
0010
0000
,
0000
0100
0000
1000
,
1000
0100
0001
0001
,
1000
1000
0001
0010
,
0100
0010
0001
1000
,
0010
0100
0010
1000
,
1000
0100
0001
0001
,
1000
1000
0001
0010
,
0100
0010
0001
0010
,
1000
0010
0001
0001
,
0100
1000
1000
0001
,
0001
1000
0100
0010
,
0100
1000
0001
0100
,
0010
0100
0001
0001
,
0100
1000
1000
0001
,
0001
1000
0100
0010
,
0100
0000
1000
0000
0010
0000
1000
0001
,
1000
0000
0000
1010
,
0100
0100
0100
0011
,
0100
0100
0100
1010
,
0100
0100
0100
0011
,
0100
0100
0100
1000
,
0001
1001
0110
0100
,
0001
1000
0001
1000
0001
0100
0001
0100
,
0010
0000
0100
0000
,
0110
0000
0000
0000
;
