#TITLE:FUNKY SUMMER BEACH;
#SUBTITLE:;
#ARTIST:P*Light;
#TITLETRANSLIT:;
#SUBTITLETRANSLIT:;
#ARTISTTRANSLIT:;
#GENRE:;
#CREDIT:;
#BANNER:ikimonogakari-banner.png;
#BACKGROUND:FUNKY SUMMER BEACH-BG.PNG;
#LYRICSPATH:;
#CDTITLE:;
#MUSIC:FUNKY SUMMER BEACH.ogg;
#OFFSET:0.500000;
#SAMPLESTART:34.479847;
#SAMPLELENGTH:13.300000;
#SELECTABLE:YES;
#DISPLAYBPM:175.000000;
#BPMS:0.000000=175.000000
,92.500000=87.500000
,93.000000=175.000000
;
#STOPS:90.000000=0.172000,
93.000000=0.172000,
100.500000=0.172000
;
#BGCHANGES:;
#KEYSOUNDS:;
#ATTACKS:;

//---------------dance-single - ----------------
#NOTES:
     dance-single:
     :
     Hard:
     10:
     0.713538,0.767734,0.115332,0.017743,0.390355,548.000000,13.000000,2.000000,0.000000,0.000000,0.000000,0.713538,0.767734,0.115332,0.017743,0.390355,548.000000,13.000000,2.000000,0.000000,0.000000,0.000000:
0000
0000
0000
0000
,
0000
0000
0000
0000
,
0000
0000
0000
0000
,
0000
0000
0000
0000
,
0000
0000
0000
0000
,
0000
0000
0000
0000
0000
0000
1000
0001
,
0100
0010
0100
0001
0010
0100
0010
0001
,
0100
0010
1000
0001
1000
1000
0001
1000
,
0100
0010
0100
1000
0010
0100
0010
1000
,
0100
0010
0001
1000
0001
0001
1000
0100
,
0010
0000
0001
1000
0000
0001
1000
0000
0010
0000
1000
0001
1000
0001
1000
0000
,
0100
0000
1000
0001
1000
0001
1000
0000
1001
0000
0000
0000
0001
1000
0001
1000
,
0001
0000
0010
0000
0001
0100
0010
0000
1000
0000
0001
0000
1000
0100
0010
0000
,
0001
0000
1000
0000
0001
1000
0001
0000
0010
0000
0010
0000
0001
0100
0010
0000
,
0100
0000
0001
1000
0000
1000
0001
0000
0100
0000
0010
0000
1000
0100
0010
0000
,
0100
0000
1000
0001
0000
0001
1000
0000
0100
0000
0010
0000
0001
0000
0100
0000
,
1000
0100
0001
0010
0100
0000
0010
0100
,
1000
0000
0001
0000
1000
0000
1000
0000
1000
0000
1000
0000
0001
0000
0100
0010
,
0000
0010
0100
0000
0001
0000
0010
0000
0001
0100
0001
0000
1000
0000
0100
0010
,
0000
0010
0100
0000
1000
0000
0010
0000
1000
0100
1000
0000
0001
0000
0100
0010
,
0000
0100
0010
0000
1000
0000
1000
0000
0001
1000
0001
0000
1000
0000
0100
0010
,
0000
0100
0010
0000
0001
0000
0001
0000
1001
0000
0000
0000
0001
0000
0100
0010
,
0000
0100
0010
0000
1000
0000
1000
0000
0001
0000
1000
0000
0100
0010
0000
0100
,
0010
0000
0000
0000
0001
1000
0001
1000
0001
0000
0000
0000
0010
0000
0000
0000
0100
0000
1000
0000
0100
0000
0000
0000
1000
0000
0000
0000
0010
0000
0000
0000
,
0100
0001
0100
0000
0001
0000
1000
0000
0001
0000
1000
0000
0001
1000
0001
1000
,
0001
1000
0001
0000
1000
0000
0100
0010
0000
0010
0100
0000
1000
0000
0010
0000
,
1000
0100
1000
0000
0001
0000
0100
0010
0000
0010
0100
0000
0001
0000
0010
0000
,
0001
0100
0001
0000
1000
0000
0010
0100
0000
0010
0100
0000
0001
0000
0001
0000
,
1000
0001
1000
0000
0001
0000
0010
0100
0000
0010
0100
0000
1000
0000
1000
0000
,
1001
0000
0000
0000
1000
0000
0001
0100
0000
0100
0001
0000
1000
0000
0100
0000
,
0010
0001
0010
0000
0001
0000
1000
0010
0000
0010
0100
0000
0001
0000
0001
0000
,
1000
0001
1000
0000
0001
0000
1000
0100
0000
0100
1000
0000
0001
0000
0100
0000
,
0010
1000
0010
0000
1000
0000
0001
0010
0000
0010
0100
0000
1000
0000
1000
0000
,
1001
0000
0001
0100
1000
0100
0001
0100
,
1000
0000
0100
0000
0001
0000
0100
0000
1000
0000
0100
0000
0001
0000
0000
0001
,
1000
0100
0001
0100
1000
0100
0001
0100
,
1000
0100
0001
0100
1000
0010
0100
0001
,
0010
0100
1000
0010
0100
0010
1000
0010
,
0100
0100
0001
0010
0100
0010
0001
0010
,
0100
0100
1000
0010
0001
0010
1000
0010
,
0001
0010
1000
0100
0010
0001
0100
0010
,
1000
1000
1001
0000
0000
0000
0000
0000
,
0000
0000
0000
0000
,
0000
0000
1001
0000
0001
0100
1000
0100
,
0001
0010
0100
0000
0110
0000
0010
0100
,
1000
0000
0001
0100
1000
0100
0001
0010
,
1000
0010
0001
0000
1000
0001
1000
0000
,
1001
0000
1000
0100
0001
0100
1000
0000
,
0001
0100
1000
0100
0001
0010
0100
0000
,
0010
0100
1000
0010
0100
0001
0000
0001
,
1000
0001
2000
0000
0000
0000
0000
0000
,
0000
0000
3001
0000
1000
0100
0001
0100
,
1000
0010
0100
0000
0110
0000
0010
0100
,
0001
0000
1000
0100
0001
0100
1000
0010
,
0001
0010
1000
0000
0001
1000
0001
0000
,
1001
0000
0001
0100
1000
0100
0001
0000
,
1000
0100
0001
0100
1000
0010
0100
0000
,
0010
0100
0001
0010
0100
1000
0000
1000
,
0001
1000
0002
0000
0000
0000
0000
0000
,
1003
0000
0000
0000
0001
0000
0000
0100
0000
0000
1000
0000
0000
0100
0000
0000
,
0001
0000
1000
0000
0001
0000
0000
0001
0000
0000
1000
0000
0000
1001
0000
0000
,
1000
0000
0001
0000
1000
0000
0000
0100
0000
0000
0001
0000
0000
0100
0000
0000
,
1000
0000
0001
0000
1000
0000
0000
1000
0000
0000
0001
0000
0000
1001
0000
0000
,
0001
0000
1000
0000
0001
0000
0010
0100
0000
0010
0001
0000
0100
0010
0000
0010
,
1000
0000
0001
0000
1000
0000
0010
0100
0000
0010
1000
0000
0100
0010
0000
0010
,
0001
0000
1000
0000
0001
0000
0100
0010
0000
0010
1000
0000
1000
0100
0000
0100
,
1000
0000
0001
0000
1000
0000
0100
0010
0000
0010
0001
0000
0001
0100
0000
0100
,
0001
0000
1000
0100
0001
0100
1000
0100
,
0001
0000
0100
0000
1000
0000
0100
0000
0001
0000
0100
0000
1000
0000
0000
1000
,
0001
0100
1000
0100
0001
0100
1000
0100
,
0001
0100
1000
0100
0001
0010
0100
1000
,
0010
0100
0001
0010
0100
0010
0001
0010
,
0100
0100
1000
0010
0100
0010
1000
0010
,
0100
0100
0001
0010
1000
0010
0001
0010
,
1000
0010
0001
0100
0010
1000
0100
0010
,
0001
0001
1001
0000
0000
0000
0000
0000
;

//---------------dance-single - ----------------
#NOTES:
     dance-single:
     :
     Medium:
     9:
     0.621019,0.734355,0.479072,0.124204,0.190741,422.000000,54.000000,14.000000,6.000000,0.000000,0.000000,0.621019,0.734355,0.479072,0.124204,0.190741,422.000000,54.000000,14.000000,6.000000,0.000000,0.000000:
// measure 0
0000
0000
0000
0000
,  // measure 1
0000
0000
0000
0000
,  // measure 2
0000
0000
0000
0000
,  // measure 3
0000
0000
0000
0000
,  // measure 4
0000
0000
0000
0000
,  // measure 5
0000
0000
0000
0000
0000
0000
1000
0001
,  // measure 6
0100
0010
0000
0001
0100
0010
0000
0001
,  // measure 7
0100
0010
MM1M
0001
1000
1000
0001
1000
,  // measure 8
0100
0010
0000
1000
0100
0010
0000
1000
,  // measure 9
0100
0010
MM1M
1000
0001
0001
1000
0001
,  // measure 10
0100
0001
1000
0100
0001
0100
1000
0010
,  // measure 11
0100
0001
1000
0001
1000
0000
0001
0100
,  // measure 12
0010
0100
0001
0010
0100
0010
0001
0100
,  // measure 13
0001
0100
0010
1000
0010
1000
0000
1000
,  // measure 14
0100
0010
0001
0010
0100
1000
0010
0100
,  // measure 15
0010
0100
0001
1000
0001
1000
0001
0100
,  // measure 16
1000
0100
0001
0010
0100
0000
0010
0100
,  // measure 17
1000
0001
1000
1000
1000
1000
1002
0000
,  // measure 18
1000
0000
0100
0000
0013
0100
2000
0000
,  // measure 19
3001
0000
0001
0001
0001
0001
2001
0000
,  // measure 20
0001
0000
0100
0000
3010
0100
0002
0000
,  // measure 21
1003
0000
0000
0000
1001
0000
0000
0000
1001
0000
0000
0000
1000
0000
0100
0010
,  // measure 22
0000
0100
0010
0000
0001
0000
0001
0000
1001
0000
0001
0000
0100
0010
0000
0100
,  // measure 23
0010
0000
0000
0000
1000
0001
1000
0001
1000
0000
0000
0000
0100
0000
0000
0000
0010
0000
0001
0000
0000
0000
0010
0000
0001
0000
0000
0000
0100
0000
0000
0000
,  // measure 24
0010
1000
0000
0010
1000
0000
0001
0000
1000
0000
0001
0000
1000
0001
1000
0001
,  // measure 25
1000
0001
1000
0000
0001
0000
0000
0100
0000
0000
0010
0000
0100
0000
0001
0000
,  // measure 26
1000
0000
0001
0000
1000
0000
0000
0100
0000
0000
0010
0000
0100
0000
1000
0000
,  // measure 27
0010
0100
0010
0000
1000
0000
0000
0100
0000
0000
0010
0000
0100
0000
1000
0000
,  // measure 28
0001
0000
1000
0000
0001
0000
0000
0001
0000
0000
1000
0000
0001
0000
1000
0000
,  // measure 29
0001
0000
0000
0000
1000
0000
0000
0100
0000
0000
0010
0000
0100
0000
1000
0000
,  // measure 30
0001
0000
1000
0000
0001
0000
0000
0100
0000
0000
0010
0000
0100
0000
0001
0000
,  // measure 31
0010
0100
0010
0000
0001
0000
0000
0100
0000
0000
0010
0000
0100
0000
0001
0000
,  // measure 32
1000
0000
0001
0000
1000
0000
0000
1000
0000
0000
0001
0000
1000
0000
0001
0000
,  // measure 33
1000
0000
0001
1000
0000
1100
0000
0011
,  // measure 34
0000
0101
0000
1010
0000
1000
0010
0000
,  // measure 35
0010
1000
0000
1100
0000
0011
0000
0101
,  // measure 36
0000
1010
0000
1000
0100
0001
0100
1000
,  // measure 37
0010
0100
0000
0110
0000
0110
0000
0010
,  // measure 38
0100
0001
0000
1001
0000
1001
0000
1000
,  // measure 39
1000
1000
0000
1100
0000
1001
0000
0101
,  // measure 40
0000
1001
0000
0001
1000
0001
1000
1000
,  // measure 41
0001
0001
1001
0000
0000
0000
0000
0000
,  // measure 42
0000
0000
0000
0000
,  // measure 43
0000
0000
1001
0000
1000
0100
0001
0100
,  // measure 44
1000
0010
0100
0000
0110
0000
0010
0100
,  // measure 45
0001
0000
1000
0100
0001
0100
1000
0010
,  // measure 46
0001
0010
1000
0000
0001
1000
0001
0000
,  // measure 47
1001
0000
0001
0100
1000
0100
0001
0000
,  // measure 48
1000
0100
0001
0100
1000
0010
0100
0000
,  // measure 49
0010
0100
0001
0010
0100
1000
0000
1000
,  // measure 50
0001
1000
0001
0000
0000
0000
0000
0000
,  // measure 51
0000
1002
0100
0010
,  // measure 52
1003
2010
3001
0012
,  // measure 53
1003
2001
0100
0010
,  // measure 54
3001
0012
1003
2010
,  // measure 55
3001
0012
0100
0010
,  // measure 56
1003
2010
0100
0010
,  // measure 57
3001
0012
1003
2010
,  // measure 58
3001
0000
0000
0000
1000
0000
0001
0000
1000
0000
0001
1000
0001
1000
0001
1000
,  // measure 59
0001
0000
0000
0000
1000
0000
0000
0100
0000
0000
0010
0000
0000
0100
0000
0000
,  // measure 60
1000
0000
1000
0000
0001
0000
0000
0100
0000
0000
0010
0000
0000
0100
0000
0000
,  // measure 61
0001
0000
0001
0000
1000
0000
0000
0100
0000
0000
0001
0000
0000
0100
0000
0000
,  // measure 62
1000
0000
1000
0000
0001
0000
0000
0100
0000
0000
1000
0000
0000
0100
0000
0000
,  // measure 63
0001
0000
0001
0000
1000
0000
0000
0010
0000
0000
0100
0000
0000
0100
0000
0000
,  // measure 64
0001
0000
0100
0000
0001
0000
0000
0010
0000
0000
0100
0000
0000
0100
0000
0000
,  // measure 65
1000
0000
0100
0000
1000
0000
0000
1000
0000
0000
0001
0000
0000
1001
0000
0000
,  // measure 66
0001
0000
1000
0000
0001
0000
0000
0001
0000
0000
1000
0000
0000
1001
0000
0000
,  // measure 67
1000
0001
1000
0001
0000
0101
0000
1010
,  // measure 68
0000
1100
0000
0011
0000
0001
0010
0000
,  // measure 69
0010
0001
0000
0101
0000
1010
0000
1100
,  // measure 70
0000
0011
0000
0001
0100
1000
0100
0001
,  // measure 71
0010
0100
0000
0110
0000
0110
0000
0010
,  // measure 72
0100
1000
0000
1001
0000
1001
0000
0001
,  // measure 73
0001
0001
0000
1001
0000
0101
0000
1001
,  // measure 74
0000
1100
0000
1000
0001
1000
0001
0001
,  // measure 75
1000
1000
1001
0000
0000
0000
0000
0000
;

//---------------dance-single - ----------------
#NOTES:
     dance-single:
     :
     Easy:
     6:
     0.487943,0.500696,0.532302,0.230664,0.004436,299.000000,60.000000,26.000000,0.000000,0.000000,0.000000,0.487943,0.500696,0.532302,0.230664,0.004436,299.000000,60.000000,26.000000,0.000000,0.000000,0.000000:
0000
0000
0000
0000
,
0000
0000
0000
0000
,
0000
0000
0000
0000
,
0000
0000
0000
0000
,
0000
0000
0000
0000
,
0000
0000
0000
0012
,
1000
0000
1000
0000
,
1003
0001
1000
2010
,
0001
0000
0001
0000
,
3001
1000
0001
1000
,
0100
0010
0100
1000
,
0001
1000
1001
0001
,
0100
0010
0100
0001
,
1000
0001
1001
1000
,
0100
0010
0010
0001
,
0100
0010
0010
1000
,
1000
0001
0001
1000
,
0001
1000
0001
2001
,
0001
0001
0001
0001
,
0001
3001
1001
1002
,
1000
1000
1000
1000
,
1000
1003
1001
2010
,
3001
0000
1000
0001
1000
0012
0000
1003
,
0000
0000
0001
1000
0001
0000
1000
0000
0010
0000
0100
0000
0000
0000
0001
0000
,
0010
0100
0000
1000
0001
1000
0001
1000
,
0001
1000
0001
0000
0100
0000
0010
1000
,
0010
0000
1000
0000
0100
0000
0010
0001
,
0010
0000
0001
0000
0100
0000
0010
1000
,
0010
0000
1000
0000
0100
0000
0010
0001
,
0010
0000
0001
0000
1000
0000
0001
1000
,
0001
0000
1000
0000
1000
0000
0001
1000
,
0001
0000
1000
0000
0001
0000
1000
0001
,
1000
0000
0001
0000
0001
0000
1000
0001
,
1000
0000
0001
1000
0000
1100
0000
0011
,
0000
0101
0000
1010
0000
1000
0010
0000
,
0010
1000
0000
1100
0000
0011
0000
0101
,
0000
1010
0000
1000
0001
1000
0001
1000
,
0001
1000
0000
1001
0000
1001
0000
1000
,
0001
1000
0000
1001
0000
1001
0000
0001
,
1000
0001
0000
0101
0000
1010
0000
1100
,
0000
0011
0000
0001
1000
0001
1000
1000
,
0001
0001
1001
0000
0000
0000
0000
0000
,
0000
0000
0000
0000
,
0000
0000
1002
0000
0000
2003
0000
0001
,
3001
0000
0000
0000
,
0000
0000
2001
0000
0000
3002
0000
1000
,
1003
0000
0000
0000
,
0000
0000
2010
0000
0000
3002
0000
1000
,
1003
0000
0100
0010
0000
0100
0010
0000
,
0110
0000
0012
0000
0000
2003
0000
0001
,
3001
0000
0000
0000
,
0000
2001
0100
0010
,
3001
0012
1003
2010
,
3001
1002
0100
0010
,
1003
2010
3001
0012
,
1003
2010
0010
0100
,
3001
0012
0010
0100
,
1003
2010
3001
0012
,
1003
2002
0000
0000
,
3003
0001
0100
0010
,
1000
0001
1000
0000
0100
0000
0010
0000
,
0001
1000
0001
0000
0100
0000
1000
0000
,
0100
0001
1000
0000
0100
0000
0001
0000
,
0100
1000
0001
0000
0100
0000
0010
0000
,
1000
0001
1000
0000
0100
0000
0010
0000
,
0001
1000
0001
0000
0010
0000
0100
0000
,
1000
0001
1000
0000
0010
0000
0100
0000
,
0001
1000
0001
1000
0000
1100
0000
0011
,
0000
0101
0000
1010
0000
1000
0010
0000
,
0010
1000
0000
1100
0000
0011
0000
0101
,
0000
1010
0000
1000
0001
1000
0001
1000
,
0001
1000
0000
1001
0000
1001
0000
0001
,
1000
0001
0000
1001
0000
1001
0000
1000
,
0001
1000
0000
1100
0000
0011
0000
0101
,
0000
1010
0000
1000
0001
1000
0001
0001
,
1000
1000
1001
0000
0000
0000
0000
0000
;
