#VERSION:0.81;
#TITLE:Arcanine;
#SUBTITLE:;
#ARTIST:Sabrepulse;
#TITLETRANSLIT:;
#SUBTITLETRANSLIT:;
#ARTISTTRANSLIT:;
#GENRE:;
#ORIGIN:;
#CREDIT:;
#BANNER:[Last Burning] - Arcanine.png;
#BACKGROUND:[Last Burning] - Arcanine-bg.png;
#PREVIEWVID:;
#JACKET:[Last Burning] - Arcanine-jacket.png;
#CDIMAGE:;
#DISCIMAGE:;
#LYRICSPATH:;
#CDTITLE:cdtitle.png;
#MUSIC:Arcanine.mp3;
#OFFSET:-0.017526;
#SAMPLESTART:41.719116;
#SAMPLELENGTH:13.913044;
#SELECTABLE:YES;
#BPMS:0.000=138.000,
64.000=69.000,
80.000=138.000,
108.000=69.000,
109.000=138.000,
171.000=69.000,
172.000=138.000;
#STOPS:;
#DELAYS:;
#WARPS:;
#TIMESIGNATURES:0.000=4=4;
#TICKCOUNTS:0.000=4;
#COMBOS:0.000=1;
#SPEEDS:0.000=1.000=0.000=0;
#SCROLLS:0.000=1.000;
#FAKES:;
#LABELS:0.000=Song Start;
#BGCHANGES:;
#KEYSOUNDS:;
#ATTACKS:
;

//---------------dance-single - ----------------
#NOTEDATA:;
#CHARTNAME:;
#STEPSTYPE:dance-single;
#DESCRIPTION:;
#CHARTSTYLE:;
#DIFFICULTY:Challenge;
#METER:10;
#RADARVALUES:0.718523,0.783789,0.471032,0.598769,0.455064,496.000000,59.000000,75.000000,0.000000,0.000000,0.000000,0.000000,0.000000,0.718523,0.783789,0.471032,0.598769,0.455064,496.000000,59.000000,75.000000,0.000000,0.000000,0.000000,0.000000,0.000000;
#CREDIT:;
#NOTES:
0000
0000
0000
0000
,
0000
0000
0000
0000
,
0000
0000
0000
0000
,
0000
0000
0000
0000
,
0001
1000
0100
1000
0010
0100
0002
0000
,
0013
0100
1000
0010
0001
0010
1000
0100
,
0010
0100
1000
0100
0010
0001
0200
0000
,
0310
0100
0010
0001
0010
1000
0100
0010
,
0100
0000
1000
0001
1000
0000
0100
0000
0010
0001
0100
0000
0002
0000
1003
0001
,
1000
0000
0010
0000
0100
0001
0010
0000
0100
0000
0010
0001
1000
0000
0010
0000
,
0100
0000
0001
1000
0001
0000
0100
0000
0010
1000
0100
0000
0020
0000
0130
1000
,
0001
0000
0100
0000
0010
1000
0100
0000
0010
0000
0100
1000
0001
0000
0100
0000
,
0010
1000
0010
1000
0010
1000
0010
1000
0001
1000
0001
1000
0001
1000
0001
1000
,
0001
0010
0001
0010
0001
0010
0001
0010
0100
0010
0100
0010
0100
0010
0100
0010
,
0100
1000
0100
1000
0001
1000
0001
1000
0001
0100
0001
0100
0010
0100
0010
0100
,
0001
0100
0010
1000
0001
0100
0010
1000
0001
0010
0100
1000
0001
0010
0100
1000
,
0002
0000
1003
0010
1000
0001
0010
0001
0000
2000
0010
3010
0000
0002
0100
0103
,
0000
2000
0010
3010
0000
0002
0100
0103
0000
2000
0010
3010
0101
0100
0010
1000
,
1002
0000
0013
0100
1000
0001
1000
0010
0000
2000
0100
3100
0000
0002
0010
0013
,
0000
2000
0100
3001
0000
0002
0010
1003
0001
1000
0001
0100
0010
1000
0100
0000
,
0210
0000
0000
0000
1300
0000
0100
0000
0012
0000
0000
0013
0001
0000
0100
0000
,
1200
0000
0000
0301
0100
0000
0010
0000
1020
0000
0000
0000
0032
0000
0013
0000
,
1000
0000
0001
0000
1001
0000
1000
0000
1200
0000
0000
0000
0310
0001
0010
0001
,
0010
0001
0010
0001
1000
0000
1001
0000
1020
0000
0000
0000
2030
0000
0000
3001
,
0020
0000
0000
0000
0031
0000
0100
0000
2010
0000
0000
3010
1000
0000
0100
0000
,
0201
0000
0000
0310
0100
0000
1000
0000
2001
0000
0000
0000
3002
0000
0103
0000
,
1000
0000
0100
0000
0101
0000
0001
0000
2001
0000
0000
0000
3100
0010
0100
0010
,
0001
0000
0001
0000
2001
0000
0000
0000
0100
0000
3100
1000
0002
0000
0000
0000
,
1003
0000
0010
0000
0102
0000
0000
1003
0001
0000
0100
0000
1200
0000
0000
1300
,
0100
0001
0021
0000
2030
3010
0001
0100
,
0110
0000
0010
0000
1020
0000
0000
0000
1030
0001
1000
0001
0020
0000
0000
0000
,
0130
0000
1100
0000
1002
0000
0000
0000
0013
0000
0010
0100
2000
0000
0000
0000
,
3001
0000
0100
0000
2010
0000
0000
3010
0100
0000
0001
0000
0021
0000
0000
1030
,
0010
0001
1001
1000
0020
0031
0010
1000
,
1001
0000
0001
0000
0021
0000
0000
0000
0031
1000
0001
1000
0100
0000
0001
0000
,
0100
0000
1000
0000
1001
0000
0001
0000
0100
0000
0001
1000
0002
0000
0000
0000
,
0013
0000
0001
0000
1200
0000
0000
1300
0100
0000
0010
0000
0100
0000
0001
0100
,
1000
1010
0210
0000
2300
0000
3001
0010
,
1010
0000
1001
0000
1200
0000
0000
0310
0002
0000
0103
0000
0010
1000
0010
1000
,
0001
0000
0011
0000
2100
0000
0000
0000
3002
0000
0000
0103
0020
0000
0000
0000
,
1030
0000
0100
0000
0021
0000
0000
0130
0010
0000
0011
0000
0110
0000
1100
0000
,
1001
0001
0201
0000
2300
3100
0001
0010
,
0110
0000
0100
0000
1002
0000
0000
0000
1003
0100
1000
0100
0020
0000
0130
0000
,
1002
0000
0000
0000
0103
0000
0100
0001
2000
0000
0000
0000
3001
0000
0100
0000
,
2010
0000
0000
3001
0010
0000
0100
0000
0210
0000
0000
0301
0100
0000
1000
0000
,
1020
0000
0032
0013
1000
0001
1001
1000
,
1200
0000
0000
0000
1300
0010
1000
0010
0200
0000
0000
0301
0100
0000
0110
0000
,
2010
0000
0000
0000
3100
0000
0100
0010
0002
0000
0000
0000
1003
0000
0010
0000
,
0021
0000
0000
0130
0010
0000
1000
0000
1200
0000
0000
0310
0001
0000
0100
0000
,
0110
0010
2000
3100
0001
0100
0110
0010
,
0012
0000
0000
0000
1003
0010
1000
0010
0100
0000
1000
0000
0100
0000
0001
0000
,
1001
0000
1000
0000
0100
0000
0000
0100
1000
0000
0001
0000
0100
0000
0001
0000
,
0010
0100
2000
0000
3010
0100
0001
0010
,
1000
0010
0001
0100
0010
0100
0001
0100
,
0010
1000
0200
0000
0310
0100
0010
1000
,
0010
0001
0100
0010
1000
0001
0010
0001
,
0100
0010
2000
0000
3100
0010
0100
0001
,
0100
1000
0010
0100
0001
0100
0010
1000
,
0100
0010
0002
0000
0103
0010
0100
1000
,
0001
0010
1000
0001
0010
0000
0000
0000
;

//---------------dance-single - ----------------
#NOTEDATA:;
#CHARTNAME:;
#STEPSTYPE:dance-single;
#DESCRIPTION:;
#CHARTSTYLE:;
#DIFFICULTY:Hard;
#METER:8;
#RADARVALUES:0.579380,0.593779,0.367245,0.550867,0.095803,393.000000,46.000000,69.000000,0.000000,0.000000,0.000000,0.000000,0.000000,0.579380,0.593779,0.367245,0.550867,0.095803,393.000000,46.000000,69.000000,0.000000,0.000000,0.000000,0.000000,0.000000;
#CREDIT:;
#NOTES:
0000
0000
0000
0000
,
0000
0000
0000
0000
,
0000
0000
0000
0000
,
0000
0000
0000
0000
,
0000
1000
0100
1000
0010
0100
0002
0000
,
1003
0010
1000
0001
0010
1000
0010
0001
,
0000
0001
0100
0001
0010
0100
2000
0000
,
3010
0100
0010
1000
0100
0001
0100
1000
,
0001
0100
0010
0100
0001
0010
0200
1000
,
1300
0100
0010
0001
0100
1000
0100
0001
,
1000
0001
0100
0010
1000
0100
0020
0001
,
0031
0100
0010
1000
0100
0001
0100
1000
,
0001
0100
0010
1000
0100
0010
0002
1000
,
1003
0010
0100
0001
0010
1000
0010
0001
,
0100
0010
1000
0001
0010
0100
2000
0001
,
3001
0100
0010
1000
0100
0001
0100
1000
,
1002
0000
1003
0000
1010
0000
0100
0001
1000
0000
0100
0000
1100
0000
0010
0000
,
0001
0100
0101
0010
1000
0100
0011
1100
,
2001
0000
3010
0000
0101
0000
0010
1000
0001
0000
0010
0000
0011
0000
0100
0000
,
1000
0000
0010
0000
1010
0000
0100
0000
0001
1000
0001
0010
0100
1000
0001
0000
,
2000
0000
3100
0010
0012
0000
0013
0001
,
0200
0000
1300
0100
0102
0000
0023
0000
,
0130
0000
1000
0000
1001
0000
0000
0000
0201
0000
0000
0000
0301
1000
0001
1000
,
0001
1000
0001
1000
0001
0000
1000
0000
1002
0000
0000
0000
0023
0000
0000
0000
,
0230
0000
1300
0001
0201
0000
0301
1000
,
0020
0000
0031
0010
2010
0000
3200
0000
,
0310
0000
0001
0000
1001
0000
0000
0000
1020
0000
0000
0000
1030
0001
1000
0001
,
1000
0100
1002
0000
0103
0100
0002
0000
,
0013
0100
2100
0000
3010
1000
0200
0000
,
0301
0100
2100
0000
3020
0000
0130
0001
,
1001
0000
0000
0000
1200
0000
0000
0000
0310
0001
0010
0001
0020
0000
0000
0000
,
0130
1000
1020
0000
0130
0100
0002
0000
,
1003
0100
0120
0000
0130
0010
2000
0000
,
3010
0001
0100
0001
0020
0000
0130
1000
,
1001
0000
0000
0000
0201
0000
0000
0000
0310
1000
0010
1000
0001
0000
1000
0000
,
0100
0001
0100
1000
0001
0000
2000
0000
,
3100
0000
0010
0000
1002
0000
0000
0000
1003
0000
0001
0000
0100
0000
0001
1000
,
0001
0010
0210
0000
2300
0000
3010
1000
,
1001
0000
0001
0000
1002
0000
0000
0000
0023
0000
0000
0000
0031
1000
0001
1000
,
0001
0100
0120
0000
2030
0000
3002
0000
,
0013
0100
2001
0000
3001
2000
3010
0100
,
0001
0000
0021
0000
0230
0000
0310
0001
,
1001
0000
0000
0000
0201
0000
0000
0000
0310
1000
0010
1000
0020
0000
0130
0000
,
2001
0000
3100
0100
2000
0000
3001
0100
,
0120
0000
1030
0010
0002
0000
0013
1000
,
2010
0000
3200
0000
0310
0001
1001
0000
,
1020
0000
0000
0000
1030
0001
1000
0001
2000
0000
0000
0000
3100
0000
0010
0000
,
0012
0000
1003
1000
0002
0000
0013
0100
,
1200
0000
1300
0100
0002
0000
0103
1000
,
0010
1000
0200
0000
0310
0001
1001
0000
,
2010
0000
0000
0000
3001
0010
0001
0010
0001
0000
1000
0000
0100
0000
0001
0000
,
0100
1000
0001
0000
1000
0001
0100
0001
,
0010
0100
2000
0000
3001
0010
0001
1000
,
0010
0001
0010
1000
0000
1000
0100
1000
,
0010
0100
0002
0000
0013
0100
0010
0001
,
0100
1000
0100
0001
0000
0001
0010
0001
,
0100
0010
2000
0000
3100
0010
0100
1000
,
0010
0001
0010
1000
0000
1000
0100
1000
,
0010
0100
0002
0000
0013
0100
0010
0001
,
0100
1000
0100
0001
0010
0000
0000
0000
;

//---------------dance-single - ----------------
#NOTEDATA:;
#CHARTNAME:;
#STEPSTYPE:dance-single;
#DESCRIPTION:;
#CHARTSTYLE:;
#DIFFICULTY:Medium;
#METER:6;
#RADARVALUES:0.423130,0.379220,0.215557,0.343294,0.000000,301.000000,27.000000,43.000000,0.000000,0.000000,0.000000,0.000000,0.000000,0.423130,0.379220,0.215557,0.343294,0.000000,301.000000,27.000000,43.000000,0.000000,0.000000,0.000000,0.000000,0.000000;
#CREDIT:;
#NOTES:
0000
0000
0000
0000
,
0000
0000
0000
0000
,
0000
0000
0000
0000
,
0000
0000
0000
0000
,
0000
1000
0100
0000
0010
0001
0200
0000
,
0310
0000
1000
0000
0001
1000
0100
0010
,
0000
0001
0100
0000
0010
1000
0200
0000
,
0310
0000
0001
0000
0100
0010
1000
0001
,
1000
0000
0010
0000
0100
0001
0020
0000
,
0130
0000
0010
0000
0001
0100
0010
1000
,
0001
0000
1000
0000
0010
1000
0200
0000
,
0310
0000
0001
0000
0100
0001
1000
0100
,
0010
0000
0100
0000
1000
0010
0200
0000
,
0301
0000
0010
0000
0100
0010
0001
1000
,
0010
0000
0100
0000
0001
1000
0200
0000
,
1300
0100
0010
0001
1000
0100
0010
0001
,
2000
0000
3010
0100
0001
0000
0010
0000
,
0001
0000
1000
0000
0001
0000
1002
0203
,
0302
0000
0013
0100
1000
0000
0010
0000
,
1000
0000
0001
0000
0100
0100
0100
0100
,
1001
0000
0001
0100
0020
0000
0030
0000
,
1001
0000
1000
0100
0020
0000
0032
0000
,
1003
0010
0100
0000
0110
0000
0001
1000
,
0010
1000
0001
0010
0200
0000
0310
0000
,
1001
0000
1000
0100
0020
0000
0030
0000
,
1001
0000
0001
0100
0020
0000
2030
0000
,
3001
0010
0100
0000
0110
0000
1000
0001
,
0100
0000
1001
0000
0001
1000
1001
0000
,
0010
0100
0002
0000
0003
0000
0011
0000
,
0100
1000
0020
0000
2030
0000
3001
0010
,
0100
0000
0110
0000
0010
0001
2000
0000
,
3010
1000
0200
0000
0310
0001
1001
0000
,
0001
0010
0200
0000
0300
0000
1100
0000
,
0010
0001
0100
0001
2000
0000
3001
0100
,
0010
0000
0110
0000
0001
1000
0100
0000
,
0010
0001
0100
0010
1000
0000
1001
0000
,
0001
0100
2000
0000
3000
0000
1000
0100
,
1000
0100
0002
0000
0203
0000
0301
0010
,
0100
0010
0110
0000
1002
0000
0103
0001
,
0100
0010
2000
0000
3001
0000
1001
0000
,
1000
0100
0002
0000
0003
0001
0100
1000
,
0100
0000
0021
0000
0032
0000
1003
0010
,
0100
0000
0101
0000
0010
1000
0001
0000
,
1001
0000
0001
1000
1001
0000
0010
0001
,
2000
0000
3000
0000
1010
0000
0100
0001
,
0020
0000
0032
0000
1003
0010
0100
0000
,
0110
0000
0010
1000
0002
0000
0013
0001
,
0200
0000
0310
1000
1001
0000
1000
0010
,
0200
0000
0300
0000
0101
0000
0010
1000
,
0100
1000
0002
0000
1003
0100
0010
0000
,
0110
0000
0100
1000
0001
0000
0010
0001
,
0100
0010
1000
0000
0000
0001
0100
0000
,
0010
1000
0200
0000
0310
0000
0001
0000
,
0100
0001
1000
0010
0000
1000
0100
0000
,
1000
0010
0200
0000
0301
0000
0010
0000
,
0001
0100
0010
1000
0000
0001
0010
0000
,
0100
0010
0002
0000
0103
0000
0010
0000
,
1000
0001
1000
0100
0000
1000
0010
0000
,
0100
0001
0020
0000
0130
0000
0010
0000
,
0001
0100
0010
1000
0000
0000
0000
0000
;

//---------------dance-single - ----------------
#NOTEDATA:;
#CHARTNAME:;
#STEPSTYPE:dance-single;
#DESCRIPTION:;
#CHARTSTYLE:;
#DIFFICULTY:Easy;
#METER:3;
#RADARVALUES:0.274863,0.285014,0.255475,0.319343,0.000000,169.000000,32.000000,40.000000,0.000000,0.000000,0.000000,0.000000,0.000000,0.274863,0.285014,0.255475,0.319343,0.000000,169.000000,32.000000,40.000000,0.000000,0.000000,0.000000,0.000000,0.000000;
#CREDIT:;
#NOTES:
0000
0000
0000
0000
,
0000
0000
0000
0000
,
0000
0000
0000
0000
,
0000
0000
0000
0000
,
0000
1000
0001
2000
,
3000
0010
0010
0100
,
0000
0001
1000
0002
,
0003
0010
0001
1000
,
0001
0000
0100
0000
,
0010
0010
1000
1000
,
0001
0000
1000
0000
,
0100
0100
0010
0010
,
0001
0000
0100
0000
,
0010
0010
1000
1000
,
0001
0000
1000
0000
,
0001
0100
0010
1000
,
0002
0013
0001
0100
,
0000
0100
0000
1002
,
1003
0010
1000
0100
,
0000
0100
1000
1000
,
1001
0001
0200
0300
,
1001
1000
0020
0030
,
1000
0100
0220
0330
,
0000
0100
1001
0000
,
1001
1000
0200
0300
,
1001
0001
0020
0030
,
0001
0100
0220
0330
,
1000
1001
0000
1001
,
1000
0020
0030
1010
,
1000
0002
0003
0001
,
0010
0220
0330
1001
,
0010
1001
0000
1001
,
0001
0020
0030
1001
,
0001
2000
3000
1000
,
0010
0220
0330
0001
,
1000
0100
0000
0011
,
0001
0200
0300
0110
,
0100
0002
2003
3100
,
1000
1002
0203
0300
,
0010
1001
0000
1010
,
1000
0200
0300
0010
,
0001
1000
0001
0100
,
0001
2002
3003
1000
,
1001
0000
1001
0001
,
0020
0030
0011
0001
,
2000
3000
1000
0010
,
0220
0330
1001
0010
,
1001
0000
1001
1000
,
0020
0030
1001
1000
,
0002
0003
0001
0010
,
0220
0330
1000
0001
,
0100
0000
0000
0001
,
1000
0002
0003
0010
,
0010
0100
0000
1000
,
0001
2000
3000
0010
,
1000
0001
0000
1000
,
0100
0020
0030
0001
,
0001
1000
0000
0001
,
0100
0020
0030
1000
,
0100
0010
0001
0000
;

//---------------dance-single - ----------------
#NOTEDATA:;
#CHARTNAME:;
#STEPSTYPE:dance-single;
#DESCRIPTION:;
#CHARTSTYLE:;
#DIFFICULTY:Beginner;
#METER:1;
#RADARVALUES:0.096944,0.118756,0.015967,0.087819,0.000000,72.000000,2.000000,11.000000,0.000000,0.000000,0.000000,0.000000,0.000000,0.096944,0.118756,0.015967,0.087819,0.000000,72.000000,2.000000,11.000000,0.000000,0.000000,0.000000,0.000000,0.000000;
#CREDIT:;
#NOTES:
0000
0000
0000
0000
,
0000
0000
0000
0000
,
0000
0000
0000
0000
,
0000
0000
0000
0000
,
1000
0000
0000
0000
,
0001
0000
0000
0000
,
1000
0000
0000
0000
,
0001
0000
0000
0000
,
1000
0000
0000
0000
,
0100
0000
0100
0000
,
0010
0000
0000
0000
,
0001
0000
0001
0000
,
0100
0000
0000
0000
,
0010
0000
0010
0000
,
1000
0000
0000
0000
,
0001
0000
1000
0000
,
0001
0000
0001
0000
,
0001
0000
0001
0000
,
1000
0000
1000
0000
,
1000
0000
1000
1000
,
0000
0000
2000
0000
,
3000
0000
0002
0000
,
0003
0000
0100
0000
,
0010
0000
0100
0000
,
0000
0000
0002
0000
,
0003
0000
2000
0000
,
3000
0000
0100
0000
,
0000
1001
0000
0000
,
0000
0002
0000
0003
,
0000
0010
0000
0000
,
0000
0001
0000
1000
,
0000
0001
0000
0000
,
0000
2000
0000
3000
,
0000
1000
0000
0000
,
0000
0001
0000
1000
,
0000
0001
0000
0000
,
0000
0200
0000
0300
,
0000
0010
0000
0000
,
0000
1000
0000
0001
,
0000
1000
0000
0000
,
0000
0200
0000
0300
,
0000
0020
0000
0030
,
0000
0001
0000
0000
,
1001
0000
0000
0000
,
2000
0000
3000
0000
,
0010
0000
0000
0000
,
1000
0000
0001
0000
,
1000
0000
0000
0000
,
0002
0000
0003
0000
,
0001
0000
0000
0000
,
1000
0000
0001
0000
,
1000
0000
0001
0000
,
0000
0000
0010
0000
,
0000
0000
0100
0000
,
0000
0000
1000
0000
,
0000
0000
0010
0000
,
0000
0000
0100
0000
,
0000
0000
0001
0000
,
0000
0000
1000
0000
,
0000
0000
0100
0000
;
