#TITLE:Abing Abing;
#SUBTITLE:;
#ARTIST:Orange Caramel;
#TITLETRANSLIT:Abing Abing;
#SUBTITLETRANSLIT:;
#ARTISTTRANSLIT:;
#GENRE:;
#CREDIT:;
#BANNER:[Last Burning] - Abing Abing.png;
#BACKGROUND:[Last Burning] - Abing Abing-bg.png;
#LYRICSPATH:;
#CDTITLE:;
#MUSIC:[Last Burning] - Abing Abing.mp3;
#OFFSET:-0.826;
#SAMPLESTART:37.781;
#SAMPLELENGTH:15.000;
#SELECTABLE:YES;
#BPMS:0.000=128.000
;
#STOPS:
;
#BGCHANGES:;
#KEYSOUNDS:;
#ATTACKS:;

//---------------dance-single - ----------------
#NOTES:
     dance-single:
     :
     Medium:
     6:
     0.355,0.386,0.219,0.209,0.000,207.000,22.000,21.000,0.000,0.000,0.000,0.355,0.386,0.219,0.209,0.000,207.000,22.000,21.000,0.000,0.000,0.000:
0000
0000
0000
0000
,
0000
0000
0000
0000
,
0000
0000
0000
0000
,
0000
0000
0000
0000
,
0001
0000
0010
0000
0100
0010
0100
0000
,
1000
0000
0010
0000
0100
0010
0100
0000
,
0001
0000
0100
0000
0001
0100
0001
0000
,
1000
0000
0100
0000
1000
0100
1000
0000
,
0001
0000
1000
0000
0001
1000
0001
1000
,
0001
0000
0100
0000
0010
0100
0010
0000
,
1000
0000
0100
0000
0010
0001
1000
0000
,
2002
0000
0000
0000
3003
1000
0001
0000
,
2002
0000
3003
0000
1000
0001
0100
0000
,
0202
0000
0303
0000
0100
0010
1000
0000
,
2020
0000
3030
0000
0010
1000
0001
0000
,
2002
0000
3003
0000
1000
0001
0010
0000
,
0100
0000
0100
0000
0010
0100
0010
0000
,
0001
0000
0001
0000
1000
0001
1000
0000
,
0001
0100
0010
1000
,
2002
0000
0000
3003
,
0001
0010
0100
1000
,
0002
0010
0100
0010
,
1003
0010
0100
0001
,
0200
0001
0010
0301
,
0101
0000
0101
0000
0101
0000
0100
0010
,
1000
0000
1010
0000
1010
0000
0010
1000
,
0001
1000
0001
1000
0001
1000
0001
1000
,
0100
0000
0100
0010
0000
0010
0001
1000
,
0001
0100
0010
0000
,
0100
0000
0010
0000
1000
0010
1000
0001
,
0010
0100
1000
0000
,
0100
1000
0100
1000
0001
1000
0001
1000
,
0001
0000
0100
0000
0001
0100
0001
0100
,
0001
0000
1000
0000
0001
1000
0001
1000
,
0100
0000
0010
0000
0100
0010
0100
0010
,
0002
1003
2002
3003
,
1000
0010
0100
0001
,
2000
0000
0002
3003
,
0001
0010
0100
1000
,
0200
0000
2300
3000
,
0100
0100
0100
0000
,
0010
0010
0010
0000
,
0001
1000
0010
0100
,
0110
0000
0000
0110
,
1001
0000
0000
1000
0001
0000
0010
0000
,
0011
0000
0000
0000
0001
0010
0100
0000
,
0110
0000
0000
0100
1000
0000
0001
0000
,
0101
0000
0000
0000
0100
0001
0100
0000
,
1010
0000
0000
0000
0010
1000
0001
0000
,
1001
0000
0000
0000
1000
0001
1000
0000
,
1001
0000
0000
0000
0001
0010
0100
0000
,
0110
0000
0000
0000
0100
1000
0001
0000
;

//---------------dance-single - ----------------
#NOTES:
     dance-single:
     :
     Hard:
     7:
     0.518,0.489,0.288,0.159,0.094,320.000,29.000,16.000,0.000,0.000,0.000,0.518,0.489,0.288,0.159,0.094,320.000,29.000,16.000,0.000,0.000,0.000:
0000
0000
0000
0000
,
0000
0000
0000
0000
,
0000
0000
0000
0000
,
0000
0000
0000
0000
,
1000
0000
0000
0001
0000
0000
0100
0000
0010
0000
1000
0000
0001
0000
0010
0000
,
0100
0000
0000
1000
0000
0000
0001
0000
0100
0000
0010
0000
1000
0000
0000
0000
,
0001
0000
0000
1000
0000
0000
0100
0000
0010
0000
0100
0000
1000
0000
0001
0000
,
0100
0000
0000
0010
0000
0000
0100
0000
0001
0000
1000
0000
0001
0000
0000
0000
,
0010
0000
0000
0010
0100
0000
1000
0000
0001
0000
1000
0000
0001
0000
0100
0000
,
0010
0000
0000
0010
0100
0000
0010
0000
1000
0000
0001
0000
1000
0000
0000
0000
,
0100
0000
0000
0010
0000
0000
0100
0000
0010
0000
0001
0000
1000
0000
0000
0000
,
2002
0000
0000
0000
0000
0000
0000
3003
0000
0000
1000
0000
1001
0000
0001
0000
,
1001
0000
1100
0000
1000
0100
0010
0100
,
0020
0000
0031
0010
0001
1000
0010
0100
,
0001
0000
0101
0100
0001
0100
0010
1000
,
0020
0000
1030
0001
1000
0100
0010
0001
,
1000
0000
0000
1000
0010
0000
1000
0000
0010
0000
1000
0000
0001
0000
1000
0000
,
0001
0000
0000
0001
0010
0000
0001
0000
0010
0000
0100
0000
2000
0000
0000
0000
,
3001
0100
0010
0100
0010
1000
0001
0010
,
0100
0000
0000
1000
0000
0000
0001
0000
0100
0000
0010
0000
0110
0000
0000
0000
,
0100
0010
0100
0001
1000
0001
1000
0001
,
1000
0100
0001
0100
1000
0100
0001
0100
,
0010
0100
0010
0001
1000
0001
1000
0001
,
1000
0010
0001
0010
1000
0010
0001
0010
,
1010
0000
0000
0000
1001
0000
0000
0000
1100
0000
0000
0000
0110
0000
0010
0001
,
0010
0000
0000
0000
0011
0000
0000
0000
1001
0000
0000
0000
1010
0000
0010
1000
,
0010
0100
0010
0100
0001
1000
0001
1000
,
0100
0000
0000
0100
0010
0000
0001
0000
1000
0000
0010
0000
0100
0000
0001
0000
,
1000
1100
0110
0011
,
0001
0010
1000
0010
0001
0100
1000
0100
,
0001
0101
0110
1010
,
1000
0010
0001
0010
1000
0100
0001
0100
,
1000
0000
0000
1000
0010
0000
1000
0000
0010
0000
0100
0000
0001
0000
1000
0000
,
0100
0000
0000
0100
0010
0000
0001
0000
1000
0000
0001
0000
1001
0000
0000
0000
,
1000
0100
0010
0100
0010
0001
1000
0001
,
1000
0010
0001
0100
1000
0010
0001
1000
,
0200
0302
2003
3200
,
0320
0000
0030
0100
0010
0100
1000
0001
,
0200
0320
2030
3002
,
0023
0000
0031
1000
0020
0000
1030
0001
,
1000
0100
0010
0001
1000
1000
1000
0000
,
0010
0100
0001
1000
0001
0001
0001
0000
,
0010
0001
0010
0100
1000
0001
0100
0010
,
0110
0000
0000
0000
0000
0100
0110
0010
,
0110
0000
0101
0000
0100
0001
1000
0100
,
1000
0000
1100
0000
1000
0100
0010
0000
,
0110
0000
0011
0000
0010
0001
1000
0010
,
1000
0000
1010
0000
0010
0100
0001
1000
,
0100
0000
0000
0100
0010
0000
0100
0000
0010
0000
0001
0000
1000
0000
0001
0000
,
1000
0000
0000
1000
0010
0000
1000
0000
0010
0000
0100
0000
0001
0000
0000
0000
,
1000
0000
0000
1000
0100
0000
1000
0000
0100
0000
0010
0000
0001
0000
1000
0000
,
0010
0000
0000
0100
0000
0000
0001
0000
1000
0000
0001
0000
1001
0000
0000
0000
;

//---------------dance-single - ----------------
#NOTES:
     dance-single:
     :
     Easy:
     3:
     0.220,0.206,0.070,0.000,0.000,148.000,7.000,0.000,0.000,0.000,0.000,0.220,0.206,0.070,0.000,0.000,148.000,7.000,0.000,0.000,0.000,0.000: // measure 0
0000
0000
0000
0000
,  // measure 1
0000
0000
0000
0000
,  // measure 2
0000
0000
0000
0000
,  // measure 3
0000
0000
0000
0000
,  // measure 4
1000
0000
0001
0100
,  // measure 5
0010
0000
0100
0010
,  // measure 6
1000
0000
0010
1000
,  // measure 7
0001
0000
1000
0001
,  // measure 8
0010
0000
0100
0100
,  // measure 9
0100
0000
1000
1000
,  // measure 10
1000
0000
0001
0001
,  // measure 11
0001
0000
0000
0000
,  // measure 12
1000
1000
0010
0100
,  // measure 13
0001
0001
0100
0001
,  // measure 14
1000
1000
0001
0010
,  // measure 15
0100
0100
0010
0100
,  // measure 16
1000
0000
0100
1000
,  // measure 17
0001
0000
1000
1000
,  // measure 18
0000
0001
0100
0010
,  // measure 19
0110
0000
0000
0000
,  // measure 20
0100
0010
1000
0001
,  // measure 21
1001
0000
0000
0000
,  // measure 22
0001
0010
0100
1000
,  // measure 23
1001
0000
0000
0000
,  // measure 24
0001
0100
0001
0100
,  // measure 25
0010
1000
0010
1000
,  // measure 26
0100
1000
0100
1000
,  // measure 27
0001
0000
0010
0000
,  // measure 28
0001
0001
0001
0000
,  // measure 29
1000
0001
1000
0010
,  // measure 30
1000
1000
1000
0000
,  // measure 31
0010
0100
0001
1000
,  // measure 32
0100
0000
0010
0100
,  // measure 33
0010
0000
0001
0010
,  // measure 34
0001
0001
1000
1000
,  // measure 35
0010
0100
0001
0000
,  // measure 36
0100
0100
0001
0001
,  // measure 37
0100
0000
0001
0100
,  // measure 38
0001
0001
1000
1000
,  // measure 39
0001
0000
1000
0000
,  // measure 40
0100
0100
0100
0000
,  // measure 41
1000
1000
1000
0000
,  // measure 42
0100
0100
0010
0010
,  // measure 43
0110
0000
0000
1001
,  // measure 44
1001
0000
0001
0100
,  // measure 45
0010
0000
0100
0100
,  // measure 46
0010
0000
1000
0010
,  // measure 47
1000
0000
0001
0001
,  // measure 48
0010
0000
0001
1000
,  // measure 49
0010
0000
1000
1000
,  // measure 50
0010
0000
0100
0010
,  // measure 51
0100
0000
0001
1001
;
