#VERSION:0.81;
#TITLE:The Real Thing;
#SUBTITLE:;
#ARTIST:2 UNLIMITED;
#TITLETRANSLIT:;
#SUBTITLETRANSLIT:;
#ARTISTTRANSLIT:;
#GENRE:;
#ORIGIN:;
#CREDIT:;
#BANNER:The Real Thing.png;
#BACKGROUND:The Real Thing-bg.png;
#PREVIEWVID:;
#JACKET:The Real Thing-Jacket.png;
#CDIMAGE:;
#DISCIMAGE:;
#LYRICSPATH:;
#CDTITLE:;
#MUSIC:The Real Thing.ogg;
#OFFSET:0.007987;
#SAMPLESTART:33.324959;
#SAMPLELENGTH:12.000000;
#SELECTABLE:YES;
#BPMS:0.000=144.000;
#STOPS:;
#DELAYS:;
#WARPS:;
#TIMESIGNATURES:0.000=4=4;
#TICKCOUNTS:0.000=4;
#COMBOS:0.000=1;
#SPEEDS:0.000=1.000=0.000=0;
#SCROLLS:0.000=1.000;
#FAKES:;
#LABELS:0.000=Song Start;
#BGCHANGES:0.000=trtbga.avi=1.000=0=0=1=====,
99999=-nosongbg-=1.000=0=0=0 // don't automatically add -songbackground-
;
#KEYSOUNDS:;
#ATTACKS:
;

//---------------dance-single - ----------------
#NOTEDATA:;
#CHARTNAME:;
#STEPSTYPE:dance-single;
#DESCRIPTION:;
#CHARTSTYLE:;
#DIFFICULTY:Hard;
#METER:8;
#RADARVALUES:0.502764,0.472672,0.214072,0.059940,0.025689,379.000000,25.000000,7.000000,0.000000,0.000000,0.000000,0.000000,0.000000,0.502764,0.472672,0.214072,0.059940,0.025689,379.000000,25.000000,7.000000,0.000000,0.000000,0.000000,0.000000,0.000000;
#CREDIT:;
#NOTES:
0000
0000
0000
0000
,
0000
0000
0000
0000
,
0000
0000
0000
0000
,
0000
0000
0000
0000
,
1000
0001
0010
0001
1000
0100
0010
0100
,
1000
0001
0010
0001
1000
0100
0010
0100
,
1000
0001
0010
0001
1000
0100
0010
0100
,
1000
0100
0010
0001
1000
0100
0010
0001
,
1000
0100
0010
0100
1000
0001
0100
0010
,
1000
0100
0010
0100
1000
0001
0100
0010
,
1000
0100
0010
0100
1000
0001
0100
0010
,
1000
0100
0010
0001
1000
0100
0010
0001
,
1000
0000
0010
0000
0100
0001
0100
0000
,
0001
0000
0100
0000
0010
1000
0010
0000
,
0100
0000
0001
0000
0010
0100
1000
0000
,
0001
0000
1000
0000
0010
0100
0001
0000
,
1000
0000
0001
0100
1000
0010
0001
0000
,
0010
0000
0001
1000
0010
1000
0100
0000
,
0010
0001
1000
0010
0100
0010
1000
0010
,
1000
0100
0010
0100
1000
0010
0100
0001
,
1000
0000
0001
0000
0100
0010
0000
0200
,
0000
0002
0000
0000
0000
0000
0303
0000
,
1001
0000
0000
0000
1001
0000
0000
0001
0000
1000
0001
0000
0100
0000
0000
0000
,
0110
0000
0000
0000
0110
0000
0000
0100
0000
0010
1000
0000
0001
0000
0000
0000
,
1000
0000
0100
0000
0010
0001
0000
2000
,
0000
0002
0000
0000
0000
0000
3003
0000
,
0001
0000
0001
0000
0100
0000
0100
0000
0010
0100
0000
0010
0100
0000
0000
0000
,
0010
0010
1000
1000
0001
0000
1000
0001
,
0010
0100
0000
1000
0000
0011
0000
0001
,
0100
1000
0000
0100
0000
0110
0000
0100
,
0010
1000
0000
1010
0000
0011
0000
1002
,
0000
0000
0000
1003
0000
0000
0000
0000
,
0001
0010
0000
1100
0000
0101
0000
0001
,
1000
0001
0000
0011
0000
1010
0000
0010
,
1000
0100
0000
0010
0000
0001
0000
0200
,
0000
0000
0000
0310
0000
0100
0010
1000
,
0000
0000
0001
0000
0001
1000
0010
0100
,
0000
0000
0010
0000
0010
0000
0100
0110
,
0000
1001
0000
0110
0000
1001
0000
0110
,
0000
1001
0000
0110
0000
0010
1000
0100
,
0000
0000
0010
0000
0010
0100
1000
0001
,
0000
0000
1000
0000
1000
0000
0000
0001
,
0100
0010
0000
1000
0000
0100
0000
0010
,
0000
0001
0000
1000
0000
0000
0000
0000
,
1001
0000
1001
0000
0000
0001
1000
0001
,
0000
1000
0000
1000
0000
1000
0001
0100
,
0000
0010
0000
0010
0000
0100
0010
0100
,
0000
0001
0000
0001
0000
0001
0100
0010
,
1010
0000
1010
0000
0000
1000
0001
1000
,
0000
1000
0000
0001
0000
1000
0001
0100
,
0001
0010
0100
1000
,
0001
0100
0010
1000
0100
0001
0100
1000
,
0010
0000
0010
0000
0010
1000
0001
0010
,
0100
0000
0100
0000
0100
0010
0001
1000
,
0010
0000
0010
0000
0010
1000
0001
0100
,
0001
0010
0100
1000
0001
0010
0100
1000
,
0001
0000
0100
0000
0010
1000
0001
0100
,
0010
0000
1000
0000
0100
1000
0010
0100
,
0001
0000
0010
0000
0100
0010
0001
1000
,
0001
0010
0100
1000
0001
0010
0100
1000
,
0001
0100
0010
1000
0100
0100
1000
0100
,
1000
0010
0100
0001
0010
0010
0100
0010
,
0001
0010
0100
1000
0010
0010
0100
0010
,
1000
0100
0010
0001
1000
0100
0010
0001
,
0001
0010
0100
0010
0100
0100
0010
0100
,
0010
0001
1000
0010
0100
0100
0001
0100
,
0001
1000
0100
0010
0100
0100
0010
0100
,
1000
0100
0010
0001
1000
0100
0010
0001
,
0200
0000
0000
0300
,
1001
0000
0000
0000
;

//---------------dance-single - ----------------
#NOTEDATA:;
#CHARTNAME:;
#STEPSTYPE:dance-single;
#DESCRIPTION:;
#CHARTSTYLE:;
#DIFFICULTY:Medium;
#METER:6;
#RADARVALUES:0.376767,0.413588,0.145569,0.059940,0.000000,284.000000,17.000000,7.000000,0.000000,0.000000,0.000000,0.000000,0.000000,0.376767,0.413588,0.145569,0.059940,0.000000,284.000000,17.000000,7.000000,0.000000,0.000000,0.000000,0.000000,0.000000;
#CREDIT:;
#NOTES:
0000
0000
0000
0000
,
0000
0000
0000
0000
,
0000
0000
0000
0000
,
0000
0000
0000
0000
,
0000
0001
0000
0100
0000
0001
0100
0001
,
0000
0100
0000
0010
0000
0100
0010
0100
,
0000
0010
0000
1000
0000
0010
1000
0010
,
1000
0100
0010
0001
1000
0100
0010
0001
,
0000
1000
0000
0100
0000
0010
0001
0010
,
0000
0001
0000
0100
0000
0010
1000
0010
,
0000
0100
0000
0010
0000
1000
0001
1000
,
0001
0010
0100
1000
0001
0010
0100
1000
,
0001
1000
0010
0010
,
1000
0001
0010
0010
,
0001
0100
0001
1001
,
1000
0100
0010
1100
,
0100
0000
1000
0000
0010
0100
0010
0000
,
0100
0000
0001
0000
1000
0001
1000
0000
,
0001
0010
0100
0010
,
0001
1000
0010
0100
,
0001
0000
1000
0000
0100
1000
0000
0010
,
0000
0200
0000
0000
0000
0000
0300
0000
,
0110
0000
0110
0000
0100
0010
0100
0000
,
1001
0000
1001
0000
1000
0001
1000
0000
,
0001
0000
0100
0000
0010
1000
0000
0100
,
0000
2000
0000
0000
0000
0000
3000
0000
,
0001
0100
0001
0100
0001
0000
0100
0000
,
0010
1000
0010
1000
0000
0000
0000
0000
,
0001
1000
0000
0001
0000
0001
0000
0100
,
0010
0100
0000
0010
0000
0100
0000
0010
,
1000
0010
0000
1000
0000
0001
0000
0020
,
0000
0000
0000
0130
0000
0000
0000
0000
,
0100
1000
0000
0100
0000
1000
0000
0001
,
1000
0001
0000
0100
0000
0001
0000
0100
,
0001
1000
0000
0100
0000
1000
0000
0020
,
0000
0000
0000
0130
0000
0010
1000
0001
,
0000
0000
0000
0000
0000
1000
0100
0010
,
0000
0000
0000
0000
0000
0000
0000
1100
,
0000
0001
0000
0100
0000
0001
0000
1000
,
0000
0100
0000
1000
0000
0010
0100
0001
,
0000
0000
0000
0000
0000
0000
1000
0001
,
0000
0000
0000
0000
0000
0000
1000
0001
,
0100
0001
0000
1000
0000
0100
0000
1000
,
0000
0010
0000
0100
0000
0000
0000
0000
,
1001
1001
0000
0000
,
0000
0000
0000
0000
,
0001
0000
0100
0010
1000
0000
0010
0000
,
1000
0010
0000
0000
,
1001
1001
0001
1000
,
0100
1000
0001
0100
,
0002
0103
2000
3100
,
1000
0001
0100
0010
,
1000
1000
0001
0001
,
0100
0100
0001
0001
,
1000
1000
0001
0001
,
1000
0100
0010
0001
1000
0100
0010
0001
,
1000
0001
0100
0001
,
1000
0100
0010
0100
,
1000
0001
0010
0100
,
0001
0010
0100
1000
0001
0010
0100
1000
,
0001
0000
0100
0000
0010
1000
0010
1000
,
0010
0000
0100
0000
0001
1000
0001
1000
,
0001
0000
0010
0000
0100
1000
0100
1000
,
0100
0010
0001
1000
0100
0010
0001
0010
,
0100
0010
0110
1001
,
0001
0100
1010
0101
,
0001
0010
1100
0011
,
1000
0100
0010
0001
1000
0100
0010
0001
,
2000
0000
0000
0000
,
3001
0000
0000
0000
;

//---------------dance-single - ----------------
#NOTEDATA:;
#CHARTNAME:;
#STEPSTYPE:dance-single;
#DESCRIPTION:;
#CHARTSTYLE:;
#DIFFICULTY:Easy;
#METER:3;
#RADARVALUES:0.226305,0.265878,0.111318,0.025689,0.000000,169.000000,13.000000,3.000000,0.000000,0.000000,0.000000,0.000000,0.000000,0.226305,0.265878,0.111318,0.025689,0.000000,169.000000,13.000000,3.000000,0.000000,0.000000,0.000000,0.000000,0.000000;
#CREDIT:;
#NOTES:
0000
0000
0000
0000
,
0000
0000
0000
0000
,
0000
0000
0000
0000
,
0000
0000
0000
0000
,
1000
0001
0100
0100
,
0001
1000
0100
0100
,
1000
0001
0100
0100
,
0001
0010
0100
1000
,
0100
1000
0010
0010
,
0100
0001
0010
0010
,
0100
1000
0010
0010
,
1000
0100
0010
0001
,
1000
0000
0001
0000
,
0100
0000
0001
0000
,
1000
0000
0100
0000
,
1000
0000
0010
0000
,
0100
0000
0010
1000
,
0001
0000
1000
0010
,
0100
0000
0001
0000
,
1000
0100
0010
0001
,
1000
0000
0001
0000
,
0100
0000
0000
0000
,
1001
1001
0000
0000
,
0110
0110
0000
0000
,
0100
0000
0010
0000
,
1000
1000
1000
0000
,
1001
0000
0110
0000
,
1001
0000
0000
0000
,
0001
0000
0100
0000
,
0001
0000
1000
0000
,
0100
0000
1000
0000
,
0020
0000
0030
0000
,
0100
0000
0001
0000
,
0100
0000
0010
0000
,
0100
0000
0001
0000
,
0020
0000
0030
0100
,
0100
0000
0000
1000
,
0010
0000
0000
0100
,
0001
1000
0001
1000
,
0010
0010
0010
0000
,
0100
0000
0000
0001
,
1000
0000
0000
0100
,
1000
0000
0001
0000
,
0100
0001
0010
0000
,
0100
0100
0000
0000
,
0000
0000
0000
0000
,
0100
1000
0010
0010
,
0010
0010
0000
0000
,
0100
0100
0000
0001
,
0000
1000
0000
0010
,
0100
0000
0001
0000
,
1000
0001
0100
0010
,
1000
0000
0010
0000
,
1000
0000
0010
0000
,
1000
0000
0010
0000
,
1000
0100
0010
0001
,
0010
0000
0100
0000
,
0010
0000
0100
0000
,
0010
0000
0100
0000
,
0001
0010
0100
1000
,
0001
1000
0100
0100
,
1000
0001
0100
0100
,
0001
1000
0100
0100
,
1000
0100
0010
0001
,
1000
0000
1001
1001
,
0000
0000
0110
0110
,
0000
0000
1001
1001
,
0001
0010
0100
1000
,
0020
0000
0000
0000
,
0030
0000
0000
0000
;

//---------------dance-single - ----------------
#NOTEDATA:;
#CHARTNAME:;
#STEPSTYPE:dance-single;
#DESCRIPTION:;
#CHARTSTYLE:;
#DIFFICULTY:Beginner;
#METER:1;
#RADARVALUES:0.127220,0.177252,0.068503,0.000000,0.000000,96.000000,8.000000,0.000000,0.000000,0.000000,0.000000,0.000000,0.000000,0.127220,0.177252,0.068503,0.000000,0.000000,96.000000,8.000000,0.000000,0.000000,0.000000,0.000000,0.000000,0.000000;
#CREDIT:;
#NOTES:
// measure 0
0000
0000
0000
0000
,  // measure 1
0000
0000
0000
0000
,  // measure 2
0000
0000
0000
0000
,  // measure 3
0000
0000
0000
0000
,  // measure 4
0001
0000
0000
0000
,  // measure 5
0001
0000
0000
0000
,  // measure 6
0001
0000
0000
0000
,  // measure 7
1000
0000
0001
0000
,  // measure 8
0100
0000
0000
0000
,  // measure 9
0010
0000
0000
0000
,  // measure 10
1000
0000
0000
0000
,  // measure 11
0100
0000
0010
0000
,  // measure 12
0001
0000
0000
0000
,  // measure 13
1000
0000
0000
0000
,  // measure 14
0010
0000
0000
0000
,  // measure 15
0100
0000
0000
0000
,  // measure 16
0001
0000
1000
1000
,  // measure 17
0000
0000
0001
0001
,  // measure 18
1000
0000
0001
0000
,  // measure 19
0100
0000
0010
0000
,  // measure 20
1001
0000
0000
0000
,  // measure 21
0010
0000
0000
0000
,  // measure 22
0100
0100
0000
0000
,  // measure 23
0100
0100
0000
0000
,  // measure 24
1001
0000
0000
0000
,  // measure 25
1000
0000
0000
0000
,  // measure 26
0001
0001
0000
0000
,  // measure 27
1000
1000
0000
0000
,  // measure 28
0010
0000
0000
0000
,  // measure 29
0100
0000
0000
0000
,  // measure 30
0001
0000
1000
0000
,  // measure 31
1001
0000
0000
0000
,  // measure 32
0100
0000
0000
0000
,  // measure 33
0010
0000
0000
0000
,  // measure 34
0100
0000
0010
0000
,  // measure 35
0110
0000
0000
1000
,  // measure 36
1001
0000
0000
0000
,  // measure 37
0110
0000
0000
0000
,  // measure 38
0100
0000
0100
0000
,  // measure 39
0100
0100
0100
0000
,  // measure 40
1001
0000
0000
0000
,  // measure 41
0001
0000
0000
0000
,  // measure 42
1000
0000
0001
0000
,  // measure 43
1000
1000
1000
0000
,  // measure 44
0001
0001
0000
0000
,  // measure 45
0000
0000
0000
0000
,  // measure 46
1000
0000
0000
0000
,  // measure 47
0000
0000
0000
0000
,  // measure 48
0010
0010
0000
0000
,  // measure 49
0000
0000
0000
0000
,  // measure 50
0100
0000
0010
0000
,  // measure 51
1000
0000
0000
0000
,  // measure 52
0001
0000
0000
0000
,  // measure 53
0001
0000
0000
0000
,  // measure 54
0001
0000
0000
0000
,  // measure 55
0001
0000
1000
0000
,  // measure 56
0100
0000
0000
0000
,  // measure 57
0100
0000
0000
0000
,  // measure 58
0100
0000
0000
0000
,  // measure 59
1000
0000
0001
0000
,  // measure 60
0100
0000
0000
0000
,  // measure 61
0001
0000
0000
0000
,  // measure 62
1000
0000
0000
0000
,  // measure 63
0100
0000
0100
0000
,  // measure 64
1000
0000
0001
0001
,  // measure 65
0000
0000
1000
1000
,  // measure 66
0000
0000
0010
0010
,  // measure 67
1000
0100
0010
0001
,  // measure 68
1000
0000
0000
0000
,  // measure 69
1001
0000
0000
0000
;
