#VERSION:0.81;
#TITLE:STOP;
#SUBTITLE:;
#ARTIST:3rd Coast;
#TITLETRANSLIT:;
#SUBTITLETRANSLIT:;
#ARTISTTRANSLIT:;
#GENRE:;
#ORIGIN:;
#CREDIT:;
#BANNER:STOP.png;
#BACKGROUND:STOP-bg.png;
#PREVIEWVID:;
#JACKET:STOP-Jacket.png;
#CDIMAGE:;
#DISCIMAGE:;
#LYRICSPATH:;
#CDTITLE:cdtitle.png;
#MUSIC:Stop.mp3;
#OFFSET:0.210000;
#SAMPLESTART:48.389595;
#SAMPLELENGTH:11.500000;
#SELECTABLE:YES;
#BPMS:0.000=162.000;
#STOPS:156.000=0.370,
156.500=0.185,
157.000=0.370,
157.500=0.370,
158.000=0.185,
158.500=0.370;
#DELAYS:;
#WARPS:;
#TIMESIGNATURES:0.000=4=4;
#TICKCOUNTS:0.000=4;
#COMBOS:0.000=1;
#SPEEDS:0.000=1.000=0.000=0;
#SCROLLS:0.000=1.000;
#FAKES:;
#LABELS:0.000=Song Start;
#BGCHANGES:0.000=[Duet] - Stop.avi=1.000=0=0=0=StretchNoLoop====,
99999=-nosongbg-=1.000=0=0=0 // don't automatically add -songbackground-
;
#KEYSOUNDS:;
#ATTACKS:
;

//---------------dance-single - ----------------
#NOTEDATA:;
#CHARTNAME:;
#STEPSTYPE:dance-single;
#DESCRIPTION:;
#CHARTSTYLE:;
#DIFFICULTY:Hard;
#METER:9;
#RADARVALUES:0.628318,0.746912,0.139045,0.161000,0.073182,560.000000,19.000000,22.000000,0.000000,0.000000,0.000000,0.000000,0.000000,0.628318,0.746912,0.139045,0.161000,0.073182,560.000000,19.000000,22.000000,0.000000,0.000000,0.000000,0.000000,0.000000;
#CREDIT:;
#NOTES:
0000
0000
0000
0000
,
0000
0000
0000
0000
,
0000
0000
0000
0000
,
0000
0000
0000
0000
,
0000
0000
0000
0000
,
0000
0000
0000
0000
,
0000
0000
0000
0000
,
0000
0000
0000
0000
,
0000
0000
0000
0000
,
0001
0001
1000
0100
0001
0000
0001
0100
,
1000
0010
0100
0001
0010
0000
0010
0001
,
1000
1000
0001
0100
1000
0000
1000
0100
,
0001
0010
0100
1000
0010
0000
1000
0100
,
0000
0100
1000
0010
0100
0001
0010
0000
,
0010
0001
0100
1000
0100
0010
1000
0000
,
1000
0100
0001
1000
0010
0100
1000
0000
,
0001
0001
0100
0010
1000
0100
0001
0100
,
1000
1000
0001
0100
1000
0000
1000
0100
,
0001
0010
0100
1000
0010
0000
0010
1000
,
0001
0001
1000
0100
0001
0000
0001
0100
,
1000
0010
0100
0001
0010
0000
0001
0100
,
0000
0100
0001
0010
0100
1000
0010
0000
,
0010
1000
0100
0001
0100
0010
0001
0000
,
0001
0100
1000
0001
0010
0100
0001
0000
,
1000
1000
0100
0010
0001
1000
0001
1000
,
0001
0010
0100
1000
0000
0100
1000
0000
,
0100
1000
0010
0002
0000
0023
0000
1030
,
0001
0010
0100
0010
1000
0010
0100
0010
,
0001
0100
0010
1000
0000
1000
0010
0000
,
1000
0100
0010
0001
0000
0010
0001
0000
,
0010
0001
0100
2000
0000
3200
0000
0301
,
1000
0100
0010
0100
1000
1000
0001
1000
,
2002
0000
0000
3003
,
2001
0000
0100
3200
0000
1000
0000
0001
,
0000
0310
0001
0100
0010
0010
1000
0001
,
1001
0000
1000
0010
0000
0010
1000
0100
,
0000
0100
1000
0010
0100
0100
0001
1000
,
1002
0000
0100
0203
0000
0001
0000
1000
,
0000
0310
1000
0100
0010
0010
0001
1000
,
1001
0011
1100
1010
0101
1001
0001
0100
,
0010
0100
0001
0010
0100
1000
0010
0100
,
0010
0100
0010
1000
0100
0010
0001
0001
,
0100
0010
1000
1000
0100
0010
0001
0100
,
1000
0100
0001
0100
1000
0100
0001
0010
,
0100
0010
0001
0100
0010
0100
0001
0010
,
0001
0010
0100
1000
0100
1000
0010
0100
,
0001
0010
0001
0100
0010
1000
0100
0010
,
0001
0100
0010
0010
0100
0001
1000
0100
,
0010
0000
0001
0000
0100
0000
0000
0100
0000
0000
0001
0000
1000
0000
0000
1000
,
0000
0000
0001
0000
0010
0000
0000
0010
0000
0000
0001
0000
1000
0000
0100
0000
,
0001
0000
0100
0000
1000
0001
1000
0001
0000
1000
0001
0000
1000
0000
0100
0000
,
0001
0000
0100
0000
1000
0000
0100
0000
0001
0000
0100
1000
0100
1000
0100
1000
,
0100
0000
1000
0010
1000
0010
1000
0010
1000
0000
0010
0000
0100
0000
0001
0010
,
0001
0000
0010
0000
0100
0000
1000
0010
1000
0000
0010
0000
0100
0010
0100
0010
,
0100
0000
0001
0000
0001
0000
0010
0100
0010
0000
0100
0000
1000
0001
1000
0001
,
1000
0000
0001
0000
1000
0001
1000
0000
1001
0000
0000
0000
2001
0000
0000
0000
,
0100
3200
0001
0302
,
0010
0000
0023
0000
1000
0000
1030
0100
,
0001
0100
0000
0100
1000
0010
0000
0010
,
1000
0000
1000
0100
0001
0100
1000
0010
,
0100
0001
0010
0100
0010
0001
0100
0010
,
1000
1000
0100
1000
0010
0100
0001
0010
,
0001
0100
1000
0100
0001
0010
0100
1000
,
0000
1000
0001
0000
1001
0000
2001
0000
,
3200
0000
0301
0100
1000
0000
2010
0000
,
3100
0012
0103
1002
,
0203
0000
1300
0100
0001
0000
1001
0000
,
1000
0100
0010
0001
0100
0010
0100
0001
,
0010
0100
1000
0010
0100
0001
0010
0001
,
0100
0100
0001
0010
0100
1000
0010
0100
,
0010
1000
0100
0010
0001
0100
0010
1000
,
0100
0010
0100
1000
0010
0100
0001
0001
,
1000
0100
0001
0000
0001
0100
1000
0010
,
0001
0010
1000
0001
0010
0010
0001
0100
,
1000
0100
0001
0000
0100
0010
1000
0100
,
0001
0100
1000
0000
1000
0100
0000
0100
,
1000
0010
0100
0001
0010
0000
0010
0001
,
0100
1000
0100
0010
1000
0000
1000
0100
,
0001
1000
0010
0100
1000
0000
0001
0001
,
0100
0010
1000
0100
0001
0100
1000
1000
,
0001
0100
1000
0000
1000
0100
0001
0010
,
1000
0010
0001
1000
0010
0010
1000
0100
,
0001
0100
1000
0000
0100
0010
0001
0100
,
1000
0100
0001
0000
0001
0100
0000
0100
,
0001
0010
0100
1000
0010
0000
0010
1000
,
0100
0001
0100
0010
0001
0000
0001
0100
,
1000
0001
0010
0100
0001
0000
1000
1000
,
0100
0010
0001
1000
0001
1000
2002
0000
,
0000
0000
0000
3003
;

//---------------dance-single - ----------------
#NOTEDATA:;
#CHARTNAME:;
#STEPSTYPE:dance-single;
#DESCRIPTION:;
#CHARTSTYLE:;
#DIFFICULTY:Medium;
#METER:6;
#RADARVALUES:0.407727,0.681963,0.175636,0.087818,0.000000,354.000000,24.000000,12.000000,0.000000,0.000000,0.000000,0.000000,0.000000,0.407727,0.681963,0.175636,0.087818,0.000000,354.000000,24.000000,12.000000,0.000000,0.000000,0.000000,0.000000,0.000000;
#CREDIT:;
#NOTES:
0000
0000
0000
0000
,
0000
0000
0000
0000
,
0000
0000
0000
0000
,
0000
0000
0000
0000
,
0000
0000
0000
0000
,
0000
0000
0000
0000
,
0000
0000
0000
0000
,
0000
0000
0000
0000
,
0000
0000
0000
0000
,
1001
0000
0001
0000
,
0100
0100
0010
1000
,
1001
0000
1000
0000
,
0100
0100
0010
0000
,
0001
0100
1000
0000
,
0001
0010
1000
0000
,
0001
1000
0001
0000
,
1000
0001
1000
0001
1000
0001
1000
0001
,
1001
0000
1000
0000
,
0100
0100
0010
0001
,
1001
0000
0001
0000
,
0100
0100
0010
0000
,
0000
1000
0100
0001
,
0000
1000
0010
0001
,
0000
1000
0001
1000
,
0001
1000
0001
1000
0001
1000
0001
1000
,
0001
0000
0000
0100
0000
0000
0010
0000
,
1000
0000
0000
0001
0000
0001
0000
0001
,
1000
0000
0000
0100
0000
0000
0010
0000
,
0001
0000
0000
1000
0000
0000
0001
0000
,
1000
0000
0000
0100
0000
0000
0010
0000
,
0001
0000
0000
1000
0000
1000
0000
1000
,
0001
0000
0000
0010
0000
0000
0100
0000
,
1000
0000
0000
0000
,
1001
0000
0000
0000
,
0000
0001
0001
1000
0001
1000
0001
1000
,
1001
0000
0000
0000
,
0000
1000
1000
0001
1000
0001
1000
0001
,
1001
0000
0000
0000
,
0000
0001
0001
1000
0001
1000
0001
1000
,
1001
0110
0110
1001
0110
1001
0001
1000
,
0001
0000
1000
0000
0001
0000
1000
0100
,
0001
0000
0001
0100
1000
0000
1000
0000
,
0001
0000
1000
0001
1000
0000
0001
1000
,
0001
1000
0001
1000
0001
0000
1000
0100
,
0001
0000
0001
0100
1000
0000
0001
0100
,
1000
0000
1000
0100
0001
0000
1000
0100
,
0010
0001
0010
0100
1000
0000
0001
0100
,
0010
1000
0010
0100
0001
0000
1000
0100
,
0001
0100
1000
0000
1000
0000
0001
0000
,
0001
0000
1000
0001
1000
0000
0001
1000
,
0001
0000
1000
0000
0001
0000
1000
0001
,
1000
0001
1000
0001
1000
0001
1000
0100
,
0001
0000
0001
0100
1000
0000
0001
0100
,
1000
0000
1000
0100
0001
0000
1000
0100
,
0010
0001
0010
0100
1000
0000
0001
0100
,
0010
1000
0010
0100
0001
0000
1002
0000
,
0100
0203
1000
2300
,
0010
0000
3020
0000
0001
0000
0031
1000
,
0001
1000
0000
1000
0001
1000
0000
1000
,
0001
0000
1000
0000
0100
0000
0001
0100
,
1000
0000
0001
0100
1000
0000
0100
0000
,
0001
0000
1000
0100
1000
0000
0001
0100
,
0001
0000
1000
0000
0001
0000
1000
0010
,
1000
0000
0001
0010
0001
0000
0102
0000
,
0203
0000
1300
0100
0001
0000
2010
0000
,
3100
0012
0103
2100
,
3200
0000
0301
0100
1000
0000
1001
0000
,
1000
0100
0010
0001
0010
0100
1000
0000
,
0001
0100
1000
0000
1000
0100
0001
0000
,
0001
0010
0100
1000
0100
0010
0001
0000
,
1000
0100
0001
0000
0001
0100
1000
0000
,
1000
0001
1000
0001
1000
0001
1001
0000
,
0000
0001
0000
0100
,
0100
0010
1000
1001
,
0000
1000
0000
0100
,
0100
0010
0000
0000
,
0001
0100
1000
0000
,
0001
0010
1000
0000
,
0001
0000
1000
0000
0001
0000
1000
0001
,
1000
0001
1000
0001
1000
0001
1001
0000
,
0000
1000
0000
0100
,
0100
0010
0001
1001
,
0000
0001
0000
0100
,
0100
0010
0000
0000
,
1000
0100
0001
0000
,
1000
0010
0001
0000
,
1000
0000
0001
0000
1000
0000
0001
1000
,
0001
1000
0001
1000
0001
1000
2002
0000
,
0000
0000
0000
3003
;

//---------------dance-single - ----------------
#NOTEDATA:;
#CHARTNAME:;
#STEPSTYPE:dance-single;
#DESCRIPTION:;
#CHARTSTYLE:;
#DIFFICULTY:Easy;
#METER:4;
#RADARVALUES:0.331409,0.617014,0.358591,0.087818,0.000000,256.000000,49.000000,12.000000,0.000000,0.000000,0.000000,0.000000,0.000000,0.331409,0.617014,0.358591,0.087818,0.000000,256.000000,49.000000,12.000000,0.000000,0.000000,0.000000,0.000000,0.000000;
#CREDIT:;
#NOTES:
0000
0000
0000
0000
,
0000
0000
0000
0000
,
0000
0000
0000
0000
,
0000
0000
0000
0000
,
0000
0000
0000
0000
,
0000
0000
0000
0000
,
0000
0000
0000
0000
,
0000
0000
0000
0000
,
0000
0000
0000
0000
,
1001
0000
1000
0000
,
0100
0100
0010
0001
,
1001
0000
0001
0000
,
0100
0100
0010
0000
,
1000
0100
0001
0000
,
0001
0100
1000
0000
,
0001
1000
0001
0000
,
1000
1000
0001
0001
,
1001
0000
0001
0000
,
0100
0100
0010
1000
,
1001
0000
1000
0000
,
0100
0100
0010
0000
,
0000
0001
0100
1000
,
0000
1000
0100
0001
,
0000
1000
0001
1000
,
0001
0001
1000
1000
,
1001
0000
0001
0000
,
0100
0000
0010
1000
,
0010
0000
1000
0000
,
0100
0000
0010
0001
,
0010
0000
0001
0000
,
0100
0000
0010
1000
,
0010
0000
1000
0000
,
1001
0000
0000
0000
,
1001
0000
0000
0000
,
0000
1000
0001
0000
1001
0000
0001
1000
,
1001
0000
0000
0000
,
0000
0001
1000
0000
1001
0000
1000
0001
,
1001
0000
0000
0000
,
0000
1000
0001
0000
1001
0000
0001
1000
,
1001
0110
0110
1001
0110
1001
0001
0000
,
0000
0100
0000
0010
,
0000
1000
0001
1000
,
0000
0100
0000
0010
,
0010
0010
0010
0001
,
0100
1000
0100
0001
,
0010
1000
0010
0001
,
0100
0010
1000
0001
,
0010
0100
1000
1001
,
0000
1100
0000
1001
,
0000
0101
0000
1001
,
1001
0110
0000
1001
,
1001
0110
0110
1001
,
0001
1001
1000
1100
,
1000
1001
0001
0101
,
0001
1001
1000
1001
,
0001
1001
1000
2001
,
0100
3200
0001
0302
,
0010
0023
1000
1030
,
0000
0001
0000
1000
,
0000
0001
0100
0010
,
1000
0001
0010
0100
,
1000
0100
0010
0001
,
1000
0010
0100
0001
,
1000
0001
1001
0102
,
0203
0000
1300
0100
0001
0000
2010
0000
,
3100
0012
0103
2100
,
3200
0000
0301
0100
1000
0000
1001
0000
,
0001
0100
0010
1000
,
0001
0010
0100
1000
,
0100
0010
0001
1000
,
0010
0100
0001
1000
,
0100
0010
0001
1001
,
0000
0001
0000
0100
,
0100
0010
1000
1001
,
0000
1000
0000
0100
,
0100
0010
0000
0000
,
0001
0100
1000
0000
,
1000
0100
0001
0000
,
1000
0001
1000
0001
,
0001
1000
1000
1001
,
0000
1000
0000
0100
,
0100
0010
0001
1001
,
0000
0001
0000
0100
,
0100
0010
0000
0000
,
1000
0100
0001
0000
,
0001
0100
1000
0000
,
0001
1000
0001
1000
,
1000
0001
0001
2002
,
0000
0000
0000
3003
;

//---------------dance-single - ----------------
#NOTEDATA:;
#CHARTNAME:;
#STEPSTYPE:dance-single;
#DESCRIPTION:;
#CHARTSTYLE:;
#DIFFICULTY:Beginner;
#METER:2;
#RADARVALUES:0.166227,0.259795,0.007318,0.014636,0.000000,156.000000,1.000000,2.000000,0.000000,0.000000,0.000000,0.000000,0.000000,0.166227,0.259795,0.007318,0.014636,0.000000,156.000000,1.000000,2.000000,0.000000,0.000000,0.000000,0.000000,0.000000;
#CREDIT:;
#NOTES:
// measure 0
0000
0000
0000
0000
,  // measure 1
0000
0000
0000
0000
,  // measure 2
0000
0000
0000
0000
,  // measure 3
0000
0000
0000
0000
,  // measure 4
0000
0000
0000
0000
,  // measure 5
0000
0000
0000
0000
,  // measure 6
0000
0000
0000
0000
,  // measure 7
0000
0000
0000
0000
,  // measure 8
0000
0000
0000
0000
,  // measure 9
0001
0000
0000
0000
,  // measure 10
0000
0000
0000
0000
,  // measure 11
1000
0000
0000
0000
,  // measure 12
0000
0000
0000
0000
,  // measure 13
0001
0000
0001
0000
,  // measure 14
1000
0000
1000
0000
,  // measure 15
0010
0000
0010
0000
,  // measure 16
0100
0000
0100
0000
,  // measure 17
0001
0000
0000
0000
,  // measure 18
0000
0000
0000
0000
,  // measure 19
1000
0000
0000
0000
,  // measure 20
0000
0000
0000
0000
,  // measure 21
0001
0000
0001
0000
,  // measure 22
1000
0000
1000
0000
,  // measure 23
0010
0000
0010
0000
,  // measure 24
0100
0000
0100
0000
,  // measure 25
0001
0000
0000
0000
,  // measure 26
0001
0000
0000
0000
,  // measure 27
0001
0000
0010
0000
,  // measure 28
0100
0000
0000
0000
,  // measure 29
1000
0000
0000
0000
,  // measure 30
1000
0000
0000
0000
,  // measure 31
1000
0000
0010
0000
,  // measure 32
0100
0000
0000
0000
,  // measure 33
0001
0000
0000
0000
,  // measure 34
0000
0000
0000
0000
,  // measure 35
0100
0000
0000
0000
,  // measure 36
0000
0000
0000
0000
,  // measure 37
1000
0000
0000
0000
,  // measure 38
0000
0000
0000
0000
,  // measure 39
0100
0001
0010
0100
1000
0001
1000
0000
,  // measure 40
0010
1000
0100
1000
,  // measure 41
0010
1000
0100
1000
,  // measure 42
0010
1000
0100
0010
,  // measure 43
0010
0010
0010
0001
,  // measure 44
0100
0010
0100
0001
,  // measure 45
0010
0100
0010
0001
,  // measure 46
0100
0010
0100
0001
,  // measure 47
0010
0100
0010
0001
,  // measure 48
0000
0001
0000
1000
,  // measure 49
0000
1000
0000
0001
,  // measure 50
1000
0001
0000
1000
,  // measure 51
0001
1000
0000
0001
,  // measure 52
0000
0001
0000
1000
,  // measure 53
0000
1000
0000
0001
,  // measure 54
1000
0001
0000
1000
,  // measure 55
0001
1000
0000
0001
,  // measure 56
0000
0001
0000
0100
,  // measure 57
0000
0100
0000
0010
,  // measure 58
0000
0010
0000
1000
,  // measure 59
0000
1000
0000
0001
,  // measure 60
0000
0010
0000
0100
,  // measure 61
0000
1000
0000
0100
,  // measure 62
0000
0010
0000
0001
,  // measure 63
0000
0000
0000
1000
,  // measure 64
0010
0100
0000
0001
,  // measure 65
0100
0010
0000
1000
,  // measure 66
0100
0010
0000
0001
,  // measure 67
0010
0100
1000
0010
,  // measure 68
0100
0001
0100
0010
,  // measure 69
1000
0001
0010
0100
,  // measure 70
1000
0100
0010
0001
,  // measure 71
1000
0001
1000
0001
,  // measure 72
0000
0000
0000
0000
,  // measure 73
0000
0000
0000
0001
,  // measure 74
0000
0000
0000
0000
,  // measure 75
0000
0000
0000
0001
,  // measure 76
0000
0100
0000
0010
,  // measure 77
0000
1000
0000
0001
,  // measure 78
0000
0010
0000
0100
,  // measure 79
0000
1000
0000
1000
,  // measure 80
0000
0000
0000
0000
,  // measure 81
0000
0000
0000
1000
,  // measure 82
0000
0000
0000
0000
,  // measure 83
0000
0000
0000
1000
,  // measure 84
0000
0010
0000
0100
,  // measure 85
0000
0001
0000
1000
,  // measure 86
0000
0100
0000
0010
,  // measure 87
0000
0001
0000
2002
,  // measure 88
0000
0000
0000
3003
;
