#VERSION:0.81;
#TITLE:Sad Machine;
#SUBTITLE:;
#ARTIST:Porter Robinson feat. AVANNA;
#TITLETRANSLIT:;
#SUBTITLETRANSLIT:;
#ARTISTTRANSLIT:;
#GENRE:;
#ORIGIN:;
#CREDIT:;
#BANNER:Sad Machine.png;
#BACKGROUND:Sad Machine-bg.png;
#PREVIEWVID:;
#JACKET:Sad Machine-jacket.png;
#CDIMAGE:;
#DISCIMAGE:;
#LYRICSPATH:;
#CDTITLE:;
#MUSIC:Sad Machine.ogg;
#OFFSET:-0.020952;
#SAMPLESTART:86.779999;
#SAMPLELENGTH:12.000000;
#SELECTABLE:YES;
#DISPLAYBPM:89.000000:177.000000;
#BPMS:0.000=88.500,
32.000=177.000,
96.000=88.500,
128.000=177.000,
249.000=354.000,
254.000=177.000;
#STOPS:187.500=1.350,
249.000=0.169;
#DELAYS:;
#WARPS:;
#TIMESIGNATURES:0.000=4=4;
#TICKCOUNTS:0.000=4;
#COMBOS:0.000=1;
#SPEEDS:0.000=1.000=0.000=0;
#SCROLLS:0.000=1.000;
#FAKES:;
#LABELS:0.000=Song Start;
#BGCHANGES:;
#KEYSOUNDS:;
#ATTACKS:
;

//---------------dance-single - ----------------
#NOTEDATA:;
#CHARTNAME:;
#STEPSTYPE:dance-single;
#DESCRIPTION:;
#CHARTSTYLE:;
#DIFFICULTY:Hard;
#METER:8;
#RADARVALUES:0.474884,0.733590,0.184283,0.134669,0.070878,424.000000,26.000000,19.000000,0.000000,0.000000,0.000000,0.000000,0.000000,0.474884,0.733590,0.184283,0.134669,0.070878,424.000000,26.000000,19.000000,0.000000,0.000000,0.000000,0.000000,0.000000;
#CREDIT:;
#NOTES:
// measure 0
0000
0000
0000
0000
,  // measure 1
0000
0000
0000
0000
,  // measure 2
0000
0000
0000
0000
,  // measure 3
0000
0000
0000
0000
,  // measure 4
1000
1000
0100
0100
0010
0010
0001
0001
,  // measure 5
0100
0010
1000
0010
0100
0001
0010
0100
,  // measure 6
0010
0001
1000
0001
1000
0010
1000
0100
,  // measure 7
1000
0000
0001
0000
1000
0000
0001
0000
1000
0100
0010
0000
0010
0001
0100
0000
,  // measure 8
1000
0000
0010
0100
0000
0000
1000
0000
,  // measure 9
0001
0000
0010
0100
1000
0000
0100
0010
,  // measure 10
0001
0000
0100
0001
0000
0000
1000
0000
,  // measure 11
0001
0000
0100
0010
0100
0000
0010
0100
,  // measure 12
0010
0000
1000
0100
0000
0000
0010
0000
,  // measure 13
0001
0000
0100
0010
1000
0000
1000
0010
,  // measure 14
0100
0000
0001
0010
0000
0000
0100
0000
,  // measure 15
1000
0000
0010
0100
0001
0100
0010
1000
,  // measure 16
0100
0000
0010
0100
0000
0000
0010
0000
,  // measure 17
0100
0000
0010
0100
0010
0000
0100
0010
,  // measure 18
0001
0000
0010
0100
0000
0000
0001
0000
,  // measure 19
0010
0000
0100
1000
0001
0000
0100
0010
,  // measure 20
1000
0000
0001
0100
0000
0000
0010
0000
,  // measure 21
0100
0000
0001
1000
0001
0000
0001
0100
,  // measure 22
0001
0000
0010
0100
0000
0000
0010
0000
,  // measure 23
0001
0000
0100
0010
1000
0010
0010
0100
,  // measure 24
0200
0000
0000
0000
0000
0000
0000
0000
0000
0000
0000
0000
0320
0000
0000
0000
0000
0000
0000
0000
0000
0000
0000
0000
0000
0000
0000
0000
0000
0000
0000
2000
,  // measure 25
0030
0000
0000
0000
0000
0200
3000
0000
0000
0000
0000
0000
0000
0000
0000
0000
,  // measure 26
0320
0000
0000
0032
0000
0000
0000
2000
,  // measure 27
0000
0000
0000
3003
,  // measure 28
0001
0000
0001
0010
0100
1000
0100
0000
0001
0000
0001
0010
0100
1000
0100
0000
,  // measure 29
1000
0000
1000
0100
0010
0001
0010
0000
1000
0000
1000
0100
0010
0001
0010
0000
,  // measure 30
0001
0000
0001
0100
0010
1000
0100
0000
0001
0000
0001
0100
0010
1000
0100
0000
,  // measure 31
0001
0000
0001
0100
1000
0100
0001
0000
0001
0000
0001
0010
1000
0010
0001
0000
,  // measure 32
1000
0001
0100
0010
,  // measure 33
1000
0100
0010
0001
,  // measure 34
0200
0000
0320
0000
2030
0000
0100
3100
,  // measure 35
0000
0000
0000
0000
0001
0000
0010
0200
,  // measure 36
0000
0000
0000
0000
1000
0000
0000
1300
,  // measure 37
0000
0000
0000
0000
1000
0000
0010
0200
,  // measure 38
0000
0000
0000
0000
0001
0000
0000
0301
,  // measure 39
0000
0000
0100
0000
1000
0000
0010
0100
,  // measure 40
0001
0010
0100
1000
,  // measure 41
0010
0100
0001
0010
,  // measure 42
0100
0100
0010
0010
,  // measure 43
0001
0001
1000
1000
,  // measure 44
0020
0000
0000
0000
0100
0000
0000
0130
,  // measure 45
0000
0001
0001
1000
,  // measure 46
1000
0010
0100
0001
0010
0100
1000
0100
,  // measure 47
0100
0000
0000
0010
0000
0000
0110
0000
,  // measure 48
1001
0000
1000
0010
0100
0000
0001
0100
,  // measure 49
0010
0000
1000
0100
0000
0000
1100
0000
,  // measure 50
0101
0000
0001
1000
0001
0000
1000
0001
,  // measure 51
1000
0000
0010
0100
0000
0000
0101
0000
,  // measure 52
1010
0000
0100
1000
0100
0000
0010
0001
,  // measure 53
0010
0000
0100
1000
0000
0000
1100
0000
,  // measure 54
0011
0000
0001
0100
0010
1000
0100
0010
,  // measure 55
0001
0000
0100
0010
1000
0100
1100
0000
,  // measure 56
0011
0000
0001
0010
0100
0000
1000
0100
,  // measure 57
0010
0000
0001
0010
0100
0010
0110
0000
,  // measure 58
1001
0000
1000
0010
0100
0000
0001
0100
,  // measure 59
0010
0000
1000
0100
0010
0001
0011
0000
,  // measure 60
1100
0000
0001
0100
0010
0000
1000
0010
,  // measure 61
0100
0000
0001
0100
0010
1000
0020
0000
,  // measure 62
0230
0301
0010
0100
,  // measure 63
1000
0000
0001
0000
0010
0000
0100
1000
,  // measure 64
0100
0010
0110
0000
1001
0000
0001
0100
,  // measure 65
1000
0000
0001
0010
1000
0000
0001
0100
,  // measure 66
0010
1000
1010
0000
1100
0000
1000
0010
,  // measure 67
0100
0000
0100
0010
1000
0000
0001
0010
,  // measure 68
0100
1000
1100
0000
0101
0000
0001
0100
,  // measure 69
0010
0000
0010
0100
0001
0000
0010
0100
,  // measure 70
1000
0001
1001
0000
0110
0000
0001
1000
,  // measure 71
0010
0100
0001
0010
0100
0000
1000
0010
,  // measure 72
0100
0001
0101
0000
1100
0000
0001
0000
,  // measure 73
1000
0100
0010
0001
1000
0000
0100
0010
,  // measure 74
0001
0010
0110
0000
1001
0000
1000
0000
,  // measure 75
0010
0100
0001
1000
0100
0000
0001
0100
,  // measure 76
0010
1000
0100
0010
0001
0100
0001
0100
,  // measure 77
0010
1000
0010
1000
0100
0010
0001
0100
,  // measure 78
0010
1000
0010
0100
0001
0010
0100
1000
,  // measure 79
0010
0100
0001
0010
0200
0000
0000
0000
,  // measure 80
0000
0000
0000
0000
,  // measure 81
0000
0000
0320
0000
,  // measure 82
0000
0000
0000
0000
,  // measure 83
0000
0000
0032
0000
,  // measure 84
0000
0000
0000
0000
,  // measure 85
0000
0000
2000
0000
,  // measure 86
0000
3003
0000
0000
;

//---------------dance-single - ----------------
#NOTEDATA:;
#CHARTNAME:;
#STEPSTYPE:dance-single;
#DESCRIPTION:;
#CHARTSTYLE:;
#DIFFICULTY:Medium;
#METER:6;
#RADARVALUES:0.315914,0.489060,0.014176,0.077966,0.003544,299.000000,2.000000,11.000000,0.000000,0.000000,0.000000,0.000000,0.000000,0.315914,0.489060,0.014176,0.077966,0.003544,299.000000,2.000000,11.000000,0.000000,0.000000,0.000000,0.000000,0.000000;
#CREDIT:;
#NOTES:
0000
0000
0000
0000
,
0000
0000
0000
0000
,
0000
0000
0000
0000
,
0000
0000
0000
0000
,
1000
0100
0001
0010
,
1000
0100
0010
0100
,
0001
0010
0100
1000
,
0010
0000
0100
0000
0001
0010
0100
1000
,
0001
0000
0000
1000
0000
0000
0001
0000
,
0000
0000
0001
1000
0001
0000
0100
0000
,
1000
0000
0000
0001
0000
0000
1000
0000
,
0000
0000
1000
0001
1000
0000
0010
0000
,
0001
0000
0000
0100
0000
0000
0001
0000
,
0000
0000
0010
0100
1000
0000
1000
0000
,
1000
0000
0000
0010
0000
0000
0100
0000
,
0000
0000
0100
0001
0010
0000
0100
1000
,
0010
0000
0000
0010
0000
0000
0010
0000
,
0000
0000
0100
0001
0010
0000
0100
0000
,
1000
0000
0000
1000
0000
0000
1000
0000
,
0000
0000
0001
1000
0001
0000
0100
0000
,
0100
0000
0000
0100
0000
0000
0100
0000
,
0000
0000
0010
0100
0010
0000
0010
0000
,
0010
0000
0000
1000
0000
0000
0100
0000
,
0000
0000
0010
0001
0100
0000
0010
1000
,
0100
0000
0000
0000
0000
0000
0000
0000
0000
0000
0000
0000
0000
0000
0000
0000
0000
0000
0000
0000
0000
0000
0000
0000
0000
0000
0000
0000
0000
0000
0000
0100
,
0000
0000
0000
0000
,
0010
0000
0000
0000
0000
0000
0000
0010
,
0000
0000
0000
0000
,
1000
1000
0001
0001
,
0100
0100
0010
0010
,
1000
0100
1000
0010
1000
0100
1000
0001
,
0001
0100
0001
0010
0001
0100
0001
1000
,
0002
0000
0000
0000
,
0000
0103
0010
1000
,
0100
0000
0010
0000
0001
0000
0100
0010
,
0000
0000
0000
0000
1000
0000
0000
0010
,
0000
0000
0000
0000
0100
0000
0000
0100
,
0000
0000
0000
0000
0001
0000
0000
0010
,
0000
0000
0000
0000
0100
0000
0000
0100
,
0000
0000
0002
0000
,
0103
0000
2000
0000
,
3100
0000
0020
0000
,
0130
0000
0200
0000
,
0310
0000
0000
0000
1000
0000
0000
0100
,
0000
0000
0000
0000
0010
0000
0000
0010
,
0000
0000
0000
0000
2000
0000
0000
0002
,
0000
0000
0000
0000
0000
0000
0000
3003
,
0100
0010
0100
0001
,
1000
0000
0001
1000
0001
0000
0001
1000
,
0001
1000
0010
0100
,
0001
0000
0010
0001
0010
0000
0001
0010
,
0001
1000
0100
0010
,
0100
0000
1000
0010
0100
0000
0100
0010
,
1000
0100
0010
0001
,
0100
0000
0010
0100
0010
0000
1000
0001
,
1000
0010
0100
0001
,
0010
0000
0100
1000
0100
0000
0100
0010
,
0100
0010
0001
0100
,
0010
0000
0100
1000
0010
0000
0010
0100
,
0001
0010
0100
1000
,
0010
0000
0100
0010
0001
0000
0001
0010
,
0100
1000
0100
0011
,
1100
0010
1000
0001
,
1000
0001
1000
0100
,
0010
0001
0100
0010
,
1000
0100
0010
0001
0100
0000
0010
0000
,
1000
0100
0010
0100
,
0001
0010
0100
1000
0100
0000
0010
0000
,
1000
0010
0001
0100
,
0001
0100
0010
1000
0100
0000
0001
0000
,
0100
0010
1000
0001
,
1000
0010
0100
0001
0010
0000
0100
0000
,
1000
0010
0100
0001
,
0010
0100
1000
0100
0010
0000
0010
0000
,
0100
0100
1000
0001
,
0001
0100
0010
0100
0001
0000
0100
0000
,
0010
1000
0100
0010
,
0001
0010
1000
0010
0001
0000
0100
0000
,
0010
0000
1000
0000
0100
0000
0010
0001
,
0010
0000
0100
1000
0200
0000
0000
0000
,
0000
0000
0000
0000
,
0000
0000
0000
0300
0200
0000
0000
0000
,
0000
0000
0000
0000
,
0000
0000
2300
0000
,
0000
0000
0000
0000
,
0000
0000
0002
0000
,
0000
3003
0000
0000
;

//---------------dance-single - ----------------
#NOTEDATA:;
#CHARTNAME:;
#STEPSTYPE:dance-single;
#DESCRIPTION:;
#CHARTSTYLE:;
#DIFFICULTY:Easy;
#METER:5;
#RADARVALUES:0.247061,0.305662,0.219723,0.049615,0.000000,206.000000,31.000000,7.000000,0.000000,0.000000,0.000000,0.000000,0.000000,0.247061,0.305662,0.219723,0.049615,0.000000,206.000000,31.000000,7.000000,0.000000,0.000000,0.000000,0.000000,0.000000;
#CREDIT:;
#NOTES:
0000
0000
0000
0000
,
0000
0000
0000
0000
,
0000
0000
0000
0000
,
0000
0000
0000
0000
,
0000
0000
0000
0000
,
0000
0000
0000
0000
,
0000
0000
0000
0000
,
0000
0000
0000
0000
,
1000
0000
1000
0000
,
0001
0000
0001
0000
,
0100
0000
0100
0000
,
0010
0000
0010
0000
,
0001
0000
0101
0000
,
0100
0000
0110
0000
,
0010
0000
1010
0000
,
1000
0001
1000
0001
,
1000
0000
0100
0000
,
1000
0000
0010
0000
,
0100
0000
0001
0000
,
0010
0000
0100
0000
,
1000
0000
1100
0000
,
0100
0000
0110
0000
,
0010
0000
0011
0000
,
0001
0000
1001
0000
,
2000
0000
0000
0000
,
0000
0000
0000
0000
,
0000
0000
0000
0000
,
0000
0000
0000
0000
,
3001
0001
0000
1000
,
1000
1000
0000
0010
,
0010
0010
0000
0100
,
0100
0100
0110
0110
,
1000
1000
1000
1000
,
0001
0001
0001
0001
,
0100
0100
0100
0100
,
0010
0010
0010
0010
,
1000
0100
1000
0010
,
1010
0000
0001
0100
,
0001
0010
0001
0100
,
0101
0000
0001
0001
,
0002
0000
1003
0000
,
2000
0000
3001
0000
,
0200
0000
0310
0000
,
0020
0000
0130
0000
,
1000
0100
0010
0001
,
0100
0010
1000
0010
,
0100
0001
0010
0100
,
1100
0000
0000
0001
0000
0000
1000
0000
,
0000
0010
0110
0100
,
0101
0000
0000
1000
0000
0000
0010
0000
,
0000
0100
0110
0010
,
1010
0000
0000
1000
0000
0000
0100
0000
,
0000
0001
0101
0100
,
0110
0000
0000
0100
0000
0000
0010
0000
,
0000
1000
1100
0100
,
0110
0000
0000
0101
0000
0000
0110
0000
,
0000
0100
0100
0010
,
0110
0000
0000
1100
0000
0000
0110
0000
,
0000
0001
0100
0010
,
0101
0000
0000
0011
0000
0000
0101
0000
,
0000
1000
0010
0100
,
0101
0000
0000
0011
0000
0000
1100
0000
,
0010
0010
1000
0001
,
1000
0000
0000
0000
1000
0000
0000
0100
,
0000
0010
0000
0001
,
0100
0010
0100
0000
0100
0000
0000
0010
,
0000
1000
0000
0010
,
1000
0010
1000
0000
0100
0000
0000
0010
,
0000
0100
0000
0001
,
0100
0001
0100
0000
0100
0000
0000
0010
,
0000
1000
0000
1000
,
0100
1000
0100
0000
0010
0000
0000
0001
,
0000
0100
0000
0010
,
0100
0010
0100
0000
0100
0000
0000
0001
,
0000
1000
0000
0100
,
0010
0100
0010
0000
0001
0000
0000
0100
,
0000
0010
0000
1000
,
1000
0100
0010
0000
0010
0000
0000
0001
,
0000
0100
0000
0001
,
0001
0010
0100
0000
2000
0000
0000
0000
,
0000
0000
0000
0000
,
0000
0000
0000
0000
,
0000
0000
0000
0000
,
0000
0000
0000
0000
,
0000
0000
0000
0000
,
0000
0000
0002
0000
,
0000
3003
0000
0000
;
