#TITLE:Love Day;
#SUBTITLE:;
#ARTIST:요섭 & 은지;
#TITLETRANSLIT:;
#SUBTITLETRANSLIT:;
#ARTISTTRANSLIT:Yoseob & Eunji;
#GENRE:;
#CREDIT:vincentw;
#BANNER:[Duet] - Love Day.png;
#BACKGROUND:[Duet] - Love Day-bg.png;
#LYRICSPATH:[Duet] - Love Day.lrc;
#CDTITLE:cdtitle.png;
#MUSIC:[Duet] - Love Day.ogg;
#OFFSET:1.090000;
#SAMPLESTART:58.410000;
#SAMPLELENGTH:16.000004;
#LASTBEATHINT:0.180000;
#SELECTABLE:YES;
#BPMS:0.000000=120.000000
;
#STOPS:
;
#BGCHANGES:2.000=[Duet] - Love Day-bg.png=1.000=1=0=1===CrossFade==,
99999=-nosongbg-=1.000=0=0=0 // don't automatically add -songbackground-
;
#KEYSOUNDS:;
#ATTACKS:;

//---------------dance-single - ----------------
#NOTES:
     dance-single:
     :
     Beginner:
     1:
     0.119426,0.124339,0.010582,0.042328,0.000000,74.000000,1.000000,4.000000,0.000000,0.000000,0.000000,0.119426,0.124339,0.010582,0.042328,0.000000,74.000000,1.000000,4.000000,0.000000,0.000000,0.000000:
// measure 0
0000
0000
0000
0000
,  // measure 1
0000
0000
0000
0000
,  // measure 2
0000
0000
0000
0000
,  // measure 3
0000
0000
0000
0000
,  // measure 4
0000
0000
0000
0000
,  // measure 5
0000
0000
0000
0000
,  // measure 6
1000
0000
0000
0000
,  // measure 7
0001
0000
0000
0000
,  // measure 8
0100
0000
0000
0000
,  // measure 9
0010
0000
0010
0000
,  // measure 10
1000
0000
0000
0000
,  // measure 11
0100
0000
0000
0000
,  // measure 12
0010
0000
0000
0000
,  // measure 13
0001
0000
0001
0000
,  // measure 14
1000
0000
1000
0000
,  // measure 15
0010
0000
0010
0000
,  // measure 16
0100
0000
0100
0000
,  // measure 17
0001
0000
0001
0000
,  // measure 18
1000
0000
0001
0000
,  // measure 19
1000
0000
0001
0000
,  // measure 20
0100
0000
0010
0000
,  // measure 21
0100
0000
0010
0000
,  // measure 22
1000
0000
1000
0000
,  // measure 23
2000
0000
3000
0000
,  // measure 24
0001
0000
0001
0000
,  // measure 25
0002
0000
0003
0000
,  // measure 26
0100
0000
0010
0000
,  // measure 27
0100
0000
0010
0000
,  // measure 28
1000
0000
0100
0000
,  // measure 29
0010
0000
0001
0000
,  // measure 30
1000
1000
1000
0000
,  // measure 31
0001
0000
1000
0000
,  // measure 32
0001
0000
0001
0001
,  // measure 33
0001
0000
1000
0000
,  // measure 34
0010
0000
0100
0100
,  // measure 35
0100
0000
0000
0000
,  // measure 36
0010
0000
0100
0000
,  // measure 37
0010
0010
0010
0000
,  // measure 38
1000
0000
0100
0000
,  // measure 39
1000
0000
0000
0000
,  // measure 40
0001
0000
0100
0000
,  // measure 41
0001
0000
0000
0000
,  // measure 42
1000
0000
0010
0000
,  // measure 43
1000
0000
1000
0000
,  // measure 44
0001
0000
0010
0000
,  // measure 45
0001
0000
1000
0000
,  // measure 46
2002
0000
0000
0000
,  // measure 47
3003
0000
0000
0000
;

//---------------dance-single - ----------------
#NOTES:
     dance-single:
     :
     Easy:
     3:
     0.188964,0.198942,0.063492,0.021164,0.000000,117.000000,6.000000,2.000000,0.000000,0.000000,0.000000,0.188964,0.198942,0.063492,0.021164,0.000000,117.000000,6.000000,2.000000,0.000000,0.000000,0.000000:
// measure 0
0000
0000
0000
0000
,  // measure 1
0000
0000
0000
0000
,  // measure 2
0000
0000
0000
0000
,  // measure 3
0000
0000
0000
0000
,  // measure 4
0000
0000
0000
0000
,  // measure 5
0000
0000
0000
0000
,  // measure 6
1000
1000
1000
0000
,  // measure 7
0001
0001
0001
0000
,  // measure 8
0100
0000
0010
0000
,  // measure 9
0100
0010
0100
0010
,  // measure 10
1000
0000
0100
0000
,  // measure 11
1000
1000
0100
0000
,  // measure 12
0010
0000
0001
0000
,  // measure 13
0010
0001
0010
0001
,  // measure 14
1000
0000
0010
0000
,  // measure 15
1000
1000
0010
0000
,  // measure 16
0100
0000
0001
0000
,  // measure 17
0100
0001
0100
0001
,  // measure 18
0010
0000
0100
0000
,  // measure 19
1000
0000
0001
0000
,  // measure 20
0100
0010
1000
0001
,  // measure 21
0010
0100
1000
0001
,  // measure 22
1001
0000
0010
0100
,  // measure 23
0010
0100
0000
0001
,  // measure 24
1000
0000
0100
0000
,  // measure 25
0010
0001
1000
0010
,  // measure 26
0100
0000
0010
0000
,  // measure 27
1000
0000
0001
0000
,  // measure 28
1000
0010
0100
0001
,  // measure 29
1000
0100
0010
0001
,  // measure 30
1001
0000
0110
0000
,  // measure 31
0100
0001
1000
0000
,  // measure 32
0001
0000
0010
0100
,  // measure 33
1000
0100
0010
0000
,  // measure 34
0001
0000
0100
0010
,  // measure 35
1000
0000
0100
0000
,  // measure 36
0010
0001
0010
0000
,  // measure 37
0100
1000
0100
0010
,  // measure 38
0110
0000
1001
0000
,  // measure 39
0010
1000
0001
0000
,  // measure 40
1000
0000
0100
0010
,  // measure 41
0001
0010
0100
0000
,  // measure 42
1000
0010
0100
0000
,  // measure 43
0001
0010
0100
0000
,  // measure 44
1000
0000
0100
0000
,  // measure 45
0010
0001
0010
0100
,  // measure 46
0220
0000
0000
0000
,  // measure 47
0330
0000
0000
0000
;

//---------------dance-single - ----------------
#NOTES:
     dance-single:
     :
     Medium:
     5:
     0.305367,0.323280,0.000000,0.105820,0.010582,192.000000,0.000000,10.000000,0.000000,0.000000,0.000000,0.305367,0.323280,0.000000,0.105820,0.010582,192.000000,0.000000,10.000000,0.000000,0.000000,0.000000:
// measure 0
0000
0000
0000
0000
,  // measure 1
0000
0000
0000
0000
,  // measure 2
0000
0000
0000
0000
,  // measure 3
0000
0000
0000
0000
,  // measure 4
0000
0000
0000
0000
,  // measure 5
0000
0000
0000
0000
,  // measure 6
1000
0001
1000
0010
,  // measure 7
0100
0001
0100
0010
,  // measure 8
1000
0100
0010
0001
,  // measure 9
0100
0010
1000
0001
,  // measure 10
1000
0100
0001
0100
,  // measure 11
1000
0010
0001
0010
,  // measure 12
1000
0001
0100
0001
,  // measure 13
1000
0000
0010
0000
0100
0000
0010
1000
,  // measure 14
0100
0000
1000
0000
0100
0000
0010
0001
,  // measure 15
0010
0000
0001
0000
0100
0000
0010
0100
,  // measure 16
0010
1000
0001
0010
,  // measure 17
0100
0000
0000
1000
0000
0000
0010
0000
0100
0000
0000
0000
0001
0000
0000
0000
,  // measure 18
0010
0000
0100
0000
1000
0000
0000
0001
,  // measure 19
0100
0000
0010
0000
1000
0000
0000
0010
,  // measure 20
1000
0000
0001
0000
0010
0000
0100
0010
,  // measure 21
0001
1000
0100
1000
,  // measure 22
0010
0000
0000
0010
0100
0000
0010
1000
,  // measure 23
0010
0000
0100
0000
0001
0010
0100
0010
,  // measure 24
0001
0000
0000
1000
0010
0000
0001
0000
,  // measure 25
0010
0000
1000
0000
0001
0000
0000
0010
,  // measure 26
0100
0000
0010
0001
1000
0000
0000
0010
,  // measure 27
0100
0000
0001
0010
0100
0000
0000
1000
,  // measure 28
0100
0000
1000
0000
0001
0000
1000
0010
,  // measure 29
0100
0000
0010
0000
0000
1000
0000
0000
0001
0000
0000
0000
1000
0000
0010
0000
,  // measure 30
0200
0302
0023
2030
,  // measure 31
3100
0000
0001
0000
0100
0000
0010
1000
,  // measure 32
0010
0000
0000
1000
0001
0000
1000
0001
,  // measure 33
0010
0000
0001
1000
0010
0000
0100
0010
,  // measure 34
1000
0000
0100
0010
0001
0000
1000
0000
,  // measure 35
0010
0000
0100
0000
0010
0000
1000
0001
,  // measure 36
1000
0000
0100
0010
0100
0000
0010
0001
,  // measure 37
0010
0000
0001
0100
1000
0000
1000
0100
,  // measure 38
0002
0203
2300
3020
,  // measure 39
0031
0000
0010
0000
0001
0000
1000
0100
,  // measure 40
1000
0000
0000
0100
0010
0000
0100
0010
,  // measure 41
0001
0000
0010
0000
0100
0000
1000
0001
,  // measure 42
1000
0000
0010
0100
0010
0000
1000
0100
,  // measure 43
1000
0000
0001
0100
0001
0000
1000
0010
,  // measure 44
1000
0000
0001
0000
0010
0000
0100
0010
,  // measure 45
0001
0000
1000
0000
0020
0000
0000
0130
,  // measure 46
0002
0000
0000
0000
,  // measure 47
0003
0000
0000
0000
;

//---------------dance-single - ----------------
#NOTES:
     dance-single:
     :
     Hard:
     7:
     0.415722,0.447619,0.148148,0.031746,0.227513,258.000000,14.000000,3.000000,0.000000,0.000000,0.000000,0.415722,0.447619,0.148148,0.031746,0.227513,258.000000,14.000000,3.000000,0.000000,0.000000,0.000000:
// measure 0
0000
0000
0000
0000
,  // measure 1
0000
0000
0000
0000
,  // measure 2
0000
0000
0000
0000
,  // measure 3
0000
0000
0000
0000
,  // measure 4
0000
0000
0000
0000
,  // measure 5
0000
0000
0000
0000
,  // measure 6
1000
0000
0010
0000
0100
0100
0001
0000
,  // measure 7
1000
0000
0100
0000
0010
0010
0001
0000
,  // measure 8
0100
0000
0010
0000
1000
1000
0001
0000
,  // measure 9
0010
0000
0000
0001
0000
0000
1000
0000
0100
0000
0000
0000
1100
0000
0000
0000
,  // measure 10
0001
0000
0100
0000
0010
0010
1000
0000
,  // measure 11
0001
0000
0010
0000
0100
0100
1000
0000
,  // measure 12
0010
0000
0100
0000
0001
0001
1000
0100
,  // measure 13
1000
0000
0001
0000
0010
0000
0001
0100
,  // measure 14
0010
0000
1000
0010
0000
1000
0000
0010
0000
0000
0000
0000
0100
0000
0001
0000
,  // measure 15
1000
0000
0010
0100
0000
0010
0000
0000
1000
0000
0000
0000
0001
0000
0010
0000
,  // measure 16
0100
0000
0010
0001
0000
0100
0000
0000
0001
0000
0000
0000
0010
0000
0100
0000
,  // measure 17
1000
0000
0000
0001
0000
0000
0010
0000
0100
0000
0000
0000
0110
0000
0000
0000
,  // measure 18
0001
0000
1000
0100
0000
0001
0000
0100
0000
0000
0000
0000
0010
0000
0001
0000
,  // measure 19
1000
0000
0100
0010
0000
0100
0000
1000
0000
0000
0000
0000
0010
0000
0100
0000
,  // measure 20
1000
0000
0000
0100
0000
0000
0001
0000
0010
0000
0000
0000
0100
0010
0100
0000
,  // measure 21
2000
0000
0000
0000
3020
0000
0000
0130
0010
0000
1000
0000
0001
0000
0100
0000
,  // measure 22
0101
0000
0000
0000
0010
0000
1000
0000
0010
0000
0000
1000
0000
0000
0001
0000
,  // measure 23
0100
0000
0001
0100
0000
0000
0010
0000
0100
0000
0001
0000
0010
0000
0100
0000
,  // measure 24
1000
0000
0010
0100
0001
0000
0100
0000
,  // measure 25
0010
0000
1000
0010
0000
0000
0100
0000
0001
0000
0000
0000
1000
0000
0100
0000
,  // measure 26
0010
0000
0100
0000
1000
0000
0001
0000
0100
0000
0000
0000
0010
0000
0100
0010
,  // measure 27
0100
0001
0010
1000
0010
0000
0001
1000
,  // measure 28
0100
0000
1000
0001
0000
0000
0100
0000
0001
0000
0000
0000
0010
0000
0100
0000
,  // measure 29
0001
0000
0100
1000
0000
0010
0000
0000
1000
0000
0010
0000
0100
0000
0010
0000
,  // measure 30
0110
1001
0101
1010
,  // measure 31
0010
0000
0100
0001
0000
0000
0100
0000
0010
0000
0000
0000
1000
0000
0100
0000
,  // measure 32
0010
0000
0001
0100
0001
0000
1000
0010
,  // measure 33
1000
0000
0001
1000
0000
0000
0100
0000
0010
0000
0000
0000
0001
0000
0010
0000
,  // measure 34
1000
0000
0001
0100
1000
0000
0010
0000
,  // measure 35
1000
0000
0100
1000
0000
0000
0000
0000
0001
0000
0000
0000
0010
0000
0001
0000
,  // measure 36
0010
0000
0100
0001
0000
0100
0000
0010
0000
0000
0000
0000
0100
0000
1000
0000
,  // measure 37
0100
0000
0010
1000
0000
0010
0000
0100
1000
0000
0010
0000
0100
0000
0001
0000
,  // measure 38
0101
1010
1100
0011
,  // measure 39
1000
0000
0010
0100
0000
0000
0010
0000
1000
0000
0000
0000
0001
0000
0100
0000
,  // measure 40
0010
0000
1000
0010
0100
0000
0001
0010
,  // measure 41
0100
0000
0010
0001
0000
0000
0000
0000
1000
0000
0010
0000
0001
0000
0010
0000
,  // measure 42
1000
0000
0001
0100
0000
0000
0010
0000
1000
0000
0001
0100
0000
0000
0010
0000
,  // measure 43
1000
0000
0100
0001
0000
0000
1000
0000
0010
0000
0001
0100
0000
0000
0001
0000
,  // measure 44
0010
0000
0100
1000
0000
0000
0000
0000
1001
0000
0000
0000
0110
0000
0001
0000
,  // measure 45
0011
0000
0100
1000
0000
0000
0100
0000
0010
0100
0010
0000
0001
0000
1000
0000
,  // measure 46
0020
0000
0000
0000
,  // measure 47
0030
0000
0000
0000
;
