#TITLE:Little Little Princess;
#SUBTITLE:;
#ARTIST:SHRINE 418;
#TITLETRANSLIT:;
#SUBTITLETRANSLIT:;
#ARTISTTRANSLIT:;
#GENRE:;
#CREDIT:brunobg24;
#MENUCOLOR:;
#METERTYPE:DDR;
#BANNER:[Duet] - Little Little Princess.png;
#BACKGROUND:[Duet] - Little Little Princess-bg.png;
#LYRICSPATH:;
#CDTITLE:;
#MUSIC:[Duet] - Little Little Princess.mp3;
#OFFSET:-0.040;
#SAMPLESTART:96.276;
#SAMPLELENGTH:9.017;
#SELECTABLE:YES;
#LISTSORT:;
#BPMS:0.000=212.000,68.000=106.000,83.000=212.000,241.000=106.000,265.000=212.000,381.000=180.000;
#STOPS:;
#BGCHANGES:;
#ATTACKS:;

//---------------dance-single - ----------------
#NOTES:
     dance-single:
     :
     Hard:
     9:
     0.775,0.994,0.162,0.130,0.166:
0000
0000
0000
0000
,
2000
0000
0000
0000
3002
0000
0000
0203
,
0000
0000
0000
0000
,
0320
0000
0000
0000
0230
0000
0000
0302
,
0000
0000
0000
0000
,
2003
0000
0000
0000
3020
0000
0000
0230
,
0000
0000
0000
0000
,
0301
0000
0000
0000
1000
0001
1000
0001
,
0000
1000
0010
1000
0001
0100
0001
0010
,
0001
0010
0100
1000
0010
0100
0000
0101
,
0000
0100
0010
0000
1000
0010
1000
0000
,
0001
0100
0010
1000
0100
0010
0000
0011
,
0000
0001
0100
0000
0010
1000
0010
0000
,
1000
0100
0001
0100
0010
0100
0000
1100
,
0000
0001
0100
0000
0010
1000
0010
0000
,
0100
0001
0010
0001
1000
0010
0000
1001
,
0000
0100
0001
0000
1000
0010
1000
0001
,
0100
0000
0010
1000
0010
0000
1000
0100
0010
0100
1000
0000
0001
0000
0100
0001
,
0100
0000
0001
0010
0100
0010
0001
0000
1000
0000
0010
0100
0010
0000
1000
0010
,
0001
0010
0100
0000
0001
1000
0001
0010
1000
0010
0001
0000
0100
0000
0010
0000
,
1000
0000
0001
0100
0001
0000
1000
0010
0100
0010
0001
0000
0010
0000
0100
0000
,
0010
1000
0100
1000
0001
0100
0001
1000
,
0010
0100
0001
0000
1000
0010
1000
0000
,
0001
0100
0001
0000
1000
0010
0000
0010
,
0100
0000
0001
0010
0100
0010
0001
1000
,
0100
0010
0001
1000
0000
0010
0000
0100
,
0001
1100
0110
0101
,
0011
0000
1001
0000
0001
1000
0000
1000
,
0010
0000
1000
0010
0000
0010
0100
0001
,
0000
1000
0001
0100
0000
0100
0001
0010
,
0000
0001
1000
0100
0000
0100
0010
0001
,
0000
1000
0010
0100
0000
0100
0001
0010
,
0000
0001
1000
0100
0000
0100
1000
0001
,
0000
0001
0100
0010
1000
0100
0010
0001
,
0010
0100
1000
0010
0100
0010
0100
0001
,
0000
0001
1000
0100
0000
0100
0010
0001
,
0000
1000
0001
0100
0010
1000
0100
1000
,
0000
1000
0001
0100
0000
0100
0001
0010
,
0001
0010
0100
1000
0000
0001
0100
0001
,
0000
1000
0100
0010
0000
0001
0100
0010
,
0000
0010
1000
0100
1000
0001
0100
0010
,
1000
0100
0010
0010
0001
0001
1000
0000
,
1001
0000
0001
0100
0000
0110
0000
0010
,
0000
1000
0000
0001
0100
0100
0010
0010
,
1000
0100
0010
0100
0000
1100
0000
1000
,
0000
0001
0000
1000
0010
0010
0100
0100
,
0001
0010
0001
0000
1000
0100
0001
0100
,
1000
0001
0100
0000
0001
0010
1000
0010
,
0001
0100
0010
0000
1000
0001
1000
0000
,
0001
0010
0100
0010
0001
1000
0010
1000
,
0001
0000
1000
0100
1000
0100
0010
0001
,
0010
0001
1000
0010
1000
0010
0100
0001
,
0100
0001
1000
0001
1000
0001
0010
0100
,
0010
0100
1000
0010
1000
0010
0100
0001
,
0100
0001
1000
0100
0010
0001
0010
0100
,
1000
0000
0001
0010
1000
0010
0001
0100
,
0010
0000
1000
0010
0100
0001
0010
0100
,
0010
0000
0100
0010
0001
1000
0010
0100
,
0001
0000
1000
0100
0010
1000
0010
0001
,
0100
0000
0001
0010
0001
0010
0100
1000
,
0100
0000
1000
0000
0001
0010
0100
0010
0001
0000
1000
0000
0010
0000
0000
0000
,
1000
0100
0010
0100
1000
0000
0001
0000
1000
0000
0000
0000
0001
0010
1000
0010
,
0001
0000
1000
0000
0010
0000
0000
0000
1000
0100
0001
0100
1000
0000
0001
0010
,
0100
1000
0100
0000
1000
0001
0010
0100
1000
0000
0001
0000
0100
0000
0000
0000
,
0010
1000
0100
0010
0001
0000
1000
0000
0010
0000
0000
0000
1000
0010
0001
0010
,
0100
0000
0001
0000
1000
0000
0000
0000
0001
0100
1000
0100
0010
0000
1000
0100
,
0010
1000
0010
0000
0002
0000
0000
0000
0000
0000
0000
0000
0000
0000
0000
0000
,
0000
0000
1003
0000
1010
0000
0100
0001
,
0000
0101
0000
1010
0000
2100
0000
0000
,
3000
0000
0001
0010
1000
0010
0001
0010
,
0100
1000
0200
0000
0310
0020
0000
0000
,
0030
0000
0001
0010
0100
0001
0100
1000
,
0010
0100
0001
1000
0100
0010
1000
0010
,
0001
0100
0001
0010
1000
0010
0100
0010
,
0001
0100
1000
0100
0001
0100
0020
0000
,
0032
0000
0013
1000
0000
1100
0000
0100
,
0000
0010
0000
0001
1000
1000
0010
0010
,
0100
0001
1000
0010
0000
0110
0000
0100
,
0000
0001
0000
1000
0010
0010
0100
0100
,
0001
0010
0100
0000
1000
0100
0001
0100
,
1000
0001
0100
0000
0001
0010
1000
0010
,
0001
0100
0010
0000
1000
0001
1000
0000
,
0001
0010
0100
0010
0001
1000
0100
1000
,
0001
1000
0001
0010
0001
0010
0100
1000
,
0100
1000
0001
0100
0001
0100
0010
1000
,
0010
1000
0001
1000
0001
1000
0100
0010
,
0100
0010
0001
0100
0001
0100
0010
1000
,
0010
1000
0001
0010
0100
0010
0001
1000
,
0100
0000
0010
0001
1000
0010
1000
0001
,
0100
0000
0001
1000
0100
1000
0010
0100
,
0001
0000
1000
0100
0010
1000
0010
0001
,
0100
0001
0010
0100
0010
0100
1000
0001
,
1000
0010
1000
0100
0001
0100
0010
0100
,
1000
0000
0001
0000
0100
0000
0000
0000
0000
0010
0000
0000
0000
0000
1010
0000
,
0000
0000
0000
0000
0001
0000
0000
0000
0000
0100
0000
0000
0000
0000
0101
0000
,
0000
0000
0000
0000
0000
0000
1000
0000
0000
0100
0000
0000
0010
0000
0000
0001
0000
0000
1000
0000
0010
0000
1000
0000
,
0001
0100
0001
0020
0000
0000
0000
0000
0000
0000
0000
0000
,
0000
0000
0000
0000
,
0000
0030
0000
0000
;

//---------------dance-single - ----------------
#NOTES:
     dance-single:
     :
     Challenge:
     11:
     0.878,1.000,0.316,0.138,0.478:
0000
0000
0000
0000
,
2000
0000
0000
0000
3200
0000
0000
0302
,
0000
0000
0000
0000
,
0203
0000
0000
0000
2300
0000
0000
3020
,
0000
0000
0000
0000
,
0230
0000
0000
0000
2300
0000
0000
3200
,
0000
0000
0000
0000
,
0301
0000
0000
0000
1000
0100
0010
0001
,
0000
0000
1000
0000
0010
0000
1000
0000
0001
0100
0001
0100
0010
1000
0010
1000
,
0001
0010
0100
0010
0001
1000
0000
1100
,
0000
0100
0010
0000
0001
1000
0010
0000
,
1000
0100
0010
1000
0010
0001
0000
0101
,
0000
0100
0010
0010
1000
0100
1000
0000
,
0001
0100
1000
0001
0010
0100
0000
0110
,
0000
0010
1000
0000
0001
0100
0001
0000
,
1000
0010
0001
0010
0100
0010
1000
0010
,
0000
0000
1000
0000
0100
0000
0010
0000
0001
1000
0001
1000
0001
0000
0000
0000
,
1000
0100
0001
0100
1000
0000
0001
0010
0100
0010
0001
0000
1000
0100
0010
0100
,
1000
0000
0001
0010
1000
0010
0001
0000
1000
0100
0010
1000
0010
0000
0001
0010
,
0100
0001
0100
0000
0010
0001
1000
0100
0010
0001
0100
0000
0110
0000
1001
0000
,
0001
0010
0100
1000
0100
0000
1000
0100
0010
0001
0010
0000
0001
0000
0100
0000
,
0010
0000
0100
0000
0001
1000
0001
0000
1000
0000
0010
0100
0010
0000
1000
0000
,
0001
0010
0001
0010
0001
0000
0100
0000
0010
0000
1000
0000
0100
0000
0001
0000
,
0100
1000
0010
0100
0001
0010
1000
0010
,
0100
0010
0001
1000
0100
0010
0100
1000
,
0001
1000
0010
0100
0000
0110
0000
0001
,
0100
0101
0011
1001
,
1010
0000
1100
0000
0100
0010
0000
0010
,
0001
0100
0001
0010
0000
0010
0001
1000
,
0000
1000
0001
0010
0100
0010
0001
1000
,
0000
0001
0100
0010
0000
0010
1000
0100
,
0000
0100
0010
0001
1000
0010
0100
0001
,
0000
1000
0010
1000
0000
1000
0001
0100
,
0000
0100
0001
0010
0100
1000
0100
0001
,
0100
1000
0001
0010
0100
0010
0001
1000
,
0001
0100
1000
0100
0010
1000
0100
0010
,
0001
0010
1000
0010
0100
1000
0001
0100
,
0010
1000
0100
0010
1000
0010
0001
0100
,
1000
0100
0010
1000
0001
0100
0010
1000
,
0100
0010
0001
0100
0010
1000
0001
0010
,
0100
1000
0001
0010
0001
0010
0100
1000
,
0100
1000
0001
0001
1000
1000
0010
0000
,
0110
0000
1000
0010
0000
0110
0000
0101
,
0000
0011
0000
0001
1000
1000
0010
0010
,
0100
0100
0001
1000
0000
1010
0000
0110
,
0000
0101
0000
1000
0010
0010
0100
0100
,
0001
0000
0001
0000
1000
0000
0000
0000
0001
0000
0100
0000
0010
1000
0010
0000
,
1000
0000
0100
0000
0010
0000
0000
0000
0010
0000
0001
0000
1000
0010
1000
0000
,
0001
0010
0100
0000
0010
0001
1000
0100
,
0010
0100
1000
0000
0001
0100
0000
0100
,
0010
0010
1000
0100
0001
0100
1000
0100
,
0001
0100
1000
0010
0001
0010
1000
0010
,
0001
0010
1000
0100
0001
0100
0010
0100
,
1000
0100
1000
0010
0100
0010
0001
0010
,
0100
0010
1000
0001
0100
0010
1000
0010
,
1000
0100
0010
0001
0010
0100
1000
0001
,
0100
0001
0010
0100
0001
0100
1000
0010
,
0100
0001
1000
0100
0010
1000
0010
0001
,
0100
0010
1100
0000
1010
0000
0110
0000
,
0101
0011
1001
1010
,
0110
0000
0000
0000
1000
0100
0001
0100
0010
0000
0001
0000
1001
0000
0000
0000
,
0001
0100
1000
0100
0010
0000
1000
0000
1010
0000
0000
0000
0100
0001
0010
0100
,
1000
0000
0001
0000
0101
0000
0000
0000
0010
1000
0100
0010
0001
0000
0001
0010
,
0100
1000
0010
0000
1000
0001
0010
1000
0010
0000
0001
0100
0001
0000
0000
0000
,
1000
0010
0100
0001
0100
0000
0010
1000
0010
0000
0000
0000
0100
0010
1000
0001
,
1000
0000
0100
0010
0100
0000
0000
0000
0010
0001
0010
0100
1000
0000
0001
1000
,
0100
0010
0001
0000
2000
0000
0000
0000
0000
0000
0000
0000
0000
0000
0000
0000
,
0000
0000
3001
0000
0001
0000
1000
0001
,
0000
0101
0000
0110
0000
2020
0000
0000
,
3030
0000
0000
1000
0100
1000
0001
1000
0001
0100
0010
0100
,
0001
0000
0010
0000
0001
0000
0200
0000
0000
0000
0000
0000
0310
0000
0000
0020
0000
0000
0000
0000
0000
0000
0000
0000
,
0030
0000
0000
1000
0100
1000
0001
0100
0001
1000
0010
1000
,
0001
0010
0001
0100
0010
0100
0001
1000
0001
0010
0100
0010
,
0001
0010
0001
1000
0010
1000
0100
1000
0001
0100
0010
0100
,
0001
0010
0001
1000
0100
0010
0100
1000
0001
0200
0000
0000
,
0302
0000
1003
0010
0000
0110
0000
1010
,
0000
1100
0000
1000
0001
0001
0010
0010
,
0100
0100
1000
0001
0000
1001
0000
0110
,
0000
0101
0000
0001
1000
1000
0100
0100
,
0010
0000
0010
0000
0001
0000
0000
0000
1000
0000
0001
0000
0010
0100
0010
0000
,
0100
0000
1000
0000
0001
0000
0000
0000
0001
0000
0100
0000
0010
1000
0010
0000
,
1000
0010
0100
0000
0001
0010
0100
0001
,
0100
1000
0010
0000
1000
0010
0000
0010
,
0100
0100
0001
0100
1000
0100
0001
0100
,
1000
0100
0001
0010
1000
0010
0001
0010
,
1000
0010
0001
0100
0010
0100
1000
0100
,
0010
0000
0100
0000
0001
0000
0010
0000
0100
0000
1000
0000
0001
0100
0001
0100
,
0010
1000
0010
1000
0100
0000
0010
0000
0001
0000
1000
0000
0100
0000
0010
0000
,
0100
1000
0001
0100
0010
0100
0001
1000
,
0100
0010
1000
0010
0001
0100
0001
0010
,
0100
0000
0000
0001
0000
0000
0100
0000
0000
1000
0000
0000
0010
0000
0000
0100
0000
0000
0001
0000
0010
0000
0001
0000
,
1000
0000
0100
0000
1000
0000
0010
0000
0000
0100
0000
0000
0001
0000
0000
0100
0000
0000
1000
0000
0100
0000
0001
0000
,
0010
0100
0010
0001
1000
0001
1000
0100
1000
0010
0100
0010
,
0100
0000
0000
0000
0001
0000
0000
0000
0010
0000
0000
0000
0001
0000
0000
0000
0000
0000
0000
0000
0000
0000
0000
0000
0000
0000
0000
1000
0000
0000
0000
0000
0000
0000
0000
0000
0000
0000
0000
0000
0000
0000
0010
0000
0000
0000
0000
0000
,
0000
0000
0000
0000
1001
0000
0000
0000
0000
0010
0000
0000
0000
0000
0100
0000
,
0000
0000
0000
0000
0000
0000
0001
0000
0000
0010
0000
0000
0100
0000
0000
1000
0000
0000
0001
0000
0100
0000
0001
0000
,
1000
0010
1000
0200
0000
0000
0000
0000
0000
0000
0000
0000
,
0000
0000
0000
0000
,
0000
0300
0000
0000
;

//---------------dance-single - ----------------
#NOTES:
     dance-single:
     :
     Easy:
     5:
     0.399,0.477,0.097,0.154,0.008:
0000
0000
0000
0000
,
2000
0000
0000
0000
0000
0000
0000
3002
,
0000
0000
0000
0000
,
0203
0000
0000
0000
0000
0000
0000
0320
,
0000
0000
0000
0000
,
2030
0000
0000
0000
0000
0000
0000
3200
,
0000
0000
0000
0000
,
0320
0000
0000
0000
0000
0000
0000
0032
,
0000
0000
0000
0000
,
1003
0000
0100
0000
0010
0000
0000
0001
,
0000
1000
0000
0010
,
0100
0000
0001
0000
0010
0000
0000
0100
,
0000
1000
0000
0001
,
0100
0000
0010
0000
1000
0000
0000
0100
,
0000
0010
0000
0001
,
0100
0000
0001
0000
0010
0000
0000
0100
,
0000
1000
0001
1000
,
0001
0000
0000
1000
0010
1000
0020
0000
,
0000
0130
0000
0000
0000
0000
0000
0001
,
0010
0001
0020
0000
0000
0130
0000
0000
,
0000
0000
0000
1000
0100
1000
0200
0000
,
0000
0000
0310
0001
,
1000
0001
0100
0010
,
1000
0000
0001
0000
0000
0100
0000
0000
,
0001
0010
0100
1000
,
0001
0000
1000
0000
0000
0010
0000
0000
,
0100
0001
0001
1000
,
1000
0000
0010
0000
0000
0110
0000
0000
,
0000
1000
0001
0100
,
0000
0001
0100
0001
,
1000
0010
0000
1000
,
0001
0100
0010
1000
,
0100
0010
0000
0000
,
0000
0001
0010
0100
,
1000
0001
0100
0001
,
0100
0010
1000
0010
,
1000
0100
0010
0100
,
0010
0001
1000
0001
,
1000
0100
0010
0010
,
0001
1000
0010
0100
,
0001
0010
0100
0010
,
0001
1000
1000
0001
,
0001
0000
1001
0000
0000
0100
0000
0100
,
0000
0100
0000
0000
0001
0000
1000
0000
,
0001
0000
0110
0000
0000
0010
0000
0010
,
0000
0010
0000
0000
1000
0000
0100
0000
,
0010
0002
0000
1003
,
0000
2000
0000
3010
,
0000
0110
0000
0000
,
0000
1000
0100
0010
,
0001
1000
0100
1000
,
0100
1000
0100
1000
,
0100
0010
0001
0010
,
0001
0010
0001
0010
,
0001
1000
0001
1000
,
0001
0100
0010
0100
,
0010
1000
0010
1000
,
0010
0100
0001
0100
,
0001
0010
0100
1000
,
0001
1000
1000
0010
,
0010
0000
1010
0000
0000
0100
0001
0000
,
0010
0000
0000
0100
1000
0000
0001
0000
,
0000
0100
0010
0000
1000
0000
0000
0001
,
0100
0001
1000
0000
0000
0100
0010
0000
,
0001
0000
0000
0010
0100
0000
1000
0000
,
0000
0001
0100
0000
0010
0000
0000
1000
,
0100
0010
0002
0000
0000
0000
0000
0000
,
0000
1003
1000
1000
,
0000
0010
0000
0100
0000
0020
0000
0000
,
0030
1000
0100
0010
,
0001
0000
0100
0000
0000
0002
0000
0000
,
0003
1000
1000
1000
,
1000
0010
0010
0010
,
0010
0100
0100
0100
,
0100
0001
0001
0001
,
0001
0000
1001
0000
0000
0100
0000
0100
,
0000
0100
0000
0000
0001
0000
0100
0000
,
0010
0000
1001
0000
0000
0010
0000
0010
,
0000
0010
0000
0000
1000
0000
0001
0000
,
0100
0020
0000
0130
,
0000
2000
0000
3001
,
0000
0110
0000
0000
,
0000
0001
0010
0100
,
1000
0001
0010
0001
,
0010
0001
0010
0001
,
0010
0100
1000
0100
,
1000
0100
1000
0100
,
1000
0001
0100
0001
,
0100
0010
1000
0010
,
1000
0100
0010
0100
,
0010
0001
1000
0001
,
1000
0100
0100
0010
,
0010
1001
1001
0110
,
0110
0000
0000
0000
1000
0000
0000
0000
0000
1000
0000
0000
0000
0000
1000
0000
,
0000
0000
0000
0000
0001
0000
0000
0000
0000
0001
0000
0000
0000
0000
0001
0000
,
0000
1000
0100
0010
,
0001
0020
0000
0000
,
0000
0000
0000
0000
,
0000
0030
0000
0000
;

//---------------dance-single - Copied from----------------
#NOTES:
     dance-single:
     Copied from:
     Medium:
     7:
     0.568,0.716,0.089,0.235,0.024:
0000
0000
0000
0000
,
2000
0000
0000
0000
3002
0000
0000
2003
,
0000
0000
0000
0000
,
3020
0000
0000
0000
0230
0000
0000
0320
,
0000
0000
0000
0000
,
2030
0000
0000
0000
3200
0000
0000
0320
,
0000
0000
0000
0000
,
0031
0000
0000
0000
1000
0001
1000
0001
,
0000
0000
0000
0000
1000
0100
1000
0000
,
0001
1000
0001
0000
1000
0010
0000
0100
,
0000
0001
0010
0100
,
1000
0100
0010
0000
0100
0010
0000
0001
,
0000
0000
1000
1000
0010
0000
0100
0000
,
0001
0100
0010
0000
1000
0001
0000
0100
,
0000
0001
0100
0010
,
1000
0001
0100
0000
0001
0010
0000
0100
,
0000
0000
1000
0010
1000
0010
0100
0000
,
1001
0000
0000
0001
0010
0100
2000
0000
,
0000
3002
0000
0000
0103
0000
0000
1000
,
0100
0010
0002
0000
0000
0203
0000
0000
,
0310
0000
0000
0001
0100
0010
1000
0000
,
1000
0000
0001
0100
0001
0000
1000
0010
,
1000
0001
0100
0010
,
1000
0000
0100
0000
0010
0001
0000
0001
,
1000
0010
0000
1000
0010
1000
0010
0100
,
0001
0010
0100
1000
0000
0001
0000
0100
,
0001
1100
0110
0011
,
1001
0000
1010
0000
0000
0002
0000
0000
,
0003
0000
1000
0000
0001
0100
0001
0000
,
1000
0010
0100
0000
0001
0100
0000
0100
,
0010
2000
0000
3001
,
0010
0000
0100
0000
1000
0010
0000
0000
,
0010
0000
0100
0001
0000
1000
0001
1000
,
0000
0010
0200
0000
0302
0000
2003
0000
,
3020
0000
1030
0000
0100
0010
0000
0010
,
0001
0000
1000
0000
0001
0100
0000
0100
,
0010
0000
1000
0000
0001
0010
0000
0010
,
0100
0000
1000
0000
0001
1000
0000
1000
,
0010
0100
0001
0010
,
0100
0000
1000
0000
0001
0100
0000
0010
,
0000
1000
0100
0000
0010
0000
0100
1000
,
0001
0100
0001
0010
1000
0010
0001
0000
,
1000
0000
0100
0010
0000
0001
0000
0100
,
0000
0010
0000
1000
0100
1000
0001
0100
,
0001
1000
0001
0100
0000
0010
0000
1000
,
0000
0001
0000
1000
0010
1000
0001
0010
,
0001
0100
0020
0000
0000
0000
1030
0100
,
1000
0000
0002
0000
0000
0000
0103
0010
,
0100
0010
1000
0100
,
0010
0000
0001
0000
1000
0001
0000
0001
,
0100
0010
0100
0000
0001
0000
0010
0000
,
0100
0000
1000
0000
0001
0000
1000
0010
,
1000
0001
0100
0000
0001
0000
0010
0000
,
0100
0000
0010
0000
0001
0000
1000
0001
,
0010
0100
0010
0000
0001
0000
1000
0000
,
0100
1000
0010
0000
0100
0000
0001
0000
,
0010
0001
0010
0000
0100
0000
1000
0000
,
0001
0000
0100
0000
0010
0000
1000
0001
,
0100
0001
1000
0000
0010
0000
0001
0000
,
0010
1000
0100
0001
,
0100
0000
1000
0100
0010
0001
0100
0000
,
0001
0010
0100
1000
0010
0000
1000
0100
,
0010
0001
0100
0000
0001
0010
0100
1000
,
0100
0000
0010
0000
0001
0000
1000
0001
1000
0000
0010
0000
0100
0000
0000
0000
,
0010
0000
1000
0100
1000
0000
0001
0000
0100
0000
0000
0000
0001
0000
1000
0100
,
1000
0000
0001
0000
1000
0000
0000
0000
0100
0000
0010
0001
0010
0000
0100
0000
,
1000
0001
0200
0000
0000
0000
0000
0000
,
0000
0000
0301
0000
0001
0000
0001
1000
,
0000
1000
0000
0010
0000
0210
0000
0000
,
0300
0000
0010
1000
0010
1000
0001
0100
,
0001
0100
0010
0000
0010
0020
0000
0000
,
0030
1000
0100
0001
,
0100
1000
0010
0001
,
0010
1000
0100
0001
,
0100
1000
0010
0001
,
0010
0000
0100
0001
0000
0010
0000
0100
,
0000
1000
0000
0001
0100
0001
1000
0100
,
1000
0001
0100
0010
0000
1000
0000
0100
,
0000
0010
0000
0001
0010
0001
1000
0010
,
1000
0001
0200
0000
0000
0000
0310
1000
,
0010
0000
2000
0000
0000
0000
3001
0010
,
0001
1000
0010
0100
,
0001
0000
0010
0000
0100
1000
0000
1000
,
0001
0100
0001
0000
0010
0000
1000
0000
,
0010
0000
0001
0000
0010
0000
0100
1000
,
0100
1000
0001
0000
0100
0000
0010
0000
,
1000
0000
0100
0000
0010
0000
0001
1000
,
0100
0010
0001
0000
1000
0000
0010
0000
,
0100
0001
0100
0000
0010
0000
1000
0000
,
0100
1000
0001
0000
0100
0000
0010
0000
,
0100
0001
0010
0000
0001
0000
1000
0000
,
0100
1000
0001
0000
0001
0000
1000
0000
,
1000
0110
0110
1001
,
1001
0000
0000
0000
1000
0000
0000
0000
0000
0010
0000
0000
0000
0000
0100
0000
,
0000
0000
0000
0000
0001
0000
0000
0000
0000
0010
0000
0000
0000
0000
0100
0000
,
0000
0000
1000
0010
0100
0001
0020
0000
,
0230
2300
0000
0000
,
0000
0000
0000
0000
,
0000
3000
0000
0000
;

//---------------dance-single - ----------------
#NOTES:
     dance-single:
     :
     Beginner:
     1:
     0.130,0.159,0.000,0.089,0.000: // measure 1
0000
0000
0000
0000
,  // measure 2
2000
0000
0000
0000
,  // measure 3
0000
0000
0000
0000
,  // measure 4
3002
0000
0000
0000
,  // measure 5
0000
0000
0000
0000
,  // measure 6
0203
0000
0000
0000
,  // measure 7
0000
0000
0000
0000
,  // measure 8
0320
0000
0000
0000
,  // measure 9
0000
0000
0000
0000
,  // measure 10
1030
0000
0000
0000
,  // measure 11
1000
0000
0000
0000
,  // measure 12
0001
0000
0000
0000
,  // measure 13
0001
0000
0000
0000
,  // measure 14
0100
0000
0000
0000
,  // measure 15
0100
0000
0000
0000
,  // measure 16
0010
0000
0000
0000
,  // measure 17
0010
0000
0000
0000
,  // measure 18
1000
0000
0000
0001
,  // measure 19
0000
0000
1000
0000
,  // measure 20
0000
0001
0000
0000
,  // measure 21
0100
0000
0000
0010
,  // measure 22
0000
0000
0000
0000
,  // measure 23
0000
0010
0000
0000
,  // measure 24
0000
1000
0000
0000
,  // measure 25
0000
1000
0000
0000
,  // measure 26
0000
0001
0000
0000
,  // measure 27
0000
0001
0000
0000
,  // measure 28
0000
1000
0000
0000
,  // measure 29
0000
0001
0000
0000
,  // measure 30
0000
1000
0000
0000
,  // measure 31
0000
0010
0000
0000
,  // measure 32
0000
0100
0000
0000
,  // measure 33
0000
0010
0000
0000
,  // measure 34
0000
0100
0000
0000
,  // measure 35
0000
0001
0000
0000
,  // measure 36
0000
0001
0000
0000
,  // measure 37
0000
1000
0000
0000
,  // measure 38
0000
1000
0000
0000
,  // measure 39
0000
0010
0000
0000
,  // measure 40
0000
0010
0000
0000
,  // measure 41
0000
0100
0000
0000
,  // measure 42
0000
0100
0000
0000
,  // measure 43
0000
0001
0000
0000
,  // measure 44
0000
0000
1000
0000
,  // measure 45
0000
0001
0000
0000
,  // measure 46
0000
0000
1000
0000
,  // measure 47
0000
0010
0000
0000
,  // measure 48
0000
0010
0000
0000
,  // measure 49
0000
0100
0000
0000
,  // measure 50
0000
0100
0000
0000
,  // measure 51
0000
0001
0000
0000
,  // measure 52
0000
0100
0000
0000
,  // measure 53
0000
0001
0000
0000
,  // measure 54
0000
0100
0000
0000
,  // measure 55
0000
0010
0000
0000
,  // measure 56
0000
1000
0000
0000
,  // measure 57
0000
0010
0000
0000
,  // measure 58
0000
1000
0000
0000
,  // measure 59
0000
0100
0000
0100
,  // measure 60
0000
0100
0000
0100
,  // measure 61
0000
0100
0000
0000
,  // measure 62
0010
0000
0000
0001
,  // measure 63
0000
0000
1000
0000
,  // measure 64
0000
0010
0000
0000
,  // measure 65
0100
0000
0000
0001
,  // measure 66
0000
0000
1000
0000
,  // measure 67
0000
0010
0000
0000
,  // measure 68
0000
1000
0000
1000
,  // measure 69
0000
0001
0000
0001
,  // measure 70
0000
2000
0000
0000
,  // measure 71
0000
3001
0000
0000
,  // measure 72
0000
0200
0000
0000
,  // measure 73
0000
0320
0000
0000
,  // measure 74
0000
0230
0000
0000
,  // measure 75
0000
0320
0000
0000
,  // measure 76
0000
1030
0000
0000
,  // measure 77
0000
0000
0001
0000
,  // measure 78
0000
1000
0000
0000
,  // measure 79
0000
0000
0100
0000
,  // measure 80
0000
0001
0000
0000
,  // measure 81
0000
0001
0000
0000
,  // measure 82
0000
1000
0000
0000
,  // measure 83
0000
1000
0000
0000
,  // measure 84
0000
0001
0000
0000
,  // measure 85
0000
0100
0000
0000
,  // measure 86
0000
0001
0000
0000
,  // measure 87
0000
0100
0000
0000
,  // measure 88
0000
0010
0000
0000
,  // measure 89
0000
1000
0000
0000
,  // measure 90
0000
0010
0000
0000
,  // measure 91
0000
1000
0000
0000
,  // measure 92
0000
0100
0000
0100
,  // measure 93
0000
0010
0000
0010
,  // measure 94
0000
0001
0000
0000
,  // measure 95
0000
1000
0000
0000
,  // measure 96
0000
2000
0000
0000
,  // measure 97
0000
3002
0000
0000
,  // measure 98
0000
0000
0000
0000
,  // measure 99
0000
0003
0000
0000
;
