#TITLE:I Thought I Lost You;
#SUBTITLE:;
#ARTIST:Miley Cyrus & John Travolta;
#TITLETRANSLIT:;
#SUBTITLETRANSLIT:;
#ARTISTTRANSLIT:;
#GENRE:;
#CREDIT:;
#BANNER:I Thought I Lost You-bn.png;
#BACKGROUND:I Thought I Lost You-bg.png;
#LYRICSPATH:;
#CDTITLE:;
#MUSIC:I Thought I Lost You.mp3;
#OFFSET:-0.501917;
#SAMPLESTART:99.547043;
#SAMPLELENGTH:12.000000;
#SELECTABLE:YES;
#DISPLAYBPM:103;
#BPMS:0.000000=103.015999
;
#STOPS:
;
#BGCHANGES:;
#KEYSOUNDS:;
#ATTACKS:;

//---------------dance-single - ----------------
#NOTES:
     dance-single:
     :
     Hard:
     8:
     0.536565,0.531730,0.429947,0.438059,0.393442,356.000000,53.000000,54.000000,0.000000,0.000000,0.000000,0.536565,0.531730,0.429947,0.438059,0.393442,356.000000,53.000000,54.000000,0.000000,0.000000,0.000000:
0000
0000
0000
0000
,
0000
0000
0000
0000
,
1000
0000
0000
0000
0001
0000
0000
0100
0000
0010
0000
0000
0100
0000
0000
0000
,
0001
0000
0000
0000
1000
0000
0000
0010
0000
0100
0000
0000
0001
0000
0000
0000
,
0100
0000
0000
0000
0001
0000
0000
0010
0000
0100
0000
0000
1000
0000
0000
0000
,
0010
0000
0000
0000
1000
0000
0000
0110
0000
0101
0000
0000
1000
0000
0001
0010
,
0100
0000
0000
0000
1000
0000
0000
0001
0000
0000
0100
0000
0010
0000
0000
0000
,
1000
0000
0000
0000
0001
0000
0000
0010
0000
0000
0100
0000
0010
0000
0000
0000
,
0001
0000
0000
0000
0100
0000
0000
0001
0000
0000
1000
0000
0001
0000
0000
0000
,
0100
0000
0000
0000
0010
0000
0000
1000
0000
0000
0001
0000
0010
0100
0000
0000
,
1100
1100
0011
0011
,
0001
0000
0011
0000
0010
0100
0010
0100
1000
0000
1010
0000
0010
0100
0010
0100
,
0101
0101
1010
1010
,
0001
0100
0010
1000
0010
0100
0001
0010
,
0100
0000
1000
0000
0001
0000
1000
0000
0001
0000
0010
0100
0010
0100
0010
0100
,
1000
0000
0001
0000
0100
0010
0000
0100
0000
0002
0000
0000
1003
0000
0010
0000
,
0001
0000
0010
2000
0000
0000
3001
0020
0000
0000
0130
2000
0000
0000
3001
0000
,
0000
0000
1000
0000
0010
0100
0000
0000
0010
1000
0000
0200
0000
0000
1300
0000
,
1002
0000
0000
0000
0013
0000
0210
0000
0000
0000
1300
0000
0001
0000
0010
0100
,
1000
0000
0001
0000
0100
0000
0010
0200
0000
0000
0301
0200
0000
0000
1300
0200
,
0000
0000
0301
0200
0000
0000
1300
0200
0000
0000
0301
0020
0000
0000
0031
0000
,
0101
0000
0001
0000
0101
0000
0000
1000
1010
0000
1000
0000
1010
0000
0001
0000
,
0012
0000
0010
0000
1003
0000
1020
0000
0000
0000
0100
0000
1030
0100
0010
0000
,
0011
0000
0001
0000
0011
0000
0000
1000
1100
0000
1000
0000
1100
0000
0001
0100
,
0102
0000
0100
0000
1003
0000
2100
0000
0000
0000
0010
0000
3001
0010
0000
0001
,
2000
3200
0320
0032
,
0203
0000
0000
0000
0320
0000
0000
0000
1030
0001
1000
0000
0010
0100
0000
0100
,
0002
0000
0000
0000
0013
0000
0000
0100
0000
1000
0100
0000
0020
0000
0000
0000
,
0032
0000
0000
0000
1003
0000
0000
0001
0100
0001
0100
0000
0001
0000
0010
0000
,
0100
0000
0000
0000
1000
0000
0000
0100
0000
0000
0010
0000
0001
0000
0000
0000
,
1000
0000
0000
0000
0001
0000
0000
0010
0000
0000
0100
0000
1000
0000
0000
0000
,
0010
0000
0000
0000
1000
0000
0000
0001
0000
0000
0010
0000
0100
0000
0000
0000
,
0010
0000
0000
0000
0100
0000
0000
1000
0000
0000
0001
0000
0100
0000
0000
0000
,
1010
1010
0101
0101
,
0001
0000
0101
0000
0100
0010
0100
0010
1000
0000
1100
0000
0100
0010
0100
0010
,
0011
0011
1100
1100
,
0001
0000
1000
0001
0000
0100
0000
0020
0000
0000
0130
0000
0010
0100
0010
0100
,
0001
0000
1000
0000
0010
0100
0000
0010
0000
2000
0000
0000
3001
0000
0100
0000
,
1000
0000
0100
0002
0000
0000
1003
0200
0000
0000
0310
0002
0000
0000
1003
0000
,
0000
0000
0001
0000
0100
0010
0000
0000
0100
0001
0000
0020
0000
0000
0031
0000
,
2001
0000
0000
0000
3100
0000
0120
0000
0000
0000
0031
0000
1000
0100
0010
0001
,
1000
0000
0010
0000
0010
0000
0100
0020
0000
0000
1030
0020
0000
0000
0031
0020
,
0000
0000
1030
0020
0000
0000
0031
0020
0000
0000
1030
0200
0000
0000
1300
0000
,
1010
0000
1000
0000
1010
0000
0000
0001
0101
0000
0001
0000
0101
0000
1000
0000
,
2100
0000
0100
0000
3001
0000
0201
0000
0000
0000
0010
0000
0301
0010
0100
0000
,
1100
0000
1000
0000
1100
0000
0000
0001
0011
0000
0001
0000
0011
0000
1000
0010
,
2010
0000
0010
0000
3001
0000
0012
0000
0000
0000
0100
0000
1003
0100
0000
1000
,
0002
0023
0230
2300
,
3020
0000
0000
0000
0230
0000
0000
0000
0301
1000
0001
0000
0010
0100
0000
0100
,
2000
0000
0000
0000
3010
0000
0000
0100
0000
0001
0100
0000
0010
0000
1000
0000
,
1002
0000
0000
0000
0013
0000
0000
0001
0100
0001
0100
0000
0001
0000
0010
0000
,
0200
0000
0000
0000
1300
0000
0000
0001
0000
0100
0001
0000
0010
0000
0100
0000
,
0210
0000
0000
0000
1300
0001
0100
0101
0000
0000
0000
0000
0000
0000
0000
0000
;

//---------------dance-single - ----------------
#NOTES:
     dance-single:
     :
     Challenge:
     9:
     0.723145,0.574268,0.462396,0.227142,0.932904,539.000000,57.000000,28.000000,0.000000,0.000000,0.000000,0.723145,0.574268,0.462396,0.227142,0.932904,539.000000,57.000000,28.000000,0.000000,0.000000,0.000000:
0000
0000
0000
0000
,
0000
0000
0000
0000
0000
0000
0000
0000
0000
0000
0000
0000
0000
0000
0000
0000
0000
0000
1000
0000
0100
0000
1000
0000
0100
0000
0000
0010
0000
0000
0000
0000
0000
0001
0000
0000
0000
0000
0000
1000
0000
0000
1001
0000
0000
0000
0000
0000
,
1000
0000
0001
0000
0100
0001
0000
1000
0000
1000
0001
0010
0000
0010
0100
0000
,
1000
0000
0100
0000
1000
0000
0001
0100
0000
0010
1000
0001
0000
0001
0010
0100
,
0000
1000
0001
0000
0010
0100
0000
2000
0000
3001
0100
0010
0000
0010
1000
0000
,
0001
0000
1000
0010
1000
0000
0010
0110
0000
0101
0000
0001
0000
0010
0000
0100
,
1000
0000
0001
0000
0100
0010
0000
0010
0100
0001
0000
1000
0000
1000
0000
0100
,
1000
0000
0010
0100
0000
0100
0001
0100
0000
1000
0100
0010
0000
0100
0010
1000
,
0000
1000
0001
0000
0010
0100
0000
0100
1000
0000
0001
0100
0000
0100
0000
0010
,
1000
0000
0001
0010
0000
0010
0100
0000
0010
0000
0001
1000
0000
1000
0010
0000
,
0110
0000
0001
0000
1000
0001
0000
0001
0010
0000
0100
1000
0000
1000
0001
0000
,
0101
0000
0110
0000
0100
0010
0100
0010
1010
0000
1001
0000
0001
1000
0001
1000
,
1010
0000
0001
0000
0010
0000
0100
0000
1000
0000
0001
0100
0000
0010
0100
0010
,
1000
0000
0001
0010
0000
0100
1000
0001
0000
0001
0100
0000
0010
0000
0100
0000
,
1001
0000
0100
0000
0010
1000
0000
0001
0000
0001
0010
0100
1000
0100
0001
0100
,
1000
0000
1000
0000
0001
0100
0000
0110
0000
1010
0000
1000
0001
0000
0100
0000
,
0010
0000
2000
0001
0000
3001
0020
0100
0000
0130
2000
0001
0000
3001
0100
0000
,
0110
0000
0001
0000
0010
0100
0000
0100
1000
0001
0000
0101
0000
0100
0010
0000
,
0201
0000
0000
0301
0010
0000
0120
0000
0000
0130
1000
0000
0001
0100
1000
0100
,
0001
0000
0010
0000
0100
0000
1000
0001
0000
0001
0200
1000
0000
1300
0200
0001
,
0000
0301
0200
1000
0000
1300
0200
0001
0000
0301
0020
0100
0000
0130
1000
0000
,
1100
0000
0001
0000
1100
0000
1000
0001
0101
0000
1000
0000
0101
0000
0001
0000
,
0011
0000
0001
0000
1100
0000
1000
0000
1001
0000
0010
0000
0100
0001
0100
0010
,
0101
0000
1000
0000
0101
0000
0001
1000
1100
0000
0001
0000
1100
0000
0001
0010
,
0011
0000
0001
0010
0000
0100
1000
0001
0000
0001
0100
0000
0010
0100
0000
0001
,
1000
0000
1000
0100
0010
0000
0010
0001
0100
0000
0100
0010
1000
0000
1000
0001
,
0010
0000
0010
0100
1000
0000
1000
0010
0001
0010
0100
0001
0010
0100
1000
0001
,
0200
0000
0010
0000
0301
0000
1000
0100
0000
0100
0010
0000
0011
0000
1000
0000
,
0201
0000
1000
0000
0310
0000
1000
0001
0100
0001
0010
0000
0001
0000
0100
0000
,
0110
0001
0000
0010
0000
0100
1000
0001
0000
0100
0010
1000
0000
1000
0100
0000
,
1000
0000
0010
0000
1000
0000
0001
0010
0000
0010
0100
0000
1000
0001
0100
0010
,
0000
0010
0100
0000
0001
0100
0000
0110
0000
0010
1000
0100
0000
0100
0010
0000
,
0001
1000
0000
0010
0000
0100
0000
0001
0100
0001
0000
0010
0000
0010
0100
0000
,
1100
0000
0001
0100
0000
0001
1000
0001
0010
0000
0010
0100
0000
1000
0000
0001
,
0101
0000
0110
0000
0100
0010
0100
0010
1010
0000
0110
0000
0100
0010
0100
0010
,
0101
0000
0001
0000
0100
0000
0001
0000
0010
0100
0000
1000
0000
1000
0010
0100
,
0001
0000
1000
0001
0000
0200
0000
0010
0000
0000
0310
0000
0100
0010
0001
0010
,
1000
0000
0001
0000
1000
0010
0000
0110
0000
0101
0000
0001
1000
0000
0010
0000
,
0100
0000
0002
1000
0000
1003
0200
0010
0000
0310
0002
1000
0000
1003
0010
0000
,
0110
0000
1000
0000
0100
0010
0000
0010
0001
1000
0000
1010
0000
0010
0100
0000
,
1020
0000
0000
1030
0100
0000
0210
0000
0000
0310
0001
0000
1000
0010
0001
0010
,
1000
0000
0100
0000
0010
0000
0001
1000
0000
1000
0020
0001
0000
0031
0020
1000
,
0000
1030
0020
0001
0000
0031
0020
1000
0000
1030
0200
0010
0000
0310
0001
0000
,
0011
0000
1000
0000
0011
0000
0001
1000
1010
0000
0001
0000
1010
0000
1000
0000
,
1100
0000
1000
0000
0011
0000
0001
0000
1001
0000
0100
0000
0010
1000
0010
0100
,
1010
0000
0001
0000
1010
0000
1000
0001
0011
0000
1000
0000
0011
0000
1000
0100
,
1100
0000
1000
0100
0000
0010
0001
1000
0000
1000
0010
0000
0100
0010
0000
1000
,
0001
0000
0001
0010
0100
0000
0100
1000
0010
0000
0010
0100
0001
0000
0001
1000
,
0100
0000
0100
0010
0001
0000
0001
0100
1000
0100
0010
1000
0100
0010
0001
1000
,
0020
0000
0001
0000
1030
0000
0100
1000
0000
0010
1000
0000
0100
0000
0001
0000
,
0200
0000
0001
0000
1300
0000
0010
1000
0001
0010
0100
0000
0001
0000
0100
0000
,
0020
0000
1000
0000
0031
0000
0100
0001
0000
0010
0001
0000
0100
0000
1000
0000
,
0200
0000
1000
0000
0301
1000
0100
1001
0000
0000
0000
0000
0000
0000
0000
0000
;

//---------------dance-single - ----------------
#NOTES:
     dance-single:
     :
     Easy:
     3:
     0.230618,0.212945,0.121683,0.032449,0.000000,180.000000,15.000000,4.000000,0.000000,0.000000,0.000000,0.230618,0.212945,0.121683,0.032449,0.000000,180.000000,15.000000,4.000000,0.000000,0.000000,0.000000:
// measure 0
0000
0000
0000
0000
,  // measure 1
0000
0000
0000
0000
,  // measure 2
1000
0100
0010
0000
,  // measure 3
0001
0100
0010
0010
,  // measure 4
1000
0001
0010
0000
,  // measure 5
0001
1000
0100
0100
,  // measure 6
1000
0010
0100
0000
,  // measure 7
0001
0010
0100
0100
,  // measure 8
1000
0010
0100
0000
,  // measure 9
0001
0010
0100
1000
,  // measure 10
1001
1000
1001
0001
,  // measure 11
1001
0000
0110
0000
,  // measure 12
0001
0001
0100
0100
,  // measure 13
0010
1000
0001
0000
,  // measure 14
0010
0001
1000
0010
,  // measure 15
0100
0001
0010
0000
,  // measure 16
0100
0100
1000
1000
,  // measure 17
0001
0100
0010
0000
,  // measure 18
2000
0000
3001
0001
,  // measure 19
0010
0100
1000
0001
,  // measure 20
0100
0100
0010
0010
,  // measure 21
0110
0010
1001
0001
,  // measure 22
0001
0100
0010
0000
,  // measure 23
0110
0100
1001
1000
,  // measure 24
1000
0100
0010
0001
,  // measure 25
1000
1000
0010
0010
,  // measure 26
0100
0100
0001
0001
,  // measure 27
0010
0100
1000
0000
,  // measure 28
0010
0100
0001
0001
,  // measure 29
0010
0001
0100
0000
,  // measure 30
0010
1000
0100
0100
,  // measure 31
0010
0100
1000
0000
,  // measure 32
0010
0100
0001
0001
,  // measure 33
1000
1000
0001
0001
,  // measure 34
1001
0000
0110
0000
,  // measure 35
1000
1000
0010
0010
,  // measure 36
0100
0002
2000
3003
,  // measure 37
0010
1000
0100
0000
,  // measure 38
0010
0010
0001
0001
,  // measure 39
1000
0010
0100
0000
,  // measure 40
0002
0000
1003
1000
,  // measure 41
0100
0010
0001
1000
,  // measure 42
0010
0010
0100
0100
,  // measure 43
0110
0100
1001
1000
,  // measure 44
1000
0010
0100
0000
,  // measure 45
0110
0010
1001
0001
,  // measure 46
0001
0010
0100
1000
,  // measure 47
0001
0001
0100
0100
,  // measure 48
0010
0010
1000
1000
,  // measure 49
0100
1000
0010
0000
,  // measure 50
0100
0001
0010
0001
,  // measure 51
0100
0010
1000
0000
,  // measure 52
0100
0010
1001
0000
;

//---------------dance-single - ----------------
#NOTES:
     dance-single:
     :
     Medium:
     5:
     0.333759,0.319038,0.235254,0.081122,0.012168,249.000000,29.000000,10.000000,0.000000,0.000000,0.000000,0.333759,0.319038,0.235254,0.081122,0.012168,249.000000,29.000000,10.000000,0.000000,0.000000,0.000000:
// measure 0
0000
0000
0000
0000
,  // measure 1
0000
0000
0000
0000
,  // measure 2
1000
0000
0100
0000
1000
0010
0001
0000
,  // measure 3
0010
0000
0100
0000
0001
0010
1000
0000
,  // measure 4
0010
0000
0100
0000
1000
0100
0001
0000
,  // measure 5
0100
0000
0000
0000
1000
0000
0000
0010
0000
0010
0000
0000
0100
0000
0001
0000
,  // measure 6
1000
0000
0100
0000
0010
0001
1000
0000
,  // measure 7
0010
0000
0100
0000
0001
1000
0100
0000
,  // measure 8
0010
0000
0001
0000
1000
0001
0100
0000
,  // measure 9
0010
0000
0100
0000
0001
0100
0010
0000
,  // measure 10
1010
1000
0011
0001
,  // measure 11
1001
0001
0000
0000
0110
0100
0000
0000
,  // measure 12
0011
0001
1010
1000
,  // measure 13
0001
1000
0001
0000
1000
0000
1000
0000
,  // measure 14
0001
0010
0100
2000
0002
0000
0000
3003
,  // measure 15
1000
0100
1000
0100
0010
0000
0001
0000
,  // measure 16
0100
0100
0010
1000
,  // measure 17
0001
0100
0001
0100
0010
0000
1000
0000
,  // measure 18
0002
0000
0013
0000
0100
1000
0001
0000
,  // measure 19
1000
0010
1000
0010
0100
0000
0001
0000
,  // measure 20
0010
0100
1000
0001
,  // measure 21
0101
0101
1100
1100
,  // measure 22
0001
0100
0010
2000
0000
0001
3001
0000
,  // measure 23
0011
0011
1010
1010
,  // measure 24
1000
0100
0010
0002
0000
1000
1003
0000
,  // measure 25
1000
0010
0100
0001
,  // measure 26
0010
0100
1000
0010
,  // measure 27
0100
0000
0001
0000
0010
0100
1000
0000
,  // measure 28
0010
0000
0100
0000
0001
0100
1000
0100
,  // measure 29
0001
0000
0010
0000
0100
1000
0001
0000
,  // measure 30
0100
0000
0010
0000
1000
0001
0010
0000
,  // measure 31
0100
0000
1000
0000
0001
1000
0010
0000
,  // measure 32
0100
0000
0010
0000
1000
0010
0100
0001
,  // measure 33
0101
0001
1100
1000
,  // measure 34
1001
1000
0000
0000
0110
0010
0000
0000
,  // measure 35
1100
1000
0101
0001
,  // measure 36
1000
0100
0010
0002
2000
0000
0000
3003
,  // measure 37
0001
0010
0001
0010
0100
0000
1000
0000
,  // measure 38
0010
0010
0100
0001
,  // measure 39
1000
0010
1000
0010
0100
0000
0001
0000
,  // measure 40
2000
0000
3100
0000
0010
0001
1000
0000
,  // measure 41
0001
0100
0001
0100
0010
0000
1000
0000
,  // measure 42
0100
0010
0001
1000
,  // measure 43
1010
1010
0011
0011
,  // measure 44
1000
0010
0100
0002
0000
1000
1003
0000
,  // measure 45
1100
1100
0101
0101
,  // measure 46
0001
0010
0100
2000
0000
0001
3001
0000
,  // measure 47
0001
0100
0010
1000
,  // measure 48
0100
0010
0001
0100
,  // measure 49
0010
0000
1000
0000
0001
0100
1000
0000
,  // measure 50
0100
0000
0001
0000
1000
0100
0001
0100
,  // measure 51
1000
0000
0010
0000
0100
0001
0010
0000
,  // measure 52
0100
0000
0000
0000
1000
0000
0000
1001
0000
0000
0000
0000
0000
0000
0000
0000
;
