#TITLE:How to Get a Number One Song;
#SUBTITLE:(ft. Roomie);
#ARTIST:Boyinaband;
#TITLETRANSLIT:;
#SUBTITLETRANSLIT:;
#ARTISTTRANSLIT:;
#GENRE:;
#CREDIT:;
#BANNER:[Duet] - How to Get a Number One Song-bn.png;
#BACKGROUND:[Duet] - How to Get a Number One Song.png;
#LYRICSPATH:;
#CDTITLE:cdtitle.png;
#MUSIC:[Duet] - How to Get a Number One Song.mp3;
#OFFSET:0.037534;
#SAMPLESTART:50.279675;
#SAMPLELENGTH:16.153847;
#SELECTABLE:YES;
#BPMS:0.000000=130.000000
;
#STOPS:
;
#BGCHANGES:8.250=How to Get a Number One Song.avi=1.000=1=0=1===CrossFade==,
118.375=How to Get a Number One Song 2.avi=1.000=1=0=1===CrossFade==,
290.000=[Duet] - How to Get a Number One Song.png=1.000=1=0=1===CrossFade==,
99999=-nosongbg-=1.000=0=0=0 // don't automatically add -songbackground-
;
#KEYSOUNDS:;
#ATTACKS:;

//---------------dance-single - ----------------
#NOTES:
     dance-single:
     :
     Hard:
     8:
     0.544456,0.507729,0.390703,0.294870,0.140063,424.000000,53.000000,40.000000,0.000000,0.000000,0.000000,0.544456,0.507729,0.390703,0.294870,0.140063,424.000000,53.000000,40.000000,0.000000,0.000000,0.000000:
0000
0000
0000
0000
,
0000
0000
0000
0000
,
0000
0000
0000
0000
,
0000
0000
0000
0000
0000
1000
0100
0010
,
0011
0101
1010
1100
,
0101
0001
0100
0010
1000
0100
0010
0001
,
0100
0000
0110
0000
1001
0000
0001
0100
,
0001
0010
1000
0010
0001
0100
0010
1000
,
1010
1100
0011
0101
,
1100
1000
0001
0100
0010
0010
0010
1000
,
0001
0000
1100
0000
0001
0100
0001
0010
,
0100
1000
0010
0001
0010
1000
0100
1000
,
0001
0000
0000
0010
0000
0001
0000
0100
0000
0010
0000
1000
0001
0000
0001
0000
,
1000
0000
0000
0010
0000
0100
0000
0001
0000
0010
0000
0100
1000
0000
1000
0000
,
0000
0000
0001
0000
0100
0000
0000
0001
0000
0010
0000
0100
0000
1000
0010
0000
,
1000
0100
0000
0011
0000
0101
0000
1010
,
0010
0000
0000
0100
0000
0100
0000
0001
1000
0000
0100
0000
1000
0000
0001
0000
,
0010
0000
0000
0001
0000
0001
0000
1000
0010
0000
1000
0000
0010
0000
0100
0000
,
0001
0010
0001
0100
1000
0001
0010
1000
,
0000
0100
0000
1100
0000
1010
0000
0011
,
0000
0001
0100
0010
0100
0002
0000
0003
,
0000
1000
0100
1000
0020
0000
0030
0100
,
0010
0000
0000
0100
0000
0010
0000
0010
1000
0000
0100
0000
0010
0000
0001
0000
,
0010
0001
0100
0010
1000
0100
1000
0002
,
0003
1000
0100
0010
0100
2000
0001
3000
,
1000
0001
0100
0001
0020
0000
0130
0010
,
0001
0000
0001
0000
0001
0100
1000
0100
,
0020
0030
0000
0000
,
1001
0000
1001
0000
0010
0001
0100
0010
,
0000
2001
0000
3100
0010
0000
0100
1000
,
1001
0000
0101
0000
1100
0000
1000
0100
,
0000
0010
0000
1002
0000
0013
0001
0100
,
0110
0000
0100
0001
0010
1000
0010
0100
,
0000
0120
0000
0031
0000
0001
0100
0020
,
0000
1030
0100
0020
0000
0031
0100
1000
,
0100
0001
1000
0000
2002
0000
3003
0000
,
1000
0000
0001
0000
0000
0001
0000
0000
0010
0000
0000
0001
0000
0000
0100
0000
,
0010
0000
0000
0000
0000
0000
0000
0000
0000
0010
0000
0000
0000
0000
0000
0000
0000
0000
0100
0000
0000
0000
0000
0000
0001
0000
0000
0000
1000
0000
0000
0000
0001
0000
0000
0000
1000
0000
0000
0000
0000
0000
0000
0000
0000
0000
0000
0000
,
0000
0000
0100
0000
0000
0100
0000
0000
1000
0000
0000
0010
0000
0000
1000
0000
,
0001
0000
0000
0000
0000
0000
0000
0000
0000
0001
0000
0000
0000
0000
0000
0000
0000
0000
0010
0000
0000
0000
0000
0000
0100
0000
0000
0000
1000
0000
0000
0000
0001
0000
0000
0000
0100
0000
0000
0000
0000
0000
0000
0000
0000
0000
0000
0000
,
0002
0000
1003
0002
0000
1003
0001
0100
,
0020
0000
0130
0002
0000
1003
0100
0010
,
0001
0100
0010
0100
0010
1000
0100
0010
,
0002
0000
1003
0200
0000
0301
1000
0010
,
0001
0100
0001
0100
0010
1000
0100
0010
,
0002
0000
1003
0020
0000
1030
0200
0000
,
1300
0100
0010
0001
0100
0001
1000
0010
,
0200
0000
0310
2000
0000
3002
0000
0000
,
1003
0000
1000
0000
0100
0000
0000
0010
0000
0000
0100
0000
1000
0000
0000
0000
,
0001
0100
0010
1000
0000
0000
1000
0100
0010
0001
0000
0000
,
0100
0010
0100
0001
1000
0100
0000
0010
,
0001
0100
0010
0100
0001
0010
0100
1000
,
0001
0100
0010
1000
0100
0001
0100
1000
,
0010
0100
0001
0100
1000
0100
0010
1000
,
0001
0010
1000
0010
0001
0100
0001
1000
,
0100
0000
0000
0000
,
2001
0000
0010
3010
1010
0000
1000
0001
,
0010
0000
0120
0000
0031
1000
1002
0000
,
0103
0000
0001
0001
1000
1000
0010
0201
,
0000
0301
0010
0100
0110
0000
0110
0000
,
0010
0010
0001
0100
0010
1002
0000
0013
,
2100
0000
3010
0102
0000
0013
0001
0100
,
0110
0000
1000
1000
0001
0010
0001
0100
,
1010
0000
0011
0000
2010
0001
3001
1000
,
1001
0000
1001
0000
0010
1000
0100
0010
,
0000
1002
0000
0013
0001
0100
0100
0010
,
1000
0000
1010
0000
0011
0000
1000
0100
,
0000
1000
0000
2001
0000
3010
0010
1000
,
0100
1000
0100
0010
1000
0010
0001
0100
,
0000
0210
0000
0310
0000
0100
0001
0020
,
0000
0130
1000
0002
0000
0000
1003
0100
,
0001
0100
1000
0000
1010
0000
0101
0000
,
2002
0000
3003
0000
;

//---------------dance-single - ----------------
#NOTES:
     dance-single:
     :
     Medium:
     6:
     0.393862,0.400839,0.199037,0.228524,0.000000,316.000000,27.000000,31.000000,0.000000,0.000000,0.000000,0.393862,0.400839,0.199037,0.228524,0.000000,316.000000,27.000000,31.000000,0.000000,0.000000,0.000000:
0000
0000
0000
0000
,
0000
0000
0000
0000
,
0000
0000
0000
0000
,
0000
0000
0000
0000
0000
1000
0100
0010
,
0001
0100
1000
0100
,
0001
0010
0100
1000
0001
0000
1000
0001
,
0010
0000
0001
0000
0001
0000
0010
0001
,
0100
0000
0010
0000
1000
0001
0010
0100
,
1000
0100
0001
0100
,
1000
0001
0100
0000
0001
1000
0001
0000
,
0010
0000
0010
0000
0001
0100
0001
0000
,
1000
0100
0010
0100
1000
0000
0001
0000
,
1001
0000
1000
0000
0010
1000
0100
0000
,
1001
0000
0001
0000
0010
0001
0100
0000
,
0010
0000
1000
0001
1000
0000
0001
0100
,
0010
1000
0000
1001
0000
0110
0000
1000
,
0001
0000
0100
0000
0010
1000
0100
0000
,
1001
0000
0010
0000
0100
0001
0010
0000
,
0001
1000
0001
0000
1000
0100
0010
0001
,
0000
0100
0000
0110
0000
0110
0000
1001
,
0000
0100
0200
0300
,
0000
0010
0020
0030
,
0001
0001
1000
1000
,
0010
0000
1000
0000
0100
0010
0100
0000
,
1000
0000
0001
0000
0001
0100
0001
0000
,
1000
0000
1000
0010
1000
0000
0001
0000
,
0010
0000
0010
0000
0001
0010
0001
1000
,
0020
0030
0000
0000
,
1000
0000
1000
0000
0010
0000
0100
0001
,
0000
1002
0000
0000
0013
0000
0001
1000
,
0010
0000
0010
0000
0010
0000
1000
0001
,
0000
0010
0000
0210
0000
1300
0001
0000
,
0100
0000
0010
0000
1000
0100
1000
0001
,
0000
1002
0000
0000
0103
0010
1000
0020
,
0000
0130
0001
0200
0000
0301
1000
0000
,
0001
1000
0100
0000
2002
0000
3003
0000
,
1000
0100
0001
0010
,
0001
0100
1000
1000
,
0001
0100
1000
0010
,
1000
0100
0001
1001
,
1000
0000
1000
0000
,
0100
0010
0001
0100
,
0001
0000
0001
0000
,
1000
0010
1000
0200
,
0310
0000
0010
0000
,
0001
1000
0010
0100
,
0001
0000
0001
0000
,
1000
0001
0100
0020
,
1030
0001
1000
0000
0001
0000
0010
0000
,
0100
1000
0010
0000
0100
0001
0010
0000
,
0100
0000
0100
0000
0010
0001
1000
0000
,
0001
0100
0010
0000
1000
0100
0010
0000
,
0001
1000
0001
1000
0010
0000
0100
0000
,
0001
0010
0001
0010
0100
0000
1000
0000
,
0010
1000
0100
1000
0100
0010
0001
1000
,
0001
0000
0000
0000
,
2002
0000
0000
0000
3003
0000
0001
1000
,
0001
2002
3003
0220
,
0330
0000
1000
0000
0001
0010
0100
2000
,
0000
3001
0100
0010
1000
0000
1010
0000
,
0010
1000
0001
0000
0010
0020
0000
0031
,
0002
0000
1003
2000
0000
3010
1000
0000
,
1001
0000
0100
0010
0100
1000
0001
0000
,
0011
1010
0022
0033
,
0001
0000
0001
0000
0100
0000
0010
1000
,
0000
2001
0000
0000
3100
0000
0010
0001
,
1000
0000
1000
0000
1000
0000
0010
0100
,
0000
0001
0000
1002
0000
0000
0013
0100
,
1000
0001
1000
0000
0001
0100
0010
0100
,
0000
0120
0000
0000
1030
0001
0010
0002
,
0000
1003
0010
2000
0000
0000
3100
0010
,
0100
0010
0100
0000
1100
0000
0011
0000
,
2002
0000
3003
0000
;

//---------------dance-single - ----------------
#NOTES:
     dance-single:
     :
     Easy:
     3:
     0.262224,0.374116,0.088461,0.169550,0.000000,214.000000,12.000000,23.000000,0.000000,0.000000,0.000000,0.262224,0.374116,0.088461,0.169550,0.000000,214.000000,12.000000,23.000000,0.000000,0.000000,0.000000:
0000
0000
0000
0000
,
0000
0000
0000
0000
,
0000
0000
0000
0000
,
0000
0000
0000
0010
,
1000
1000
0001
0001
,
0100
0000
0001
0000
,
1000
1000
0100
0100
,
0010
0001
1000
0000
,
0001
0001
1000
1000
,
0100
0000
0010
0010
,
0010
0000
0001
0000
,
1000
0001
0100
0100
,
0010
0000
0100
0001
,
0010
0000
0100
1000
,
0000
0001
0001
1000
,
0100
0000
0010
0010
,
0001
0000
0100
0010
,
1000
0000
0100
0010
,
0001
0001
0010
0001
,
0100
0000
0010
0010
,
0010
1000
2000
3000
,
0000
0001
0002
0003
,
0010
0000
0010
0000
,
0001
0100
0010
1000
,
0001
1000
0200
0300
,
1000
0001
0020
0030
,
0001
0010
0100
1000
,
2002
3003
0000
0000
,
0001
0001
0010
0100
,
1000
2000
3000
0001
,
1000
1000
0010
0100
,
0001
1000
0002
0013
,
0100
0100
1000
0010
,
0100
0200
0300
0001
,
0010
0100
0010
0001
,
1000
1000
2000
3000
,
0001
0000
0010
0000
,
1000
0000
0100
0100
,
1000
0000
0010
0000
,
0001
0000
0100
1001
,
0001
0000
0001
0000
,
0010
0010
0001
0000
,
1000
0000
1000
0000
,
0010
0010
0100
0000
,
0001
0000
0001
0000
,
0100
0100
0010
0000
,
1000
0000
1000
0000
,
0100
0100
0010
0001
,
1000
1000
1000
0000
,
0001
0100
1000
0100
,
0001
0001
0001
0000
,
1000
0001
1000
0001
,
0010
0010
0001
0001
,
0100
0100
0010
0010
,
1000
1000
0001
1000
,
0100
0000
0000
0000
,
2002
0000
3003
0010
,
0010
0220
0330
2002
,
3003
1000
0100
0010
,
0001
0000
0100
0100
,
0010
1000
1001
0000
,
0011
0000
1100
0000
,
1000
0100
0010
0001
,
1001
0110
2002
3003
,
1000
1000
0010
0100
,
0001
0002
0003
1000
,
0001
0001
0010
0100
,
1000
0001
2000
3000
,
0010
0010
1000
0001
,
0010
0020
0030
0100
,
1000
0010
1000
0100
,
0010
0010
0001
1000
,
2002
0000
3003
0000
;

//---------------dance-single - ----------------
#NOTES:
     dance-single:
     :
     Beginner:
     1:
     0.115842,0.160336,0.036859,0.029487,0.000000,101.000000,5.000000,4.000000,0.000000,0.000000,0.000000,0.115842,0.160336,0.036859,0.029487,0.000000,101.000000,5.000000,4.000000,0.000000,0.000000,0.000000:
0000
0000
0000
0000
,
0000
0000
0000
0000
,
0000
0000
0000
0000
,
0000
0000
0000
0000
,
0001
0000
1000
0000
,
0100
0000
0000
0000
,
1000
0000
1000
0000
,
0001
0000
0001
0000
,
1000
0000
0001
0000
,
0100
0000
0000
0000
,
0001
0000
0001
0000
,
1000
0000
1000
0000
,
0100
0000
0000
0000
,
0010
0000
0000
0000
,
0001
0000
1000
0000
,
0001
0000
0000
0000
,
0100
0000
0000
0000
,
0010
0000
0000
0000
,
1000
0000
0001
0000
,
1000
0000
0000
0000
,
0100
0000
0000
0000
,
0010
0000
0000
0000
,
0001
0000
0000
0000
,
0100
0000
0000
0000
,
0001
0000
0001
0000
,
1000
0000
1000
0000
,
0001
0000
1000
0000
,
0001
0000
0000
0000
,
1000
0000
1000
0000
,
1000
0000
0000
0000
,
0001
0000
0001
0000
,
0100
0000
0000
0000
,
0010
0000
0010
0000
,
0010
0000
0000
0000
,
1000
0000
1000
0000
,
0001
0000
0001
0000
,
1000
0000
0000
0000
,
0100
0000
0000
0000
,
0010
0000
0000
0000
,
0001
0000
0000
0000
,
1000
0000
0000
0000
,
0010
0000
0000
0000
,
0100
0000
0000
0000
,
0001
0000
0000
0000
,
0001
0000
0000
0000
,
0010
0000
0000
0000
,
0100
0000
0000
0000
,
1000
0000
0000
0000
,
1000
0000
1000
0000
,
0001
0000
0001
0000
,
0100
0000
0100
0000
,
0010
0000
0010
0000
,
1000
0000
0001
0000
,
1000
0000
0001
0000
,
1000
0000
0001
0000
,
0100
0000
0000
0000
,
2002
0000
3003
0000
,
1001
0000
0000
0000
,
0110
0000
0000
0000
,
0110
0000
0000
0000
,
0001
0000
0001
0000
,
1000
0000
1000
0000
,
0001
0000
0010
0000
,
0100
0000
1000
0000
,
0001
0000
0001
0000
,
0001
0000
0000
0000
,
1000
0000
1000
0000
,
0010
0000
0000
0000
,
0100
0000
0100
0000
,
0100
0000
0000
0000
,
0001
0000
0001
0000
,
1000
0000
0100
0000
,
2002
0000
3003
0000
;
