#VERSION:0.81;
#TITLE:Hey Baby;
#SUBTITLE:Ft. Bounty Killer;
#ARTIST:No Doubt;
#TITLETRANSLIT:;
#SUBTITLETRANSLIT:;
#ARTISTTRANSLIT:;
#GENRE:;
#ORIGIN:;
#CREDIT:;
#BANNER:Hey Baby-banner.png;
#BACKGROUND:Hey Baby-bg.png;
#PREVIEWVID:;
#JACKET:jacket.png;
#CDIMAGE:;
#DISCIMAGE:;
#LYRICSPATH:;
#CDTITLE:;
#MUSIC:Hey Baby.ogg;
#OFFSET:-2.045743;
#SAMPLESTART:93.000031;
#SAMPLELENGTH:12.000000;
#SELECTABLE:YES;
#BPMS:0.000=187.240;
#STOPS:;
#DELAYS:;
#WARPS:;
#TIMESIGNATURES:0.000=4=4;
#TICKCOUNTS:0.000=4;
#COMBOS:0.000=1;
#SPEEDS:0.000=1.000=0.000=0;
#SCROLLS:0.000=1.000;
#FAKES:;
#LABELS:0.000=Song Start;
#BGCHANGES:;
#KEYSOUNDS:;
#ATTACKS:
;

//---------------dance-single - ----------------
#NOTEDATA:;
#CHARTNAME:;
#STEPSTYPE:dance-single;
#DESCRIPTION:;
#CHARTSTYLE:;
#DIFFICULTY:Beginner;
#METER:2;
#RADARVALUES:0.147175,0.151222,0.014717,0.000000,0.000000,138.000000,2.000000,0.000000,0.000000,0.000000,0.000000,0.000000,0.000000,0.147175,0.151222,0.014717,0.000000,0.000000,138.000000,2.000000,0.000000,0.000000,0.000000,0.000000,0.000000,0.000000;
#CREDIT:;
#NOTES:
0000
0000
0000
0000
,
0000
0000
0000
0000
,
0000
0000
0000
0000
,
0000
0000
0000
0000
,
0000
0000
0000
0000
,
1000
0000
1000
0000
,
0001
0000
0001
0000
,
0000
0000
0100
0000
,
0100
0000
0000
0000
,
0010
0000
0010
0000
,
1000
0000
1000
0000
,
0001
0000
0001
0000
,
0100
0000
0000
0000
,
0001
0000
0001
0000
,
0010
0000
0010
0000
,
0100
0000
0100
0000
,
1000
0000
0000
0000
,
0001
0000
0000
0000
,
0001
0000
0000
0000
,
1000
0000
0000
0000
,
1000
0000
0000
0000
,
0010
0000
0010
0000
,
0100
0000
0100
0000
,
0010
0000
0010
0000
,
0100
0000
0000
0000
,
0001
0000
0000
0000
,
0010
0000
0000
0000
,
0100
0000
0000
0000
,
1000
0000
0000
0000
,
0010
0000
0000
0000
,
0100
0000
0000
0000
,
0001
0000
0000
0000
,
1000
0000
0000
0000
,
1001
0000
0000
0000
,
0000
0000
0000
0000
,
0000
0000
1000
0000
,
0100
0000
0010
0000
,
0000
0000
0001
0000
,
0100
0000
0010
0000
,
0000
0000
1000
0000
,
0001
0000
0100
0000
,
0000
0000
0001
0000
,
1000
0000
0010
0000
,
0000
0000
1000
0000
,
0100
0000
0010
0000
,
0000
0000
0001
0000
,
0100
0000
0010
0000
,
0000
0000
0100
0000
,
0001
0000
1000
0000
,
0000
0000
0100
0000
,
0100
0000
1000
0000
,
1000
0000
0000
0000
,
0000
0000
0000
0001
,
0001
0000
0000
0000
,
0000
0000
0000
0100
,
0100
0000
0000
0000
,
0000
0000
0000
0010
,
0010
0000
0000
0000
,
0000
0000
0000
0000
,
1000
0000
1000
0000
,
0100
0000
0000
0000
,
0010
0000
0010
0000
,
0001
0000
0000
0000
,
0100
0000
0100
0000
,
0010
0000
0000
0000
,
1000
0000
1000
0000
,
0001
0000
0000
0000
,
1001
0000
0000
0000
,
0100
0000
0000
0000
,
0100
0000
0000
0000
,
0100
0000
0000
0000
,
0010
0000
0010
0000
,
0010
0000
0010
0000
,
1000
0000
0000
0000
,
1000
0000
0000
0000
,
0100
0000
0100
0000
,
0100
0000
0100
0000
,
0010
0000
0010
0000
,
0001
0000
0000
0000
,
0001
0000
0001
0000
,
0001
0000
0001
0000
,
0100
0000
0000
0000
,
0100
0000
0000
0000
,
0010
0000
0010
0000
,
0010
0000
0010
0000
,
1000
0000
0000
0000
,
1000
0000
0000
0000
,
0100
0000
0100
0000
,
0100
0000
0100
0000
,
1000
0000
0000
0000
,
1000
0000
0000
0000
,
0001
0000
0001
0000
,
0001
0000
0001
0000
,
0010
0000
0000
0000
,
0010
0000
0000
0000
,
0100
0000
0100
0000
,
0100
0000
0100
0000
,
0010
0000
0000
0000
,
0010
0000
0000
0000
,
0001
0000
0001
0000
,
0001
0000
0001
0000
,
0100
0000
0000
0000
,
0100
0000
0010
0010
;

//---------------dance-single - ----------------
#NOTEDATA:;
#CHARTNAME:;
#STEPSTYPE:dance-single;
#DESCRIPTION:;
#CHARTSTYLE:;
#DIFFICULTY:Easy;
#METER:5;
#RADARVALUES:0.323784,0.302444,0.036794,0.029435,0.000000,299.000000,5.000000,4.000000,0.000000,0.000000,0.000000,0.000000,0.000000,0.323784,0.302444,0.036794,0.029435,0.000000,299.000000,5.000000,4.000000,0.000000,0.000000,0.000000,0.000000,0.000000;
#CREDIT:;
#NOTES:
0000
0000
0000
0000
,
0000
0000
0000
0000
,
0000
0000
0000
0000
,
0000
0000
0000
0000
,
0000
0000
0000
0000
,
1000
1000
1000
1000
,
1000
1000
1000
0000
,
0000
0001
0001
0001
,
0001
0000
0001
0000
,
0100
0100
0010
0010
,
0100
0010
0100
0000
,
0001
0001
1000
1000
,
0001
1000
0001
0000
,
1000
1000
0100
0100
,
1000
0100
1000
0000
,
0001
0001
0010
0010
,
0001
0010
0001
0000
,
1000
0010
1000
0000
,
0001
0100
0001
0000
,
1000
0100
1000
0000
,
0001
0010
0001
0000
,
1000
0010
0100
0001
,
0010
0100
1000
0001
,
1000
1000
0010
0010
,
0100
0100
0001
0000
,
1000
0100
1000
0100
,
0010
0001
0020
0030
,
0001
0100
0001
0100
,
0010
1000
0020
0030
,
1000
0010
0100
0001
,
0010
0100
1000
0100
,
0010
0000
0010
0010
,
1001
0000
1001
0000
,
0100
0000
0000
0100
0000
0000
0000
0000
,
0010
0000
0000
0010
0000
0000
0000
0000
,
0000
0000
1000
0100
,
0010
0001
0010
0001
,
1000
0000
0001
0100
,
0001
0100
0010
1000
,
0010
0000
1000
0001
,
0100
0001
1000
0001
,
1000
0000
1000
1000
,
1000
0000
0001
0001
,
0001
0000
0100
0010
,
1000
0010
0100
0001
,
0100
0000
0001
0010
,
0100
1000
0100
1000
,
0001
0000
1000
0010
,
0100
0001
0010
0100
,
1000
0000
0001
0001
,
0001
0000
1000
1000
,
1000
0000
0000
1000
0000
0000
0000
0000
,
0000
0000
0000
0100
,
0010
0000
0000
0010
0000
0000
0000
0000
,
0000
0000
0000
0001
,
0100
0000
0000
0100
0000
0000
0000
0000
,
0000
0000
0000
0010
,
1000
0000
0000
1000
0000
0000
0000
0000
,
0000
0000
1001
0000
,
0001
0100
0010
0100
,
0001
1000
0200
0300
,
1000
0001
0010
0001
,
0100
0010
2000
3000
,
0010
0100
0001
0010
,
0100
1000
0100
0001
,
0100
0000
1000
1000
,
0001
0000
0001
0000
,
0100
0000
0000
0100
0000
0000
0000
0000
,
0100
0000
0000
0100
0000
0000
0000
0000
,
0100
0000
0000
0100
0000
0000
0000
0000
,
0010
0010
0100
0010
,
1000
1000
1000
1000
,
1000
1000
1000
0000
,
0001
0000
0000
0001
0000
0000
0000
0000
,
0001
0000
0000
0001
0000
0000
0000
0000
,
0100
0100
0100
0100
,
0100
0100
0100
0000
,
0000
0010
1000
0100
,
0010
0000
0010
0000
,
0001
0001
0001
0001
,
0001
0001
0001
0000
,
1000
0000
0000
1000
0000
0000
0000
0000
,
1000
0000
0000
1000
0000
0000
0000
0000
,
0010
0010
0010
0010
,
0010
0010
0010
0000
,
0100
0001
0010
0100
,
1000
0100
1000
0000
,
0001
0001
1000
1000
,
0001
1000
0001
0000
,
1000
0000
0000
1000
0000
0000
0000
0000
,
0010
0000
0000
0010
0000
0000
0000
0000
,
0100
0100
0001
0001
,
0100
0100
0001
0000
,
0001
0001
1000
1000
,
0001
1000
0001
0000
,
0100
0010
1000
0100
,
0010
0001
0100
0000
,
0010
0000
0000
1000
0000
0000
0000
0000
,
0100
0000
0000
0010
0000
0000
0000
0000
,
1000
0001
0100
0010
,
1000
0100
0010
0100
,
1000
0010
0100
0001
,
1000
0000
1100
0011
;

//---------------dance-single - ----------------
#NOTEDATA:;
#CHARTNAME:;
#STEPSTYPE:dance-single;
#DESCRIPTION:;
#CHARTSTYLE:;
#DIFFICULTY:Medium;
#METER:7;
#RADARVALUES:0.429960,0.415860,0.323784,0.073587,0.000000,355.000000,44.000000,10.000000,0.000000,0.000000,0.000000,0.000000,0.000000,0.429960,0.415860,0.323784,0.073587,0.000000,355.000000,44.000000,10.000000,0.000000,0.000000,0.000000,0.000000,0.000000;
#CREDIT:;
#NOTES:
0000
0000
0000
0000
,
0000
0000
0000
0000
,
0000
0000
0000
0000
,
0000
0000
0000
0000
,
0000
0000
0000
0000
,
1000
0100
1000
0001
,
0010
0001
0100
0000
,
0000
0010
1000
0100
,
0010
0000
0000
0001
0000
0000
0100
0000
,
0010
0000
0000
1000
0100
0000
1000
0000
,
0001
0000
0000
0100
0001
0000
0100
0000
,
0010
0000
0000
0100
0001
0000
1000
0000
,
0100
0000
0000
0010
0100
0000
0000
0000
,
1000
0000
0000
0010
0100
0000
0001
0000
,
0100
0000
0000
0001
1000
0000
0100
0000
,
1000
0000
0000
0001
0010
0000
0001
0000
,
0100
0000
0000
0010
1000
0000
0000
0000
,
0010
0000
0000
1001
0000
0000
0100
0000
,
0100
0000
0000
1001
0000
0000
0010
0000
,
0010
0000
0000
1100
0000
0000
0010
0000
,
0010
0000
0000
0101
0000
0000
0010
0000
,
0010
1000
0100
0001
,
0100
1000
0001
0100
,
1000
0100
0001
1000
,
0100
0010
0001
0000
,
1000
0000
1000
0000
0010
0100
0010
0000
,
0200
0001
0301
0000
,
0001
0010
0001
0010
0100
0000
0010
0100
,
2000
0001
3001
0000
,
1000
0001
0100
0010
,
0100
0001
0010
0100
,
1000
0000
0000
0001
0000
0000
0100
0000
,
1001
0000
0110
0000
,
0010
0000
1000
0000
,
0001
0000
0100
0000
,
0010
0000
0010
1000
,
0100
1000
0001
0001
,
0100
0000
0010
1000
,
0100
0010
0100
0100
,
1000
0000
0001
0100
,
0010
0100
0001
1000
,
0100
0000
0010
0001
,
1100
0000
0010
1000
,
0101
0000
0001
1000
,
0100
1000
0001
0010
,
0101
0000
0001
0100
,
0010
1000
0100
0010
,
1100
0000
0001
0100
,
0010
1000
0100
0010
,
1001
0000
0001
0001
,
1100
0000
0000
0000
0001
0000
0001
1000
,
1100
0000
0000
2200
0000
0000
0000
0000
,
3300
0000
0000
0000
0000
0000
1000
0001
,
0101
0000
0000
0202
0000
0000
0000
0000
,
0303
0000
0000
0000
0000
0000
0001
1000
,
0110
0000
0000
0220
0000
0000
0000
0000
,
0330
0000
0000
0000
0000
0000
0010
1000
,
1100
0000
0000
0011
0000
0000
0000
0000
,
0001
1000
0110
0000
,
0010
0000
1000
0000
0100
1000
0100
0000
,
0020
0001
0130
0000
,
0010
0001
0100
0001
0100
0000
0010
1000
,
0200
0010
1300
0001
,
1000
0100
1000
0000
0001
0000
0010
0001
,
0100
0010
1000
0100
,
0110
0000
0000
1100
0000
0000
0001
0000
,
1000
0000
0001
0000
,
1100
0000
0000
0100
1000
0000
1000
0000
,
0101
0000
0000
0100
0001
0000
0001
0000
,
1001
0000
0000
0110
0000
0000
0010
0000
,
1001
0000
1000
0100
0010
0000
0001
0001
,
1000
0100
1000
0100
,
1000
0100
0010
0000
,
0011
0000
0000
1100
0000
0000
0100
0000
,
1001
0000
0000
0110
0000
0000
0010
1000
,
1000
0010
0001
0010
,
1000
0100
0010
0000
,
0000
0001
0100
0010
,
1000
0000
0000
0100
0000
0000
1000
0001
,
0100
0010
1000
0100
,
0010
0100
1000
0000
,
0101
0000
0000
0110
0000
0000
0001
0000
,
1100
0000
0000
1010
0000
0000
0010
0100
,
0001
1000
0100
1000
,
0001
0000
0100
0000
0010
0000
0100
0010
,
0010
0000
0100
0000
0100
0000
0010
1000
,
0100
0000
0100
0000
1000
1000
0001
0000
,
0001
0100
0010
0100
,
0001
1000
0100
0000
,
1100
0000
0000
0101
0000
0000
0100
0000
,
0110
0000
0000
1010
0000
0000
0010
1000
,
0100
1000
0100
0010
,
0001
0100
0010
0000
,
1000
0010
0100
0001
1000
0010
0100
0001
,
0000
1000
0010
0100
0000
0100
0000
0000
,
0001
1000
0001
1000
,
0100
1000
0001
0000
,
1010
0000
0000
0101
0000
0000
0100
0000
,
1100
0000
0000
0011
0000
0000
0001
1000
,
0010
0100
0001
1000
,
0100
0000
0010
0000
0001
0000
1000
0100
,
1000
0000
0001
0100
0001
0000
1000
0001
,
1000
0000
0000
0000
0010
0100
0001
0000
;

//---------------dance-single - ----------------
#NOTEDATA:;
#CHARTNAME:;
#STEPSTYPE:dance-single;
#DESCRIPTION:;
#CHARTSTYLE:;
#DIFFICULTY:Hard;
#METER:8;
#RADARVALUES:0.589750,0.567082,0.802102,0.080946,0.014717,441.000000,109.000000,11.000000,0.000000,0.000000,0.000000,0.000000,0.000000,0.589750,0.567082,0.802102,0.080946,0.014717,441.000000,109.000000,11.000000,0.000000,0.000000,0.000000,0.000000,0.000000;
#CREDIT:;
#NOTES:
// measure 0
0000
0000
0000
0000
,  // measure 1
0000
0000
0000
0000
,  // measure 2
0000
0000
0000
0000
,  // measure 3
0000
0000
0000
0000
,  // measure 4
0000
0000
0000
0000
,  // measure 5
1100
0101
0101
1100
,  // measure 6
0101
0101
1100
0000
,  // measure 7
0000
0010
1000
0100
,  // measure 8
0010
0000
0000
0010
0000
0000
0001
0000
,  // measure 9
1000
0000
0001
0100
0010
0000
1001
0000
,  // measure 10
0001
0000
1000
0010
0100
0000
1001
0000
,  // measure 11
1000
0000
0100
0010
0100
0000
1100
0000
,  // measure 12
0001
0000
0100
0010
0100
0000
0101
0000
,  // measure 13
1000
0000
0100
0010
0001
0000
0101
0000
,  // measure 14
0100
0000
0001
0100
0010
0000
1010
0000
,  // measure 15
1000
0000
0100
1000
0010
0000
0110
0000
,  // measure 16
0100
0000
0001
0010
0001
0000
0101
0000
,  // measure 17
0010
0000
1000
0100
0000
0100
1000
0000
,  // measure 18
0001
0000
0010
0001
0000
0001
0100
0000
,  // measure 19
0010
0000
0100
0001
0000
1000
0100
0000
,  // measure 20
1000
0000
0010
0100
0000
0001
1000
0000
,  // measure 21
0100
0000
1000
0010
0100
0001
0100
0000
,  // measure 22
0010
0000
1000
0100
0010
0001
0100
0000
,  // measure 23
0010
0000
0100
0001
1000
0100
1000
0000
,  // measure 24
0001
0000
0010
0001
1000
0000
0100
0000
,  // measure 25
1100
0000
0101
0000
1000
0001
0100
0000
,  // measure 26
0012
0100
1003
0000
,  // measure 27
0010
1000
0100
0010
0100
0000
1000
0010
,  // measure 28
2010
0000
0100
0000
3001
0000
1000
0001
,  // measure 29
0100
0010
0100
0001
1000
0100
0010
0100
,  // measure 30
1000
0001
0100
0010
,  // measure 31
2100
0000
0000
0001
0000
0000
3001
0000
,  // measure 32
0110
0000
0110
0000
,  // measure 33
0001
0000
0000
0001
0000
0000
0000
0000
,  // measure 34
1000
0000
0000
1000
0000
0000
0000
0000
,  // measure 35
1001
0000
0000
0000
0001
0000
0001
1000
,  // measure 36
0100
0000
1000
0001
0100
0000
0010
0000
,  // measure 37
0010
0000
0000
0000
1000
1000
0100
1000
,  // measure 38
0001
0010
0001
0100
,  // measure 39
0010
0000
0000
0000
0100
0000
0001
0001
,  // measure 40
1000
0000
0100
0100
1000
0000
0010
0000
,  // measure 41
1000
0000
0000
0000
1000
0100
0000
0010
,  // measure 42
0000
0010
0000
0000
0001
0100
0000
0010
,  // measure 43
0000
0010
0000
0000
0010
0000
1000
0100
,  // measure 44
1000
0000
0100
0010
0001
0000
0100
0000
,  // measure 45
0100
0000
0000
0000
0010
1000
0100
1000
,  // measure 46
0100
0000
0010
0001
0100
0000
0010
0000
,  // measure 47
0010
0000
0000
0000
0100
0000
0001
1000
,  // measure 48
0100
0000
1000
0001
0010
0000
0001
0000
,  // measure 49
0001
0000
0000
0000
0100
0010
0000
0010
,  // measure 50
0000
0010
0000
0000
0100
0010
0000
0010
,  // measure 51
0000
0010
0000
0000
1000
0100
1000
0100
,  // measure 52
0010
0001
0010
0001
0000
0100
0100
0010
,  // measure 53
0000
0010
0000
0000
1000
0010
1000
0010
,  // measure 54
0100
0000
0001
0000
0100
0000
0001
0000
1000
0000
0000
0001
0000
0000
0100
0000
,  // measure 55
0000
0001
0000
0000
1000
0001
0010
0100
,  // measure 56
1000
0000
0010
0000
0100
0000
0001
0000
1000
0000
0000
0100
0000
0000
0010
0000
,  // measure 57
0000
0000
0100
0000
0000
0000
0000
0000
1000
0000
0000
0010
0000
0000
0100
0000
,  // measure 58
0000
0001
0000
0000
2002
0000
3003
0000
,  // measure 59
1001
0000
0001
0000
0100
0100
0010
0000
,  // measure 60
2000
0100
3100
0000
,  // measure 61
1000
0100
0010
0001
0100
0000
0010
0100
,  // measure 62
0002
0000
1000
0000
1003
0000
0001
0010
,  // measure 63
0100
1000
0100
0001
0100
1000
0001
0100
,  // measure 64
1000
0100
0001
0010
,  // measure 65
2100
0000
0000
0001
0000
0000
3010
0000
,  // measure 66
1001
0000
0110
0000
,  // measure 67
1010
0000
0000
1000
0100
0000
0011
0000
,  // measure 68
0101
0000
0000
0100
0001
0000
0011
0000
,  // measure 69
1100
0000
0000
0110
0000
0000
0010
0000
,  // measure 70
1001
0000
1000
0100
0010
0000
0010
0000
,  // measure 71
1100
0101
0101
1100
,  // measure 72
0101
0000
0101
0000
1100
0000
0001
1000
,  // measure 73
0110
0000
0000
0110
0000
0000
0010
0000
,  // measure 74
0101
0000
0000
0101
0000
0000
0010
1000
,  // measure 75
1010
0011
0011
1010
,  // measure 76
0011
0000
0011
0000
1010
0000
0010
1000
,  // measure 77
1100
0010
0001
0100
,  // measure 78
0010
0000
0000
0100
0000
0000
0100
0000
,  // measure 79
0011
0101
0101
0011
,  // measure 80
0101
0000
0101
0000
0011
0000
0010
0001
,  // measure 81
1100
0000
0000
1001
0000
0000
0100
0000
,  // measure 82
1100
0000
0000
1001
0000
0000
0010
0100
,  // measure 83
1010
1100
1100
1010
,  // measure 84
1100
1100
1010
0010
,  // measure 85
1000
0100
0010
0001
0010
0100
1000
0001
,  // measure 86
0200
0000
0000
1000
0000
0000
0001
0000
0000
0000
0310
0000
0000
0000
0000
0000
,  // measure 87
1010
0101
0101
1010
,  // measure 88
0101
0000
0101
0000
1010
0000
0010
1000
,  // measure 89
1100
0000
0000
0011
0000
0000
0010
0000
,  // measure 90
1100
0000
0000
0011
0000
0000
0010
0001
,  // measure 91
0101
1010
1010
0101
,  // measure 92
1010
1010
0101
0000
,  // measure 93
0001
0100
0010
1000
0100
0010
0100
1000
,  // measure 94
0000
0001
0100
0020
0000
0200
0000
0330
,  // measure 95
1001
0110
0110
1001
,  // measure 96
0110
0000
0110
0000
1001
0000
0010
1000
,  // measure 97
1100
0000
0000
1010
0000
0000
0010
0000
,  // measure 98
1100
0000
0000
1010
0000
0000
0010
1000
,  // measure 99
0011
1100
1100
0011
,  // measure 100
1100
0000
1100
0000
0011
0000
0001
1000
,  // measure 101
0010
0000
0100
0001
0010
0000
0100
1000
,  // measure 102
0001
0000
0000
0000
1000
0001
0110
0000
;
