#TITLE:HANGOVER;
#SUBTITLE:;
#ARTIST:PSY feat. Snoop Dogg;
#TITLETRANSLIT:;
#SUBTITLETRANSLIT:;
#ARTISTTRANSLIT:;
#CREDIT:;
#BANNER:[Duet] - HANGOVER.png;
#JACKET:[Duet] - HANGOVER-jacket.png;
#BACKGROUND:[Duet] - HANGOVER-bg.png;
#LYRICSPATH:;
#CDTITLE:;
#MUSIC:[Duet] - HANGOVER.mp3;
#OFFSET:-0.320;
#SAMPLESTART:25.860;
#SAMPLELENGTH:12.800;
#SELECTABLE:YES;
#BPMS:0.000=150.000;
#STOPS:;
#BGCHANGES:;

//---------------dance-single - ----------------
#NOTES:
     dance-single:
     :
     Easy:
     4:
     0.322,0.335,0.086,0.115,0.000: // measure 1
0000
0000
0001
0000
,  // measure 2
0000
0000
1000
0000
,  // measure 3
0000
0000
1000
0000
,  // measure 4
0000
0000
0001
0000
,  // measure 5
1000
0000
0010
0000
,  // measure 6
0100
0000
0001
0000
,  // measure 7
1000
0000
0100
0000
,  // measure 8
0010
0000
0001
0000
,  // measure 9
1000
1000
0001
0001
,  // measure 10
1000
1000
0010
0010
,  // measure 11
1000
1000
0100
0100
,  // measure 12
0010
0010
0001
0001
,  // measure 13
1000
0000
0010
0000
,  // measure 14
0100
0000
0001
0000
,  // measure 15
1000
0000
0100
0000
,  // measure 16
0010
0000
0002
1003
,  // measure 17
1000
0001
1000
0100
,  // measure 18
0010
0001
0100
0010
,  // measure 19
1000
0001
1000
0100
,  // measure 20
0010
0100
1000
0001
,  // measure 21
1000
0010
1000
0010
,  // measure 22
0100
0001
0100
0001
,  // measure 23
1000
0100
1000
0001
,  // measure 24
1000
0000
0002
0000
2000
3003
0000
0000
,  // measure 25
1000
0000
0000
0010
0000
0000
0110
0000
,  // measure 26
0000
1001
0000
0000
2002
0000
3003
0000
,  // measure 27
1000
0000
0000
0001
0000
0000
1001
0000
,  // measure 28
0000
0110
0000
0000
2002
0000
3003
0000
,  // measure 29
1000
0000
0000
0100
0000
0000
0110
0000
,  // measure 30
0000
1001
0000
0000
2002
0000
3003
0000
,  // measure 31
1000
0100
0010
0001
,  // measure 32
0100
0010
2000
3001
,  // measure 33
1000
0100
1000
0100
,  // measure 34
0010
0001
0010
0001
,  // measure 35
0100
0001
0100
0001
,  // measure 36
1000
0010
1000
0010
,  // measure 37
1000
0001
1000
0001
,  // measure 38
0100
0010
0100
0010
,  // measure 39
1000
0100
0010
0001
,  // measure 40
0100
0010
1000
0001
,  // measure 41
1000
1000
0001
0001
,  // measure 42
0100
0100
0010
0010
,  // measure 43
1000
1000
0010
0010
,  // measure 44
0100
0100
0001
0001
,  // measure 45
1000
0000
0000
1000
0000
0001
0000
0001
,  // measure 46
0000
1000
0000
0000
0001
0000
0000
0100
,  // measure 47
0000
0010
0000
1000
,  // measure 48
0010
0100
0002
0003
,  // measure 49
1000
0010
1000
0010
,  // measure 50
1000
0001
1000
0001
,  // measure 51
0010
0001
0010
0001
,  // measure 52
0010
0100
0010
0100
,  // measure 53
1000
0100
1000
0100
,  // measure 54
1000
0001
1000
0001
,  // measure 55
0100
0001
0100
0001
,  // measure 56
0100
0010
0100
0010
,  // measure 57
1000
1000
0100
0100
,  // measure 58
0010
0010
0001
0001
,  // measure 59
0100
0100
0010
0010
,  // measure 60
1000
1000
0001
0001
,  // measure 61
1000
0100
0010
0001
,  // measure 62
0010
0100
1000
0001
,  // measure 63
0100
0010
1000
0100
,  // measure 64
0010
0001
2000
3001
;

//---------------dance-single - ----------------
#NOTES:
     dance-single:
     :
     Hard:
     8:
     0.645,0.731,0.067,0.287,0.196:
1000
0000
0000
0100
0000
0000
0010
0000
,
0000
0001
0000
0000
0100
0000
0010
0000
,
1000
0000
0000
0001
0000
0000
0100
0000
,
0000
0010
0000
0000
0100
0000
0010
0000
,
1000
1000
0100
0100
,
0010
0010
0001
0001
,
0100
0100
0010
0010
,
1000
1000
0001
0001
,
1000
0001
1000
0100
0010
0100
1000
0001
,
1000
0010
0100
0010
1000
0001
1000
0000
,
0001
1000
0001
0010
0100
0010
0001
1000
,
0001
0100
0010
0100
0001
1000
0001
0000
,
0011
0000
1000
0010
0100
0001
0100
0000
,
1010
0010
1000
0000
1000
0100
0001
0100
,
1000
0001
1000
0010
0100
0010
1000
0001
,
1000
0100
0010
0100
1000
0001
1001
0000
,
1000
0000
0100
0000
1000
0000
0100
0000
1000
0000
0100
1000
0100
0000
1000
0000
,
0001
0000
0010
0000
0001
0000
0010
0000
0001
0000
0010
0001
0010
0000
0001
0000
,
0100
0000
0001
0000
0100
0000
0001
0000
0100
0000
0001
0100
0001
0000
0100
0000
,
0010
0000
1000
0000
0010
0000
1000
0000
0010
0000
1000
0010
1000
0001
0010
0000
,
0100
0000
0010
0000
0100
0000
0010
0000
0001
0000
1000
0001
1000
0000
0001
0000
,
1000
0000
0001
0000
1000
0000
0001
0000
0100
0000
0010
0100
0010
0000
0100
0000
,
0001
0000
0010
0000
0100
0000
1000
0000
0001
0000
0100
0010
0100
0000
0001
0000
,
1000
0001
1000
0001
1000
0001
1000
0001
1000
0001
1000
0001
1000
0000
0001
0000
,
2000
0000
3000
0002
0000
0003
2000
0000
,
3000
0002
0000
0003
0100
0000
0010
0000
,
2000
0000
3000
0002
0000
0003
0200
0000
,
0300
0020
0000
0030
0100
0000
0001
0000
,
0200
0000
0300
2000
0000
3000
0200
0000
,
0300
0002
0000
0003
1000
0000
1000
0000
,
1000
0100
0001
0100
1000
0010
0001
0010
,
1000
0100
0001
0100
1000
0000
1001
0000
,
1000
0000
0001
0100
0001
0000
1000
0000
0001
0000
1000
0100
2000
0000
3000
0000
,
0010
0000
1000
0001
0100
0000
0001
0000
1000
0000
0100
0010
0002
0000
0003
0000
,
1000
0100
0001
1000
0010
0001
0010
0100
,
1000
0000
1000
0000
0001
0010
0100
0000
,
1000
0000
0100
0010
0100
0000
0010
0000
0001
0000
1000
0010
2000
0000
3000
0000
,
0001
0000
1000
0100
0010
0000
0001
0100
0010
0000
1000
0100
0020
0000
0030
0000
,
0001
0000
0000
0001
0000
0000
1000
0000
0010
0000
1000
0000
0100
0000
0001
0000
,
0100
0000
1000
0000
0001
0000
0100
0000
1000
0000
0100
0020
0000
0030
0000
0000
,
1000
0001
1000
0100
0010
0100
0001
0100
,
1000
0010
0001
0010
0100
0002
0003
0000
,
1000
0010
0100
0001
0100
0010
1000
0100
,
0010
0001
0010
0100
1000
0002
0003
0000
,
1000
0000
0100
0000
1000
0001
0000
0010
,
0000
0000
0001
0000
0100
0000
0000
0000
0000
0010
0000
0000
1000
0000
0010
0000
,
0000
1000
0000
0000
0100
0000
0000
0000
0000
0000
0000
0000
0010
0000
0000
0000
,
0001
0000
0000
0000
1000
0000
0000
0010
0000
0000
1000
0000
0002
0000
0003
0000
,
1000
0100
1000
0001
0100
0002
0020
0033
,
0001
0100
0001
1000
0100
2000
0200
3300
,
1000
0000
0100
1000
0100
0000
0010
0000
0001
0010
0001
1000
0010
0000
0100
0001
,
0100
0010
0000
0000
1000
0000
0100
0000
1000
0000
0000
0000
1001
0000
0000
0000
,
0001
0000
0100
0010
0100
0000
0001
0000
1000
0000
0010
0000
0100
0000
0010
0000
,
1000
0010
0100
0001
0010
0000
0100
0000
1000
0000
0001
0000
0200
0000
0300
0000
,
0001
0000
1000
0001
1000
0000
0001
0000
0100
0000
1000
0100
0010
0000
1000
0000
,
0001
0100
0010
0100
0001
1000
2002
3003
,
1000
0001
1000
0010
0100
0010
1000
0001
,
1000
0100
0010
0100
1000
0001
1000
0001
,
1000
0010
0001
0010
1000
0100
0001
0100
,
1000
0010
0001
0010
1000
0001
0100
0010
,
1000
0000
0100
0000
1000
0000
0001
0000
0100
0000
0001
1000
0001
0000
1000
0000
,
0001
0000
0100
0000
0020
0000
0030
0000
1000
0100
1000
0000
0001
0010
0001
0000
,
1000
0001
1000
0100
0010
0100
1000
0001
,
1000
0010
0200
0020
0330
0000
1001
0000
;

//---------------dance-single - ----------------
#NOTES:
     dance-single:
     :
     Medium:
     7:
     0.595,0.548,0.029,0.038,0.105:
1000
0000
0000
0001
0000
0000
1000
0000
,
0000
0001
0000
0000
1000
0000
0100
0000
,
1000
0000
0000
0001
0000
0000
1000
0000
,
0000
0001
0000
0000
1000
0000
0010
0000
,
1000
0001
1000
1000
,
0001
0001
1000
1000
,
0100
0100
0010
0010
,
0100
0100
0010
0010
,
0001
1000
0001
1000
0001
1000
0001
1000
,
0001
1000
0001
1000
0010
0100
0010
0100
,
0001
1000
0001
1000
0001
1000
0001
1000
,
0001
1000
0001
1000
0100
0010
0100
0010
,
0001
0000
1000
0100
1000
0100
1000
0100
,
1000
0000
0001
0100
0001
0100
0001
0100
,
0001
1000
0100
1000
0001
0100
0001
1000
,
0100
1000
0001
0200
0002
0303
0000
0000
,
1000
0000
0100
0000
1000
0000
0100
0000
1000
0000
0000
0100
1000
0000
0000
0000
,
0001
0000
0100
0000
0001
0000
0100
0000
0001
0000
0000
0100
0001
0000
0000
0000
,
1000
0000
0010
0000
1000
0000
0010
0000
1000
0000
0000
0010
1000
0000
0000
0000
,
0001
0000
0010
0000
0001
0000
0010
0000
0001
0000
0000
0010
0001
0000
0000
0000
,
1000
0000
0001
0000
1000
0000
0001
0000
1000
0000
0000
0001
1000
0000
0000
0000
,
0100
0000
0010
0000
0100
0000
0010
0000
0100
0000
0000
0010
0100
0000
0000
0000
,
1000
0000
0001
0000
1000
0000
0001
0000
1000
0000
0000
0001
1000
0000
0000
0000
,
0001
0100
0001
0100
0010
1000
0010
1000
,
0001
1000
0001
1000
0001
1000
0001
1000
,
0001
1000
0001
0010
0100
0010
0100
0010
,
0001
1000
0001
1000
0001
1000
0001
1000
,
0001
1000
0001
0100
0010
0100
0010
0100
,
0001
1000
0001
1000
0001
1000
0001
1000
,
0001
1000
0001
1000
0010
0100
0010
0100
,
0001
0100
0001
0100
0010
1000
0010
1000
,
0001
0010
0001
0010
0100
2000
0200
3300
,
1000
0100
0010
0001
0100
0010
1000
0000
,
0001
0010
0100
1000
0010
0100
0001
0000
,
1000
0100
1000
0010
1000
0100
1000
0001
,
1000
0000
0001
0000
1000
0100
1000
0000
,
0001
0100
0001
0010
0001
0100
0001
1000
,
0001
1000
0010
1000
0100
1000
0001
0000
,
1000
0000
0000
0001
0000
0000
1000
0001
0000
1000
0001
0000
1000
0000
0100
0000
,
0010
0000
0001
1000
0000
0000
0001
0000
0010
0000
0100
0010
0000
0000
0000
0000
,
1000
0100
1000
0001
0100
0001
1000
0100
,
1000
0001
0100
0001
1000
0001
0000
0000
,
1000
0010
1000
0001
0010
0001
1000
0010
,
1000
0001
0010
0001
1000
0001
0000
0000
,
1000
0000
0000
0100
0000
0000
0000
0010
0000
0000
0000
0001
0000
0000
1000
0000
,
0000
0000
0001
0000
0100
0000
0000
0000
0001
0000
0000
1000
0000
0000
0001
0000
,
0000
0000
1000
0000
0000
0001
0000
0000
0000
0000
0000
0000
1000
0000
0000
0000
,
0001
0000
0000
0000
0100
0001
0000
0000
0100
0000
0000
0000
1001
0000
0000
0000
,
1000
0001
1000
0001
0100
0010
0100
0000
,
0001
1000
0001
1000
0100
0010
0100
0000
,
1000
0100
1000
0001
1000
0010
1000
0001
,
1000
0100
1000
0001
0010
0100
0010
0000
,
0001
0010
0001
1000
0001
0100
0001
1000
,
0100
1000
0010
1000
0100
1000
0001
0010
,
0001
0100
0001
0010
0001
1000
0001
1000
,
0010
0100
0010
1000
0001
1000
1001
0000
,
1000
0100
1000
0100
1000
0100
0010
0001
,
0010
0001
0010
0001
1000
0001
1000
0001
,
1000
0010
1000
0010
1000
0010
0100
0001
,
0100
0001
0100
0001
1000
0001
1000
0001
,
1000
0000
0100
0000
1000
0000
0100
0000
1000
0000
0000
0100
1000
0000
0000
0000
,
0001
0000
0010
0000
0001
0000
0000
1000
0010
0000
0000
0001
0100
0000
0000
0000
,
0100
0000
0001
0000
0100
0000
0001
0000
1000
0000
0000
0001
1000
0000
0000
0000
,
1000
0100
0010
0001
1000
0000
1001
0000
;
