#TITLE:Fancy (ft. Charli XCX);
#SUBTITLE:;
#ARTIST:Iggy Azalea;
#TITLETRANSLIT:;
#SUBTITLETRANSLIT:;
#ARTISTTRANSLIT:;
#GENRE:;
#CREDIT:;
#BANNER:fancy-bn2.png;
#BACKGROUND:bg.png;
#LYRICSPATH:;
#CDTITLE:;
#MUSIC:Fancy.mp3;
#OFFSET:-0.480000;
#SAMPLESTART:38.358002;
#SAMPLELENGTH:20.000000;
#SELECTABLE:YES;
#BPMS:0.000000=95.000000
;
#STOPS:
;
#BGCHANGES:;
#KEYSOUNDS:;
#ATTACKS:;

//---------------dance-single - ----------------
#NOTES:
     dance-single:
     :
     Beginner:
     1:
     0.067093,0.076942,0.000000,0.059955,0.000000,41.000000,0.000000,6.000000,0.000000,0.000000,0.000000,0.067093,0.076942,0.000000,0.059955,0.000000,41.000000,0.000000,6.000000,0.000000,0.000000,0.000000:
0000
0000
0000
0000
,
0000
0000
0000
0000
,
0000
0000
0000
0000
,
0000
0000
0000
0000
,
1000
0000
0000
0000
,
0001
0000
0000
0000
,
0100
0000
0000
0000
,
0010
0000
0000
0000
,
1000
0000
0000
0000
,
0100
0000
0000
0000
,
0010
0000
0000
0000
,
0001
0000
0000
0000
,
1000
0000
0000
0000
,
0010
0000
0000
0000
,
0100
0000
0000
0000
,
0001
0000
0001
0000
,
0001
0000
0000
0000
,
1000
0000
1000
0000
,
1000
0000
0000
0000
,
0010
0000
0010
0000
,
0010
0000
0000
0000
,
0100
0000
0100
0000
,
0100
0000
0000
0000
,
0001
0000
0000
0000
,
0010
0000
0000
0000
,
0100
0000
0000
0000
,
1000
0000
0000
0000
,
0001
0000
0000
0000
,
0100
0000
0000
0000
,
0010
0000
0000
0000
,
1000
0000
0000
0000
,
0002
0000
0003
0000
,
2000
0000
3000
0000
,
0020
0000
0030
0000
,
0100
0000
0100
0000
,
0200
0000
0300
0000
,
0002
0000
0003
0000
,
2000
0000
3000
0000
,
0010
0000
0010
0000
;

//---------------dance-single - ----------------
#NOTES:
     dance-single:
     :
     Easy:
     3:
     0.212698,0.232326,0.199850,0.139895,0.000000,115.000000,20.000000,14.000000,0.000000,0.000000,0.000000,0.212698,0.232326,0.199850,0.139895,0.000000,115.000000,20.000000,14.000000,0.000000,0.000000,0.000000:
0000
0000
0000
0000
,
0000
0000
0000
0000
,
0000
0000
0000
0000
,
0000
0000
0000
0000
,
0001
0000
0100
0000
,
0010
0000
1000
0000
,
0001
0000
0010
0000
,
0100
0000
1000
0000
,
0100
0000
0010
0000
,
0001
0000
1000
0000
,
0010
0000
0100
0000
,
0002
1000
0000
0013
,
0200
0001
0000
1300
,
0020
0001
0000
0130
,
0002
1000
0000
1003
,
2001
0100
0001
3010
,
0100
0001
0010
0100
,
0210
0001
1000
0310
,
0001
1000
0010
0000
,
0210
1000
0001
0310
,
1000
0100
0001
0100
,
0120
1000
0100
0031
,
0100
1000
0010
0001
,
1000
1100
0001
0101
,
1000
1010
0001
0011
,
0100
0110
0001
1001
,
0100
0110
0001
1001
,
0010
0101
0010
1100
,
0001
0110
1000
0110
,
0001
1010
0100
0011
,
0100
1001
0010
0110
,
0200
1000
0000
0301
,
0020
1000
0000
0130
,
0002
0010
0000
1003
,
0010
0001
0100
1000
,
0020
0001
0000
1030
,
0200
1000
0000
0301
,
2000
0010
0000
3001
,
0010
1000
0100
0001
;

//---------------dance-single - ----------------
#NOTES:
     dance-single:
     :
     Medium:
     5:
     0.298348,0.290407,0.209843,0.139895,0.039970,174.000000,21.000000,14.000000,0.000000,0.000000,0.000000,0.298348,0.290407,0.209843,0.139895,0.039970,174.000000,21.000000,14.000000,0.000000,0.000000,0.000000:
0000
0000
0000
0000
,
0000
0000
0000
0000
,
0000
0000
0000
0000
,
0000
0000
0000
0000
,
1000
0000
0001
0001
0000
0000
0000
0100
,
0100
0000
0010
0000
1000
0000
0000
0010
,
0010
0000
0001
1000
0000
0000
0000
0100
,
0001
0000
0010
0000
0100
0000
0000
0100
,
1000
0000
0010
0100
0000
0000
0000
0001
,
1000
0000
0100
0000
0010
0000
0000
0001
,
0010
0000
0100
1000
0000
0000
0000
0010
,
0100
0000
0100
0001
1000
0000
1100
0100
,
1000
0000
0010
0000
0100
0000
0101
0001
,
0010
0000
0010
0100
1000
0000
1001
0001
,
0100
0000
0101
0000
0010
0000
1010
1000
,
0001
0000
0000
0010
0000
0000
0100
0000
0000
1000
0000
0000
0000
0000
0000
0000
,
0000
0010
0100
0010
0100
0000
0010
1000
,
0010
0000
0000
0100
0000
0000
0001
0000
0000
1000
0000
0000
0000
0000
0000
0000
,
0000
0100
0010
0100
0020
0000
0130
0000
,
1000
0000
0000
0010
0000
0000
0100
0000
0000
0001
0000
0000
0000
0000
0000
0000
,
0000
0010
0001
0010
0001
0000
1000
0010
,
1000
0000
0000
0010
0000
0000
0100
0000
0000
0001
0000
0000
0010
0000
0001
0000
,
0020
0000
2030
0000
3100
0001
0200
0000
,
0310
0000
1000
0100
0000
1000
1001
0001
,
0100
0000
0110
0000
1001
0000
0110
0001
,
0010
0000
0100
1000
0000
0001
0101
0100
,
0010
0000
1010
0000
0101
0000
1001
0100
,
0010
0000
0001
0010
0000
0100
0110
0100
,
1000
0000
1010
0000
0110
0000
0101
0001
,
1000
0000
0010
0100
0000
0010
1001
0100
,
0010
0000
0011
0000
1100
0000
1001
0001
,
0200
0000
0310
0000
0100
0010
0100
0000
,
0002
0000
1003
0000
0001
1000
0001
0000
,
0020
0000
1030
0000
0010
0001
0100
0000
,
0020
0000
0032
0000
0103
1000
0001
0000
,
0200
0000
0310
0000
0100
0010
0100
0000
,
0002
0000
1003
0000
0001
1000
0001
0000
,
0200
0000
1300
0000
0100
0001
1000
0000
,
0020
0000
0032
0000
0103
1000
0001
0000
;

//---------------dance-single - ----------------
#NOTES:
     dance-single:
     :
     Hard:
     8:
     0.455373,0.428679,0.409693,0.049963,0.214839,273.000000,41.000000,5.000000,0.000000,0.000000,0.000000,0.455373,0.428679,0.409693,0.049963,0.214839,273.000000,41.000000,5.000000,0.000000,0.000000,0.000000:
0000
0000
0000
0000
,
0000
0000
0000
0000
,
0000
0000
0000
0000
,
0000
0000
0000
0000
1000
0000
0001
0000
1000
0000
0001
1000
0001
1000
0000
0000
,
0010
0000
0001
0000
0010
0000
0100
0000
0001
0000
1000
0000
0100
1000
0000
0000
,
0100
0000
0010
0000
1000
0000
0010
0000
0001
0000
0100
0000
0010
1000
0010
0000
,
0100
0000
0200
0000
0000
0000
0001
0300
0001
0000
0010
0000
0001
0000
1000
0000
,
0100
1000
0010
0010
0110
0001
1000
0100
,
0010
0001
0010
1000
0010
0001
0101
0100
,
0010
1000
1000
0001
0001
0010
0010
0100
,
1000
0010
0100
0001
0010
0100
1000
0001
,
0100
0010
0110
0100
0001
1000
1100
0000
,
0001
0010
0011
0100
1000
0010
0101
0000
,
0010
0100
1001
0001
0010
1000
1010
0000
,
0010
0100
1100
0010
0100
0001
1001
0100
,
0011
0000
0000
1100
0000
0000
1001
0000
0000
0101
0000
0000
0110
0000
0010
0000
,
1000
0000
0010
0100
0010
0000
0100
0000
0002
0000
1000
0000
1003
0000
0100
0000
,
0011
0000
0000
1100
0000
0000
1010
0000
0000
0101
0000
0000
1001
0000
0001
0000
,
0010
0000
0100
0000
1000
0000
0010
1000
0010
0000
0010
2000
0000
0000
0000
0000
,
3001
0000
0000
0101
0000
0000
1000
0000
0000
1100
0000
0000
0001
0000
0100
0010
,
0100
0000
0001
0100
0001
0000
1000
0000
0200
0000
0010
0000
0001
0000
1300
0000
,
0100
0000
0000
0110
0000
0000
0001
0000
0000
1001
0000
0000
0110
0000
0010
0000
,
0100
0000
0001
0100
0001
0000
1000
0100
1000
0000
0010
0000
0100
0000
0001
0000
,
0010
0000
0011
0000
0100
1000
1100
0001
,
0100
0000
0110
0000
0010
0100
1001
0100
,
0010
0000
0011
0000
0100
1000
1100
0001
,
0100
0000
1010
0000
0010
0100
1001
0100
,
0010
0000
1010
0000
0010
0001
0101
0000
,
0010
0000
1010
0000
0010
1000
0101
0000
,
0010
0000
0101
0000
1000
0100
0011
0000
,
0100
0000
1001
0000
0010
0100
1001
0000
,
0010
0100
0000
0010
0100
0000
0000
0000
0001
0000
0100
0001
0100
0000
0001
0000
,
1000
0100
0000
1000
0100
0000
0000
0010
0100
0000
0010
0100
0010
0000
0100
0000
,
1000
0100
0000
1000
0100
0000
0000
0010
0001
0000
0010
0001
0010
0000
0001
0010
,
0001
0010
1000
0100
0001
0010
0100
1000
,
0010
1000
0000
0010
1000
0000
0000
0000
0010
0000
0100
0010
0100
0000
0001
0000
,
0100
0001
0000
0100
0001
0000
0000
0010
0001
0000
0010
0001
0010
0000
0100
0000
,
1000
0100
0000
1000
0100
0000
1000
0001
1000
0000
0001
1000
0001
0000
1000
0010
,
1000
0010
0001
0100
1000
0001
0200
0000
,
0300
0000
0000
0000
;

//---------------dance-single - ----------------
#NOTES:
     dance-single:
     :
     Challenge:
     9:
     0.575283,0.561454,0.239820,0.029978,0.734449,376.000000,24.000000,3.000000,8.000000,0.000000,0.000000,0.575283,0.561454,0.239820,0.029978,0.734449,376.000000,24.000000,3.000000,8.000000,0.000000,0.000000:
// measure 0
0000
0000
0000
0000
,  // measure 1
0000
0000
0000
0000
,  // measure 2
0000
0000
0000
0000
,  // measure 3
0000
0000
0000
0000
1000
0000
0010
0000
0100
0000
0001
0010
0100
1000
0000
0000
,  // measure 4
0010
1000
0010
0000
0100
0001
0100
0001
0010
0000
0100
0000
1000
0100
1000
0100
,  // measure 5
1000
0001
0000
0000
0000
0100
0010
0100
0010
1000
0001
1000
0001
0010
0100
1000
,  // measure 6
0001
1000
0200
0000
0300
0010
0100
0010
0100
1000
0100
1000
0001
0100
0001
0000
,  // measure 7
0010
0000
0100
1000
0100
1000
0001
0000
MMMM
0000
0100
0000
0010
0000
1000
0000
,  // measure 8
0001
0010
0100
1000
0001
0100
0020
0000
0130
0000
0001
0000
1000
0000
0100
0000
,  // measure 9
0010
0000
0001
0010
0001
0000
1000
0010
1000
0000
0001
1000
0001
0000
0100
0000
,  // measure 10
0010
0000
1000
0000
0001
0010
0001
0010
0100
1000
0100
1000
0001
0000
0100
0010
,  // measure 11
0100
0000
0010
0000
1000
0100
1000
0100
0010
0000
0001
0010
0001
0000
0100
0000
,  // measure 12
0010
0000
1000
0000
1100
0000
1000
0100
1000
0001
0010
0001
0010
0000
0100
0000
,  // measure 13
1000
0000
0000
0000
0010
1000
0010
0000
0100
0000
0001
0100
0001
0000
1000
0000
,  // measure 14
0100
0000
0000
0000
0010
0000
0001
0000
0100
0000
0010
1000
0010
0000
0100
0000
,  // measure 15
0101
0000
0000
1100
0000
0000
1010
0000
0000
0011
0000
0000
1001
0000
1000
0010
,  // measure 16
1000
0000
0010
0100
0010
0000
0100
0000
0001
0000
0010
0000
0100
0000
1000
0000
,  // measure 17
1010
0000
0000
0110
0000
0000
0101
0000
0000
1001
0000
0000
1100
0000
1000
0100
,  // measure 18
1000
0000
0001
0000
0100
0000
0010
1000
0010
0000
0010
2000
0000
0000
3000
0000
,  // measure 19
1010
0000
0000
0011
0000
0000
0101
0000
0000
1100
0000
0000
1001
0000
0001
0100
,  // measure 20
0001
0000
0010
0001
0010
0000
0100
0000
1000
0000
0001
0000
0100
0000
0010
0000
,  // measure 21
1010
0000
0000
0110
0000
0000
0101
0000
0000
0011
0000
0000
0110
0000
0100
0000
,  // measure 22
1000
0000
0001
0010
0001
0000
0010
0100
0010
0000
0100
0000
1001
0000
0001
0100
,  // measure 23
0001
0000
0000
0100
0000
0000
0001
0000
1000
0000
0000
0100
0000
0000
1000
0000
0010
0000
0000
0100
0000
0000
0010
0000
1000
0000
0000
0001
0000
0000
1000
0000
,  // measure 24
0001
0000
0000
0010
0000
0000
0100
0000
1000
0000
0000
0010
0000
0000
0100
0000
0001
0000
0000
0100
0000
0000
0010
0000
1000
0000
0000
0001
0000
0000
0010
0000
,  // measure 25
0100
0000
0000
1000
0000
0000
0000
0000
MMMM
0000
0000
1000
0000
0000
0001
0000
0100
0000
0000
0010
0000
0000
0100
0000
0001
0000
0000
0010
0000
0000
1000
0000
,  // measure 26
0001
0000
0000
0000
0000
0000
0000
0000
0000
0000
0000
0000
0000
0000
0000
0000
0000
0000
0100
0000
0000
0000
0000
0000
0000
0000
0000
0000
0000
0000
0000
0000
0000
0000
0000
0000
0010
0000
0000
0000
0000
0000
0000
0000
0000
0000
0000
0000
0001
0000
0000
0000
0000
0000
0000
0000
0000
0000
0000
0000
0100
0000
0000
0000
0000
0000
0000
0000
0000
0000
0000
0000
0010
0000
0000
0000
0000
0000
0000
0000
0000
0000
0000
0000
1000
0000
0000
0000
0000
0000
0000
0000
0000
0000
0000
0000
0001
0000
0000
0000
0000
0000
0000
0000
0000
0000
0000
0000
0010
0000
0000
0000
0000
0000
0000
0000
0000
0000
0000
0000
0001
0000
0000
0000
0000
0000
0000
0000
0000
0000
0000
0000
0000
0000
0000
0000
0010
0000
0000
0000
0000
0000
0000
0000
0100
0000
0000
0000
0000
0000
0000
0000
0000
0000
0000
0000
0000
0000
0000
0000
1000
0000
0000
0000
0000
0000
0000
0000
0001
0000
0000
0000
0000
0000
0000
0000
0000
0000
0000
0000
0000
0000
0000
0000
0100
0000
0000
0000
0000
0000
0000
0000
,  // measure 27
0010
1000
0010
1000
0000
1000
0001
0010
0001
0100
0001
0100
0000
0100
0010
1000
,  // measure 28
0001
0010
0001
1000
0100
1000
0010
0100
0010
1000
0001
0100
0000
0000
0010
0100
,  // measure 29
0001
0000
0010
0100
1000
0000
1000
0100
0010
0001
0100
0010
0000
0010
0100
0001
,  // measure 30
1000
0100
1000
0010
0100
0010
0100
0001
0100
0001
1000
0001
0000
0010
0100
1000
,  // measure 31
0001
0100
0000
0001
0100
0000
0000
0000
0010
0000
1000
0010
1000
0000
0000
0001
,  // measure 32
0010
0001
0000
0010
0001
0000
0000
1000
0100
0000
1000
0100
1000
0000
0010
0000
,  // measure 33
0100
0001
0000
0100
0001
0000
0100
0010
0100
0000
0010
1000
0010
0000
1000
0001
,  // measure 34
1000
0000
0010
0000
0001
0000
0100
0000
1000
0000
0001
0000
1001
0000
0100
0010
,  // measure 35
0001
0010
0000
0001
0010
0000
0000
0000
0100
0000
1000
0100
1000
0000
0000
1000
,  // measure 36
0001
1000
0000
0001
1000
0000
0000
0001
1000
0000
0010
0100
0010
0000
0100
0000
,  // measure 37
0001
0100
0000
0010
1000
0000
0001
1000
0001
0000
0010
0001
0010
0000
0100
1000
,  // measure 38
0100
1000
0010
0001
0100
1000
1001
0000
;
