#TITLE:しんでしまうとはなさけない!;
#SUBTITLE:;
#ARTIST:じーざすP feat. れをる & kradness;
#TITLETRANSLIT:Death Should Not Have Taken Thee!;
#SUBTITLETRANSLIT:;
#ARTISTTRANSLIT:JesusP feat. Reol & kradness;
#GENRE:;
#CREDIT:;
#BANNER:[Duet] - Death Should Not Have Taken Thee.png;
#BACKGROUND:[Duet] - Death Should Not Have Taken Thee-bg.png;
#LYRICSPATH:;
#CDTITLE:cdtitle.png;
#MUSIC:[Duet] - Death Should Not Have Taken Thee.ogg;
#OFFSET:-0.609;
#SAMPLESTART:72.339;
#SAMPLELENGTH:11.034;
#SELECTABLE:YES;
#BPMS:0.000=174.000
;
#STOPS:
;
#BGCHANGES:15.500=[Duet] - Death Should Not Have Taken Thee.avi=1.000=1=0=0=StretchNoLoop==CrossFade==,
99999=-nosongbg-=1.000=0=0=0 // don't automatically add -songbackground-
;
#KEYSOUNDS:;
#ATTACKS:;

//---------------dance-single - ----------------
#NOTES:
     dance-single:
     :
     Hard:
     9:
     0.747,0.679,0.538,0.205,0.047,526.000,63.000,24.000,0.000,0.000,0.000,0.747,0.679,0.538,0.205,0.047,526.000,63.000,24.000,0.000,0.000,0.000:
0000
0000
0000
0000
,
0000
0000
0000
0000
,
0000
0000
0000
0000
,
0000
0000
0000
0000
,
2000
0000
3000
0001
2000
0000
3000
0001
,
1000
0100
0010
0010
0100
0010
0001
0001
,
0020
0000
0030
0001
0010
0001
1000
0000
,
1001
1010
0110
0101
,
1001
0000
1100
0000
1000
0100
1100
0000
,
1000
0100
0010
0100
0010
0001
1000
0010
,
0100
0000
0110
0000
0100
0001
0101
0000
,
0100
0001
1000
0001
1000
0100
0010
0001
,
1000
0000
1001
0000
0001
1000
1001
0000
,
1000
0010
0100
0010
0100
0001
1000
0100
,
0010
0000
0110
0000
0100
0010
0110
0000
,
0100
0010
0001
0010
0001
1000
0010
0100
,
0001
1000
0100
1100
0000
0000
0000
0000
,
1000
0100
0010
0011
0000
0000
0000
0000
,
0001
1000
0010
1010
0000
0000
0000
0000
,
1010
0110
0101
1001
,
1000
0100
0010
0011
0000
0000
0000
0000
,
0001
1000
0010
1010
0000
0000
0000
0000
,
0010
1000
0001
1001
0000
0000
0000
0000
,
0101
1100
0011
1010
,
1000
0100
0001
0100
1000
0010
0001
0010
,
1000
0100
0010
0001
1000
0010
0100
0100
,
0001
0010
1000
0010
0001
0100
1000
0100
,
0001
0010
1000
0001
0100
1000
0010
0100
,
0001
0100
1000
0100
0001
0010
1000
0010
,
0001
0100
1000
0001
0010
0000
1010
0000
,
1000
0100
0010
0001
1000
0010
0100
0001
,
1000
1010
0011
0110
,
1100
0000
1010
0010
0100
0000
0110
0100
,
0001
0000
0101
0001
1000
0000
1001
0000
,
1000
0100
0001
0100
1000
0000
1100
0100
,
0010
0000
0110
0010
0001
0000
0011
0000
,
0010
0001
1000
0001
1000
1000
0010
0010
,
0100
0010
0100
0001
1000
0000
1001
0000
,
1000
0000
0100
1000
0100
0000
1000
0000
0100
0000
0100
0000
0010
0000
0010
0000
,
0100
0010
0001
1000
0010
0100
0001
1000
,
0100
0000
1100
1000
0001
0000
0101
0001
,
1000
0000
1010
1000
0001
0000
0011
0000
,
0010
0001
0010
0100
0010
0000
0110
0100
,
1000
0000
1100
1000
0001
0000
1001
0000
,
1000
0010
0100
0010
0100
0100
0001
0001
,
0200
0302
2003
3002
,
0013
0100
0010
0100
2000
0000
3100
1000
,
0001
0001
0100
0010
1000
1000
0100
1000
,
0010
1000
0001
0010
0100
0010
0110
0000
,
0100
0010
0001
1000
0010
0100
0110
0000
,
0010
0100
0001
1000
0100
0010
0110
0000
,
0100
0010
0001
1000
0010
0100
0110
0000
,
0101
0000
1100
0000
,
0011
1010
0011
1001
,
1000
0010
0001
0010
1000
0100
0001
0100
,
1000
0010
0100
0001
1000
0000
1001
0000
,
1000
0100
0001
0100
1000
0010
0001
0010
,
1000
0010
0100
0010
0100
0001
2000
0000
,
3001
0010
0100
0010
0200
0000
1300
0100
,
1000
0001
0100
0001
0101
0001
1001
1000
,
0100
1000
0100
0010
0001
0010
0001
1000
,
0010
0010
0100
0100
0001
0001
2000
0000
,
3100
0000
0010
0100
0010
0000
0100
0000
0020
0000
0000
0000
0031
0000
0010
0000
,
0001
1000
0010
0100
0001
0000
0101
0000
,
0100
0001
1000
0001
1000
1000
0100
0100
,
0010
0001
1000
0010
0100
0000
0110
0000
,
0100
0010
0100
0001
1000
0001
1000
0100
,
0010
0001
1000
2002
0000
0000
3003
0000
,
0001
0010
1000
0010
0001
0010
1000
0010
,
0001
0100
1000
0100
0001
0100
1000
0100
,
0001
0100
0010
0100
0010
1000
0001
1000
,
0001
0000
0010
0000
0100
0000
1000
0000
0001
1000
0001
1000
0001
0000
0001
0000
,
1000
0010
0001
0010
1000
0010
0001
0010
,
1000
0100
0001
0100
1000
0100
0001
0100
,
1000
0100
0010
0100
0010
0001
1000
0001
,
1000
0000
0010
0100
0010
0000
1000
0000
0001
0000
1000
0001
1000
0000
0001
0000
,
1000
0010
1000
0001
0010
0001
0010
0100
,
0020
0230
2300
3002
,
0103
0000
0001
0100
0001
0000
0100
0000
0020
0000
0000
0000
0130
0000
0010
0000
,
1000
0000
0001
0000
0010
0000
0100
0000
1000
0100
1000
0100
1000
0000
1000
0000
,
0100
0010
0001
0010
0001
1000
0010
1000
,
0010
0010
0100
0100
0001
0100
0002
0000
,
1003
0000
0001
1000
0001
0000
1000
0000
0100
0000
0100
0000
0010
0000
0010
0000
,
0200
0000
0000
0320
0000
0000
0032
0000
2000
0000
0000
0000
3003
0000
0000
0000
;

//---------------dance-single - ----------------
#NOTES:
     dance-single:
     :
     Medium:
     7:
     0.541,0.500,0.273,0.094,0.004,401.000,32.000,11.000,0.000,0.000,0.000,0.541,0.500,0.273,0.094,0.004,401.000,32.000,11.000,0.000,0.000,0.000: // measure 0
0000
0000
0000
0000
,  // measure 1
0000
0000
0000
0000
,  // measure 2
0000
0000
0000
0000
,  // measure 3
0000
0000
0000
0000
,  // measure 4
2000
3000
0002
0003
,  // measure 5
2000
0000
3020
0000
0130
0010
0100
0001
,  // measure 6
2000
0000
3000
0000
0001
1000
0002
0000
,  // measure 7
1003
0100
0010
0110
,  // measure 8
0001
0000
1001
0000
1000
0010
0000
1010
,  // measure 9
0000
0110
0000
0100
0010
0100
0001
1000
,  // measure 10
0100
0000
1100
0000
0100
0010
0000
0110
,  // measure 11
0000
0011
0000
0010
0001
1000
0010
0100
,  // measure 12
0001
0000
0101
0000
0001
1000
0000
1001
,  // measure 13
0000
1100
0000
1000
0100
0010
0001
1000
,  // measure 14
0001
0000
1001
0000
1000
0010
0000
1010
,  // measure 15
0000
0110
0000
0100
0010
0100
0001
1000
,  // measure 16
0100
0010
0100
0010
0000
0000
0000
0000
,  // measure 17
0001
1000
0001
1000
0000
0000
0000
0000
,  // measure 18
0010
0100
0010
0100
0000
0000
0000
0000
,  // measure 19
0010
0110
1000
1001
,  // measure 20
0001
0010
0001
0010
0000
0000
0000
0000
,  // measure 21
0001
1000
0001
1000
0000
0000
0000
0000
,  // measure 22
0010
1000
0010
1000
0000
0000
0000
0000
,  // measure 23
0010
0110
0100
0110
,  // measure 24
0010
0100
0001
1000
,  // measure 25
0100
1000
0100
0010
0001
0010
0001
0001
,  // measure 26
0010
0001
1000
0010
,  // measure 27
0100
0110
0001
0101
,  // measure 28
1000
0100
0010
0001
,  // measure 29
1000
0010
0100
0001
1000
0000
1001
0000
,  // measure 30
0001
0000
0010
0000
0100
1000
0001
0100
,  // measure 31
0010
1000
0001
1001
,  // measure 32
1000
0000
0100
1000
0100
0000
0010
0100
,  // measure 33
0010
0000
0001
0010
0001
0000
0010
0000
,  // measure 34
0001
0000
1000
0010
1000
0000
0010
0100
,  // measure 35
0010
0000
0100
0001
0100
0000
0001
0000
,  // measure 36
1000
0000
0001
0000
1000
0100
0001
0100
,  // measure 37
1000
0000
0010
0100
0001
0000
0101
0000
,  // measure 38
0001
0000
1000
0000
0010
0001
0010
1000
,  // measure 39
0001
0000
1000
0000
0100
0010
0001
1000
,  // measure 40
0001
0000
0100
0001
0100
0000
0001
1000
,  // measure 41
0001
0000
1000
0010
1000
0000
0001
0000
,  // measure 42
0010
0000
0001
0010
0001
0000
1000
0001
,  // measure 43
1000
0000
0100
1000
0100
0000
0010
0000
,  // measure 44
0001
0000
1000
0000
0010
1000
0010
0100
,  // measure 45
0001
0101
0100
0101
,  // measure 46
0001
0000
1000
0001
1000
0000
1001
0000
,  // measure 47
1000
0100
0010
0100
0010
0001
1000
0001
,  // measure 48
0100
0000
0010
0000
0100
0010
0100
0000
,  // measure 49
0010
0000
1000
0000
0001
1000
0001
0000
,  // measure 50
1000
0000
0100
0000
0010
0100
0010
0000
,  // measure 51
0100
0000
1000
0000
0001
1000
0001
0000
,  // measure 52
1000
0000
0001
0000
,  // measure 53
1000
0001
1000
1001
,  // measure 54
0001
0000
0100
0000
0010
0100
0010
1000
,  // measure 55
0001
1000
2002
3003
,  // measure 56
1000
0000
0001
0000
0010
0001
0010
0100
,  // measure 57
1000
1100
1000
1001
,  // measure 58
0001
0000
0100
0010
0100
0000
0010
1000
,  // measure 59
0010
1000
0001
1001
,  // measure 60
1000
0010
0001
0010
,  // measure 61
1000
0010
1000
0001
0010
0001
1000
0000
,  // measure 62
0001
0010
1000
0010
,  // measure 63
0001
0100
0010
1000
0001
0000
1001
0000
,  // measure 64
1000
0000
0100
0000
0010
0001
0010
0001
,  // measure 65
1000
0010
0100
0001
,  // measure 66
1000
0010
0001
0010
,  // measure 67
1000
0001
2000
0002
0000
0000
3003
0000
,  // measure 68
1000
0000
0100
0000
0001
0100
1000
0000
,  // measure 69
0001
0000
0100
0000
1000
0100
0001
0000
,  // measure 70
1000
0000
0010
0000
0001
0010
1000
0000
,  // measure 71
0001
0000
0010
0000
1000
0010
0001
0000
,  // measure 72
1000
0000
0010
0000
1000
0010
1000
0010
,  // measure 73
1000
0000
0001
0000
1000
0001
1000
0001
,  // measure 74
0010
0000
0001
0000
0010
0001
0010
0001
,  // measure 75
0010
0100
0010
0000
0001
1000
0001
0000
,  // measure 76
0100
0010
0100
0000
0010
1000
0010
0000
,  // measure 77
1000
1000
0001
0001
,  // measure 78
0010
0001
0010
0000
0100
0010
0100
0000
,  // measure 79
1000
0100
1000
0001
1000
0000
1001
0000
,  // measure 80
0001
0000
0100
0000
0010
0100
0010
0000
,  // measure 81
1000
0000
0001
0000
1000
0001
1000
0000
,  // measure 82
0100
0000
0010
0000
0001
1000
0001
0000
,  // measure 83
0100
0000
0000
0100
0000
0000
0010
0000
0020
0000
0000
0000
0030
0000
0000
0000
;

//---------------dance-single - ----------------
#NOTES:
     dance-single:
     :
     Easy:
     5:
     0.364,0.356,0.111,0.196,0.000,263.000,13.000,23.000,0.000,0.000,0.000,0.364,0.356,0.111,0.196,0.000,263.000,13.000,23.000,0.000,0.000,0.000:
0000
0000
0000
0000
,
0000
0000
0000
0000
,
0000
0000
0000
0000
,
0000
0000
0000
0000
,
0001
0000
1000
0000
,
0001
0100
0010
0010
,
0100
0000
0010
1000
,
0001
1000
0001
1000
,
0100
0010
0001
0000
,
0010
0001
1000
0010
,
0100
0001
1000
0000
,
0001
1000
0100
0010
,
0001
1000
0010
0000
,
0100
0010
1000
0001
,
0010
0100
0010
0000
,
0100
0010
0001
1000
,
2020
0000
0000
3030
0000
0000
0000
0000
,
0022
0000
0000
0033
0000
0000
0000
0000
,
0220
0000
0000
0330
0000
0000
0000
0000
,
0100
1000
0001
0100
,
0220
0000
0000
0330
0000
0000
0000
0000
,
2002
0000
0000
3003
0000
0000
0000
0000
,
0220
0000
0000
0330
0000
0000
0000
0000
,
1000
0001
1000
0001
,
1000
0010
0100
0001
,
1000
0100
0010
0010
,
0100
1000
0001
0100
,
0010
0010
0100
0100
,
0010
1000
0001
0010
,
0100
1000
0001
0001
,
1000
0010
0100
0001
,
1001
0000
0000
0000
,
1000
0000
0001
0000
,
1000
0000
0001
1000
,
0100
0010
0100
0000
,
0010
0000
0100
0010
,
0100
1000
0010
0010
,
0100
0100
0001
0001
,
1000
0100
0010
0010
,
0100
1000
0001
0001
,
1000
0000
0001
0000
,
1000
0000
0001
1000
,
0001
0100
0010
0000
,
0100
0000
0010
0100
,
0001
0100
0001
1000
,
0100
0100
0010
0010
,
0001
0010
0001
0001
,
1000
1000
0001
0001
,
1000
0010
1000
0000
,
0001
0010
0001
0000
,
1000
0100
1000
0000
,
0001
0100
0001
0000
,
1000
0000
0001
0000
,
2002
0000
0000
3003
,
1000
0100
0010
0010
,
0001
1000
0020
0030
,
0100
0010
0100
0100
,
0001
0001
1000
1000
,
0100
0010
0010
0001
,
1000
0001
0200
0300
,
0010
0100
0010
1000
,
0001
0001
0001
0001
,
1000
0100
0010
0001
,
1000
1000
2000
3000
,
0010
1000
0010
0100
,
0001
0001
0001
0001
,
1000
1000
0100
0100
,
0220
0000
0000
0330
,
0010
0001
0010
0001
,
1000
0010
1000
0010
,
0100
0010
0100
0010
,
1000
0001
1000
0001
,
1000
0100
1000
0100
,
1000
0001
1000
0001
,
0100
0001
0100
0001
,
0100
0010
1000
0001
,
0010
0010
0100
0100
,
1000
1100
0100
1100
,
1000
1000
0001
0001
,
0100
0001
0202
0303
,
0100
0010
1000
0010
,
1000
1000
0001
0001
,
0010
0100
1000
0001
,
2002
0000
3003
0000
;

//---------------dance-single - ----------------
#NOTES:
     dance-single:
     :
     Beginner:
     2:
     0.151,0.142,0.000,0.000,0.000,124.000,0.000,0.000,0.000,0.000,0.000,0.151,0.142,0.000,0.000,0.000,124.000,0.000,0.000,0.000,0.000,0.000:
0000
0000
0000
0000
,
0000
0000
0000
0000
,
0000
0000
0000
0000
,
0000
0000
0000
0000
,
1000
0000
0000
0000
,
0001
0000
0001
0000
,
0001
0000
0000
0000
,
1000
0000
1000
0000
,
1000
0000
0000
0000
,
0100
0000
0100
0000
,
0100
0000
0000
0000
,
0010
0000
0010
0000
,
0010
0000
0000
0000
,
0001
0000
0001
0000
,
0001
0000
0000
0000
,
1000
0000
1000
0000
,
1000
0000
0000
0000
,
0010
0000
0000
0000
,
0100
0000
0000
0000
,
0001
0000
0001
0000
,
0001
0000
0000
0000
,
1000
0000
0000
0000
,
0100
0000
0000
0000
,
0010
0000
0010
0000
,
0001
0000
0001
0000
,
1000
0000
1000
0000
,
0010
0000
0000
0000
,
0100
0000
0000
0000
,
0001
0000
0001
0000
,
1000
0000
1000
0000
,
0100
0000
0000
0000
,
0010
0000
0000
0000
,
0001
0000
0010
0000
,
0001
0000
0001
0000
,
1000
0000
0010
0000
,
1000
0000
1000
0000
,
0001
0000
0000
0000
,
1000
0000
0000
0000
,
0100
0000
0000
0000
,
0010
0000
0000
0000
,
0001
0000
0100
0000
,
0001
0000
0001
0000
,
1000
0000
0100
0000
,
1000
0000
1000
0000
,
0001
0000
0000
0000
,
1000
0000
0000
0000
,
0010
0000
0000
0000
,
0100
0000
0100
0000
,
0001
0000
0000
0000
,
1000
0000
0000
0000
,
0001
0000
0000
0000
,
1000
0000
0000
0000
,
0100
0000
0010
0000
,
0100
0000
0000
0000
,
0010
0000
0001
0000
,
1000
0000
0000
0000
,
0010
0000
0100
0000
,
0001
0000
0000
0000
,
1000
0000
0001
0000
,
1000
0000
0000
0000
,
0001
0000
0010
0000
,
0100
0000
0000
0000
,
1000
0000
0001
0000
,
0100
0000
0000
0000
,
0010
0000
0100
0000
,
0010
0000
0000
0000
,
1000
0000
0001
0000
,
1000
0000
0000
0000
,
0100
0000
0100
0000
,
0010
0000
0010
0000
,
0001
0000
0001
0000
,
1000
0000
1000
0000
,
0010
0000
0010
0000
,
0100
0000
0100
0000
,
0001
0000
0001
0000
,
1000
0000
1000
0000
,
0100
0000
0100
0000
,
0010
0000
0100
0000
,
0010
0000
0010
0000
,
0001
0000
0010
0000
,
0001
0000
0001
0000
,
1000
0000
0001
0000
,
0100
0000
0100
0000
,
0010
0000
0000
0000
;
