#TITLE:dreamin' feat.Ryu☆;
#SUBTITLE:;
#ARTIST:Mayumi Morinaga(moimoi);
#TITLETRANSLIT:;
#SUBTITLETRANSLIT:;
#ARTISTTRANSLIT:;
#GENRE:;
#CREDIT:;
#MENUCOLOR:;
#METERTYPE:DDR;
#BANNER:[Break] - dreamin' feat.Ryu.png;
#BACKGROUND:[Break] - dreamin' feat.Ryu-bg.png;
#LYRICSPATH:;
#CDTITLE:./CDTITLES/SOUND VOLTEX.PNG;
#MUSIC:[Break] - dreamin' feat.Ryu.mp3;
#OFFSET:-0.105;
#SAMPLESTART:78.560;
#SAMPLELENGTH:15.000;
#SELECTABLE:YES;
#LISTSORT:;
#BPMS:0.000=156.000;
#STOPS:;
#BGCHANGES:;
#ATTACKS:;

//---------------dance-single - ----------------
#NOTES:
     dance-single:
     :
     Beginner:
     1:
     0.091,0.124,0.037,0.000,0.000:
0000
0000
0000
0000
,
0000
0000
0000
0000
,
0000
0000
0000
0000
,
0000
0000
0000
0000
,
0000
0000
0000
0000
,
0010
0000
0000
0000
,
1000
0000
0000
0000
,
0001
0000
0000
0000
,
1001
0000
0000
0000
,
1000
0000
0000
0000
,
1000
0000
0000
0000
,
0001
0000
0000
0000
,
0001
0000
0000
0000
,
0010
0000
0000
0000
,
0010
0000
0000
0000
,
0100
0000
0000
0000
,
0100
0000
0000
0000
,
1000
0000
0000
0000
,
1000
0000
0000
0000
,
0001
0000
0000
0000
,
0001
0000
0000
0000
,
0010
0000
0000
0000
,
0010
0000
0000
0000
,
0100
0000
0000
0000
,
0100
0000
0000
0000
,
1001
0000
0000
0000
,
0000
0000
0000
0000
,
0000
0000
0000
0000
,
0000
0000
0000
0000
,
0010
0000
0000
0000
,
0000
0000
0000
0000
,
0100
0000
0000
0000
,
0000
0000
0000
0000
,
0001
0000
0000
0000
,
0000
0000
0000
0000
,
0000
0000
0000
0000
,
0000
0000
0000
0000
,
1000
0000
0000
0000
,
0001
0000
0000
0000
,
0100
0000
0010
0000
,
0100
0000
0100
0000
,
1001
0000
0000
0000
,
0000
0000
0000
0000
,
1000
0000
1000
0000
,
1000
0000
0000
0000
,
0001
0000
0001
0000
,
0001
0000
0000
0000
,
0010
0000
0010
0000
,
0010
0000
0000
0000
,
0100
0000
0100
0000
,
0100
0000
0000
0000
,
1000
0000
0000
0000
,
0001
0000
0000
0100
,
0100
0000
0000
0000
,
0010
0000
0000
0000
,
0100
0000
0000
0000
,
0001
0000
0000
1000
,
1000
0000
0000
0000
,
0001
0000
0000
0000
,
1000
0000
0000
0100
,
0100
0000
0000
0000
,
0010
0000
0000
0001
,
0001
0000
0000
0000
,
0001
0000
0000
0100
,
0100
0000
0000
0000
,
0010
0000
0000
0000
,
1000
0000
0000
0000
,
1001
0000
0000
0000
;

//---------------dance-single - ----------------
#NOTES:
     dance-single:
     :
     Easy:
     3:
     0.191,0.259,0.093,0.065,0.000:
0000
0000
0000
0000
,
0000
0000
0000
0000
,
0000
0000
0000
0000
,
0000
0000
0000
0000
,
0000
0000
0000
0000
,
2000
0000
0000
3000
,
0002
0000
0000
0003
,
0200
0000
0000
0300
,
0010
0000
0000
0000
,
1000
1000
1000
0000
,
0001
0001
0001
0000
,
0100
0100
0100
0000
,
0010
0010
0010
0000
,
1000
0001
0001
0000
,
0001
1000
1000
0000
,
0010
0100
0100
0000
,
0001
0000
1000
0000
,
0001
0000
0010
0100
,
1000
0000
1000
0000
,
1000
0000
0010
0100
,
0001
0000
0001
1001
,
1000
0000
1000
0010
,
0100
0000
0100
0000
,
0001
1000
0000
1000
,
0000
1000
0000
1001
,
0001
0000
0000
0000
,
0000
0000
0000
0000
,
0010
0000
0000
0000
,
0100
0100
0100
0000
,
1000
0000
0000
0000
,
0000
0000
0000
0000
,
0010
0000
0000
0000
,
0000
0000
0000
0000
,
0220
0000
0000
0000
,
0000
0000
0000
0330
,
0001
0000
0000
0000
,
1000
0000
0001
0000
,
1001
0000
0000
0000
,
0110
0000
0000
0000
,
1000
0000
0001
0000
,
0100
0100
0100
0100
,
0100
0000
0000
0000
,
0110
0000
0000
0000
,
1001
0000
0001
0000
,
1000
0000
1000
0000
,
0100
0000
0100
0000
,
0010
0010
0001
0000
,
0001
0000
0001
0000
,
0100
0000
0100
0000
,
0010
0000
0010
0000
,
1000
0000
0000
1001
,
1000
0000
0100
0100
,
0100
0000
1000
0000
,
0001
0000
0100
0000
,
0100
0100
0001
0000
,
1000
0000
0001
0000
,
1000
1000
1000
0000
,
0001
0000
1000
0000
,
0001
0001
0010
0000
,
1001
0000
0100
0000
,
0010
0100
0100
0000
,
0001
0000
1000
0000
,
0100
0010
0010
0000
,
0001
0000
0010
0000
,
0100
1000
0100
0000
,
1000
0000
0010
0000
,
0100
0000
0001
1000
,
2002
0000
0000
0000
,
0000
0000
0000
0000
,
0000
0000
0000
3003
;

//---------------dance-single - ----------------
#NOTES:
     dance-single:
     :
     Medium:
     6:
     0.363,0.388,0.306,0.297,0.000:
0000
0000
0000
0000
,
0000
0000
0000
0000
,
0000
0000
0000
0000
,
0000
0000
0000
0000
,
0000
0000
0000
0000
,
0002
0000
0000
0003
,
2000
0000
0000
3000
,
0020
0030
0200
0300
,
2002
0000
0000
3003
,
1000
0100
0100
1001
,
0001
0000
0001
0100
0001
0000
1001
0000
,
0001
0010
0010
1001
,
1000
0000
1000
0100
1000
0000
0110
0000
,
1000
0010
0010
1001
,
0001
0000
0001
0100
0001
0000
0101
0000
,
1000
0100
0010
1001
,
0020
0000
0100
0130
,
0001
1000
0010
1001
,
1000
0000
0100
0000
0010
0001
0002
0000
,
0103
0010
0100
1001
,
0100
0100
0100
1010
,
0001
0000
0010
0100
0100
0000
1001
0000
,
1000
0001
0100
0012
,
1003
0001
0000
1001
,
0000
0110
2000
3010
,
1001
0000
0000
0000
,
0000
0000
0010
0010
,
0200
0300
0000
0000
,
0001
1000
0002
0000
,
1003
0000
0000
0000
,
0000
0000
1000
0100
,
0020
0000
0032
0000
,
1003
0000
0000
0000
,
0220
0000
0000
0000
,
0000
0000
0000
0330
,
0002
0000
0000
0000
,
2000
0000
0000
3003
,
1001
0000
0000
0100
,
1001
0000
0000
0010
,
1001
0000
1100
0000
,
0101
0011
1010
0110
,
1001
0000
0000
0000
0000
0001
0000
0001
,
0000
0000
0000
0000
0000
1000
0000
1000
,
0010
0000
0100
0000
0001
1000
0100
0000
,
1000
0000
0100
0000
0010
0001
0100
0000
,
0001
0000
1000
0000
0010
1000
0100
0000
,
1000
0000
0100
0010
0001
0000
0100
0000
,
0001
0000
1000
0000
0010
1000
0010
0000
,
0100
0000
0001
0000
0010
0001
0010
0000
,
0001
0000
1000
0000
0100
0010
0001
0000
,
0110
0000
0000
1001
,
0020
0000
1030
0000
0001
1000
0100
0000
,
1000
0100
0010
0001
,
2000
0000
3010
0000
0100
0001
0100
0000
,
0020
0130
0002
0003
,
2000
0000
3100
0000
0010
0001
0010
0000
,
0001
0100
0010
1000
,
0002
1003
2000
3100
,
0020
0130
2000
3000
,
0010
0000
0010
0100
0001
0000
0110
0000
,
0001
0000
0001
1000
0200
0000
0300
0000
,
1000
0000
1000
0001
0100
0000
0110
0000
,
0010
0000
0010
0100
0002
0000
0003
0000
,
0001
0000
0001
0010
0100
0000
0011
0000
,
1000
0000
1000
0100
0020
0000
0030
0000
,
0100
0000
0100
1000
0001
0000
0110
0000
,
0001
1000
0010
0100
,
2002
0000
0000
0000
,
0000
0000
0000
0000
,
0000
0000
0000
3003
;

//---------------dance-single - ----------------
#NOTES:
     dance-single:
     :
     Hard:
     7:
     0.422,0.517,0.417,0.130,0.005: // measure 1
0000
0000
0000
0000
,  // measure 2
0000
0000
0000
0000
,  // measure 3
0000
0000
0000
0000
,  // measure 4
0000
0000
0000
0000
,  // measure 5
0000
0000
0000
0000
,  // measure 6
0020
0000
0000
0030
,  // measure 7
0200
0000
0000
0300
,  // measure 8
0002
0003
2000
3000
,  // measure 9
2002
0000
0000
3003
,  // measure 10
0010
0000
0010
1000
0100
0000
0011
0000
,  // measure 11
0100
0000
0100
0001
0010
0000
1100
0000
,  // measure 12
1000
0000
0100
1000
0010
0000
0101
0000
,  // measure 13
0001
0010
0001
0100
0001
1000
0001
0000
,  // measure 14
1001
0000
0010
1000
0100
0000
1010
0000
,  // measure 15
0100
0000
0100
0001
0010
0000
0011
0000
,  // measure 16
1000
0000
0001
1000
0100
0000
1001
0000
,  // measure 17
1000
0010
1000
0100
1000
0001
1000
0000
,  // measure 18
0001
0100
0100
0010
0100
0000
1010
0000
,  // measure 19
0100
0001
0010
0001
1000
0001
1000
0000
,  // measure 20
0001
0010
0010
0100
0010
0000
0101
0000
,  // measure 21
0010
1000
0100
1001
,  // measure 22
0010
1000
1000
0100
1000
0000
0011
0000
,  // measure 23
1000
0100
0010
0001
0100
0000
1001
0000
,  // measure 24
0010
1001
0100
1001
,  // measure 25
0010
0000
0100
0010
0001
0000
0110
0000
,  // measure 26
1001
0000
0000
0000
,  // measure 27
0000
0000
0000
0000
,  // measure 28
0000
0000
0000
0000
,  // measure 29
0000
0000
0000
0000
,  // measure 30
0000
0000
0000
0000
,  // measure 31
0000
0000
0000
0000
,  // measure 32
0000
0000
0000
0000
,  // measure 33
0000
0000
0000
0000
,  // measure 34
0020
0000
0000
0030
,  // measure 35
2000
0000
0000
3000
,  // measure 36
0002
0000
0000
0003
,  // measure 37
0200
0000
0000
0300
,  // measure 38
0110
0000
0001
0001
,  // measure 39
0110
0000
1000
1000
,  // measure 40
1001
0000
0110
0000
,  // measure 41
1001
1100
1001
0101
,  // measure 42
0020
0000
0030
0000
1000
0001
1000
0001
,  // measure 43
0200
0000
0300
0000
0010
0100
0010
0100
,  // measure 44
0001
0000
0010
0100
1000
0000
1000
0000
,  // measure 45
0100
0010
0001
0100
0010
1000
0100
0000
,  // measure 46
1000
0000
0100
0010
0001
0000
0001
0000
,  // measure 47
0100
0001
1000
0010
0001
0010
0100
0000
,  // measure 48
0001
0000
0100
0001
0010
0000
0010
0000
,  // measure 49
0100
1000
0010
1000
0001
1000
0100
0000
,  // measure 50
1000
0000
0001
0010
0100
0000
0100
0000
,  // measure 51
1010
0100
0100
0110
,  // measure 52
1001
0000
0010
1000
0100
0000
0011
0000
,  // measure 53
1000
0100
0010
0001
0100
0010
0001
0000
,  // measure 54
0100
0000
0010
0001
0100
0000
1010
0000
,  // measure 55
0001
1000
0001
0010
0001
0100
0001
0000
,  // measure 56
1100
0000
0010
0001
0100
0000
1010
0000
,  // measure 57
0001
0010
0100
1000
0010
0100
1000
0000
,  // measure 58
1100
0000
0100
0001
0010
0000
0011
0000
,  // measure 59
1000
0010
1000
0001
1000
0100
0010
0000
,  // measure 60
0101
0000
0010
1000
0100
0000
1010
0000
,  // measure 61
1001
0000
0100
0001
1000
0001
0010
0000
,  // measure 62
1100
0000
0010
0001
0100
0000
1010
0000
,  // measure 63
0100
0010
0100
0001
1000
0001
0100
0000
,  // measure 64
0011
0000
0100
1000
0010
0000
1100
0000
,  // measure 65
1001
0000
0001
1000
0100
1000
0010
0000
,  // measure 66
0110
0000
0100
0001
0010
0000
0101
0000
,  // measure 67
0001
0000
0010
0000
0000
0000
0010
0000
0000
0000
0010
0000
0100
0010
0100
0000
,  // measure 68
2002
0000
0000
0000
,  // measure 69
0000
0000
0000
0000
,  // measure 70
0000
0000
0000
3003
;

//---------------dance-single - ----------------
#NOTES:
     dance-single:
     :
     Challenge:
     7:
     0.372,0.453,0.130,0.185,0.000:
0000
0000
0000
0000
,
0000
0000
0000
0000
,
0000
0000
0000
0000
,
0000
0000
0000
0000
,
0000
0000
0000
0000
,
0020
0000
0000
0030
,
0200
0000
0000
0300
,
0002
0003
2000
3000
,
0210
0000
0001
0301
,
1000
0100
0010
0100
1000
0000
MMMM
0000
,
0001
0000
0001
0100
0010
0000
MMMM
0000
,
0001
0010
0100
0010
0001
0000
MMMM
0000
,
1000
0000
1000
0010
0100
0000
MMMM
0000
,
0010
1000
0100
1000
0010
0000
MMMM
0000
,
0001
0000
0001
0100
0010
0000
MMMM
0000
,
1000
0100
0001
0100
1000
0000
MMMM
0000
,
0001
0010
0000
0010
0001
1000
0010
0000
,
1000
0100
0100
1000
0001
0000
MMMM
0000
,
0001
0100
0100
0010
0100
0000
MMMM
0000
,
1000
0100
0010
0001
0100
0000
MMMM
0000
,
0100
0100
0100
MMMM
,
0010
1000
0001
0010
0100
0000
MMMM
0000
,
1000
0010
0010
1000
0100
0000
MMMM
0000
,
0001
MMMM
1000
MMMM
,
0010
0000
0100
0001
1000
0000
MMMM
0000
,
2002
0000
0000
0000
,
0000
0000
0000
3003
,
0020
0000
0000
0000
,
0100
0100
0130
0000
,
0002
0000
0000
0000
,
0000
0000
1000
1003
,
0020
0000
2030
0000
,
3001
0000
0000
0000
,
2002
0000
0000
3003
,
0200
0000
0000
0300
,
0020
0000
0000
0030
,
2000
0000
0001
3001
,
1001
0000
0010
0000
1000
0100
0001
0000
,
1001
0000
0010
0000
0001
0100
1000
0000
,
0110
0001
0110
1000
,
1100
1010
0101
0011
,
1001
1000
0000
1000
0000
1000
0000
MMMM
,
0000
0000
0000
0000
0000
0010
0010
0010
,
1000
0001
0100
0010
0100
0000
0100
0000
,
0001
0010
0100
0010
0001
1000
0001
0000
,
1000
0100
1000
0000
0001
0100
0001
0000
,
1000
0010
0100
0010
1000
0001
1000
0000
,
0001
0010
0001
0100
0010
0000
0010
0000
,
1000
0010
1000
0100
0010
0000
0010
0000
,
0100
1000
0100
0000
0010
0001
0010
0000
,
1001
0000
1000
0001
1000
0000
MMMM
0000
,
0010
1000
0010
0100
0001
0000
MMMM
0000
,
0001
0010
0100
1000
0010
0000
MMMM
0000
,
0020
0130
0002
1003
,
0001
0100
0000
0100
0000
0100
MMMM
0000
,
1000
0100
0010
0001
0100
0000
MMMM
0000
,
0001
0010
0100
1000
0010
0000
MMMM
0000
,
1000
0100
1000
0000
0001
0100
MMMM
0000
,
1000
0010
0000
0010
0000
0010
MMMM
0000
,
0010
0100
0001
0010
0100
0000
MMMM
0000
,
1000
0000
1000
0100
0010
0000
MMMM
0000
,
1000
0010
0100
0001
0010
0000
MMMM
0000
,
0001
0100
0001
0100
0001
1000
MMMM
0000
,
1000
0100
0001
0010
1000
0000
MMMM
0000
,
0001
0000
0001
0100
1000
0000
MMMM
0000
,
0001
0010
1000
0100
0001
0000
MMMM
0000
,
0010
0100
0001
0100
1000
0100
MMMM
0000
,
2002
0000
0000
0000
,
0000
0000
0000
0000
,
0000
0000
0000
3003
;
