#TITLE:Y&Co. is dead or alive;
#SUBTITLE:;
#ARTIST:Y&Co.;
#TITLETRANSLIT:;
#SUBTITLETRANSLIT:;
#ARTISTTRANSLIT:;
#GENRE:;
#CREDIT:;
#BANNER:y&coidoa-bn.png;
#BACKGROUND:y&coidoa-bg.png;
#LYRICSPATH:;
#CDTITLE:;
#MUSIC:Y&Co. is dead or alive.mp3;
#OFFSET:-1.705000;
#SAMPLESTART:6.570517;
#SAMPLELENGTH:13.241379;
#SELECTABLE:YES;
#BPMS:0.000000=145.000000
,193.000000=153.000000
,194.000000=153.999985
,195.000000=162.999969
,196.000000=166.999969
,198.000000=175.000000
,199.000000=177.999954
,200.000000=180.999908
,201.000000=188.000000
,202.000000=194.000000
,203.000000=204.000000
,205.000000=218.000000
,206.000000=220.999954
,207.000000=240.000000
,208.000000=246.000000
,209.000000=268.000000
,210.000000=265.000000
,211.000000=290.000000
,212.000000=294.000122
,214.000000=300.000000
,215.000000=325.000000
,217.000000=375.000000
,218.000000=350.000000
,219.000000=392.000122
,220.000000=420.000000
,222.000000=388.000000
,223.000000=510.000000
,224.000000=468.000000
,228.000000=540.000000
,236.000000=694.000000
,238.000000=822.000000
,240.000000=840.000000
,244.000000=876.000000
,288.000000=145.000000
;
#STOPS:
;
#BGCHANGES:0.000=Y&Co. is dead or alive.avi=1.000=1=0=0=StretchNoLoop==CrossFade==,
99999=-nosongbg-=1.000=0=0=0 // don't automatically add -songbackground-
;
#KEYSOUNDS:;
#ATTACKS:;

//---------------dance-single - ----------------
#NOTES:
     dance-single:
     :
     Beginner:
     2:
     0.105615,0.144510,0.016249,0.016249,0.004062,87.000000,2.000000,2.000000,0.000000,0.000000,0.000000,0.105615,0.144510,0.016249,0.016249,0.004062,87.000000,2.000000,2.000000,0.000000,0.000000,0.000000:
0000
0000
0000
0000
,
0000
0000
0000
0000
,
0000
0000
0000
0000
,
0000
0000
0000
0000
,
1000
0000
1000
0000
,
0001
0000
0000
0000
,
0001
0000
0001
0000
,
1000
0000
0000
0000
,
0010
0000
0010
0000
,
0100
0000
0000
0000
,
0100
0000
0100
0000
,
0010
0000
0000
0000
,
1000
0000
0001
0000
,
1000
0000
0000
0000
,
0001
0000
1000
0000
,
0001
0000
0000
0000
,
0010
0000
0100
0000
,
0010
0000
0000
0000
,
0100
0000
0010
0000
,
0100
0000
0000
0000
,
1000
0000
0000
0000
,
0001
0000
0000
0000
,
0100
0000
0000
0000
,
0010
0000
0000
0000
,
1000
0000
1000
0000
,
1000
0000
0000
0000
,
0001
0000
0001
0000
,
0001
0000
0000
0000
,
0100
0000
0100
0000
,
0100
0000
0000
0000
,
0010
0000
0010
0000
,
0010
0000
0000
0000
,
1000
0000
0000
0000
,
0100
0000
0000
0000
,
0010
0000
0000
0000
,
0001
0000
0000
0000
,
0100
0000
0000
0000
,
0010
0000
0000
0000
,
1000
0000
0000
0000
,
0001
0000
0000
0000
,
0010
0000
0010
0000
,
0010
0000
0000
0000
,
0100
0000
0100
0000
,
0100
0000
0000
0000
,
1000
0000
1000
0000
,
1000
0000
0000
0000
,
0001
0000
0001
0000
,
0001
0000
0000
0000
,
2002
0000
0000
0000
,
0000
0000
0000
0000
,
0000
0000
0000
0000
,
0000
0000
0000
0000
,
3003
0000
0000
0000
,
0000
0000
0000
0000
,
0000
0000
0000
0000
,
0000
0000
0000
0000
,
0000
0000
0000
0000
,
0000
0000
0000
0000
,
0000
0000
0000
0000
,
0000
0000
0000
0000
,
0000
0000
0000
0000
,
0000
0000
0000
0000
,
0000
0000
0000
0000
,
0000
0000
0000
0000
,
0000
0000
0000
0000
,
0000
0000
0000
0000
,
0000
0000
0000
0000
,
0000
0000
0000
0000
,
0000
0000
0000
0000
,
0000
0000
0000
0000
,
0000
0000
0000
0000
,
0000
0000
0000
0000
,
0000
0000
0000
0000
,
1000
0000
0001
0000
,
1000
0000
0000
0000
,
0010
0000
0100
0000
,
0010
0000
0000
0000
,
1000
0000
0010
0000
,
1000
0000
0000
0000
,
0001
0000
0100
0000
,
0001
0000
0000
0000
,
0010
0000
0100
0000
,
0010
0000
0000
0000
,
0001
0000
1000
0000
,
0001
0000
0000
0000
,
0100
0000
0010
0000
,
0100
0000
0010
0000
,
1000
0000
0001
0000
,
1000
0000
0000
0000
0000
0000
0000
0000
0000
0000
0000
0000
0000
0000
0000
1001
;

//---------------dance-single - ----------------
#NOTES:
     dance-single:
     :
     Easy:
     5:
     0.256495,0.362545,0.121864,0.032497,0.004062,202.000000,15.000000,4.000000,0.000000,0.000000,0.000000,0.256495,0.362545,0.121864,0.032497,0.004062,202.000000,15.000000,4.000000,0.000000,0.000000,0.000000:
0000
0000
0000
0000
,
0000
0000
0000
0000
,
0000
0000
0000
0000
,
0000
0000
0000
0000
,
0010
0010
0100
0100
,
0010
0010
0100
0100
,
0001
0001
1000
1000
,
0001
0001
1000
1000
,
0001
0010
0100
1000
,
0001
0100
0010
1000
,
0010
0100
0001
1000
,
0000
0000
0000
0000
,
0001
0010
0001
0011
,
0100
1000
0100
0100
,
1000
0010
1000
1010
,
0010
0100
0010
0000
,
1000
0001
1000
1001
,
0100
0010
0100
0100
,
1000
0100
1000
1100
,
1000
1000
0001
0000
,
0100
0010
0100
0000
,
0001
0100
0001
0000
,
1000
0100
1000
0000
,
0010
0100
0010
0000
,
1000
0100
1000
1000
,
0001
0100
0001
0001
,
0010
0001
0010
0010
,
1000
0010
1000
1000
,
0010
0001
0100
1000
,
0001
0010
1000
1100
,
0001
0010
1000
0010
,
0100
1000
0001
1001
,
0010
0000
0000
0000
,
0100
0000
0000
0000
,
0001
0000
0000
0000
,
1000
0000
0000
0000
,
0100
0000
0100
0000
,
0010
0000
0010
0000
,
0001
0000
0001
0000
,
1000
0000
0000
0000
,
0010
1000
0010
0010
,
1000
0010
1000
0000
,
0001
0100
0001
0000
,
0100
0001
0100
0000
,
0001
0010
0001
0001
,
0010
0001
0010
0000
,
0100
1000
0100
0100
,
1000
0000
0000
0000
,
1001
0000
0000
0000
,
1000
0000
0000
0000
,
0001
0000
0000
0000
,
1000
0000
0000
0000
,
0002
0000
0000
0000
,
0000
0000
0000
0000
,
0000
0000
0000
0000
,
0000
0000
0000
0000
,
0000
0000
0000
0000
,
0000
0000
0000
0000
,
0000
0000
0000
0000
,
0000
0000
0000
0000
,
0000
0000
0000
0000
,
0000
0000
0000
0000
,
0000
0000
0000
0000
,
0000
0000
0000
0000
,
0000
0000
0000
0000
,
0000
0000
0000
0000
,
0000
0000
0000
0000
,
0000
0000
0000
0000
,
0000
0000
0000
0000
,
0000
0000
0000
0000
,
0000
0000
0000
0000
,
0000
0000
0000
0000
,
0003
0000
0000
1001
,
1000
1000
0001
0001
,
1000
1000
0001
0001
,
0100
0010
1000
0001
,
0010
0100
1000
0000
,
0010
0010
0100
0100
,
0010
0010
0100
0100
,
0001
0010
0100
1000
,
0010
0000
0000
0000
,
0100
0010
0100
0110
,
1000
0001
1000
1001
,
0001
0010
0001
0011
,
0100
1000
0100
1100
,
1000
0001
0100
0010
,
1000
0001
0010
0100
,
1000
1100
0001
0011
,
2000
0000
0000
0000
0000
0000
0000
0000
3000
0000
0000
0000
0000
0000
0000
2002
,
0000
3003
0000
0000
;

//---------------dance-single - ----------------
#NOTES:
     dance-single:
     :
     Medium:
     6:
     0.357468,0.435055,0.081243,0.064994,0.004062,290.000000,10.000000,8.000000,0.000000,0.000000,0.000000,0.357468,0.435055,0.081243,0.064994,0.004062,290.000000,10.000000,8.000000,0.000000,0.000000,0.000000:
0000
0000
0000
0000
,
0000
0000
0000
0000
,
0000
0000
0000
0000
,
0000
0000
0000
0000
,
1000
0000
0100
0000
1000
0001
0010
0000
,
0001
0000
1000
0000
0010
1000
0001
0000
,
0100
0000
0010
0000
0100
0001
1000
0000
,
0100
0000
0010
0000
0001
1000
0100
0000
,
1000
0000
0010
0000
0100
0001
0010
0000
,
0001
0000
1000
0000
0010
1000
0100
0000
,
0010
0000
0100
0000
1000
0001
0010
0000
,
0002
0000
0000
0000
,
1003
0000
1100
0000
1000
0001
0100
0000
,
0010
0000
0110
0000
0100
0001
0010
0000
,
0001
0000
0011
0000
0100
1000
0001
0000
,
0100
0000
1010
0000
0010
0100
0001
0000
,
0010
0000
0011
0000
0100
1000
0010
0000
,
0100
0000
1001
0000
0100
0001
0100
0000
,
1000
0000
1100
0000
0010
0100
0001
0000
,
0010
0000
1001
0000
1000
0010
1000
0000
,
0001
0010
0100
1000
,
0001
0000
0100
0000
0010
0100
0010
0000
,
1000
0100
0010
0001
,
2000
0000
0001
3001
,
0001
0000
1000
0000
0001
1000
0001
0000
,
0100
0000
0010
0000
0100
0010
0100
0000
,
0010
0000
1000
0000
0010
1000
0010
0000
,
1000
0000
0001
0000
1000
0001
1000
0000
,
0001
0000
0010
0000
0001
0010
0001
0000
,
0100
0000
0010
0000
0100
0010
0100
0000
,
0001
0000
0100
0000
0001
0100
0001
0000
,
1000
0010
1000
0010
,
0100
0100
0100
0100
,
0001
0001
0001
0001
,
1000
1000
1000
1000
,
0100
0100
0100
0100
,
0010
0001
0010
0001
,
1000
0100
1000
0100
,
0010
0100
0010
0100
,
2000
0000
0000
3000
,
0001
0000
0100
0000
0010
1000
0100
0000
,
1000
0000
0100
0000
0010
0001
0100
0000
,
0010
0000
0100
0000
0001
1000
0100
0000
,
0010
0000
0100
0000
1000
0001
0010
0000
,
0001
0000
0010
0000
0100
1000
0010
0000
,
0100
0000
0001
0000
0010
0100
1000
0000
,
0010
0000
1000
0000
0001
0010
0100
0000
,
2000
0000
0000
3001
,
1000
0000
0001
0000
,
1000
0000
0001
0000
,
1000
0000
0001
0000
,
1000
0000
0001
0000
,
2000
0000
0000
0000
,
0000
0000
0000
0000
,
0000
0000
0000
0000
,
0000
0000
0000
0000
,
0000
0000
0000
0000
,
0000
0000
0000
0000
,
0000
0000
0000
0000
,
0000
0000
0000
0000
,
0000
0000
0000
0000
,
0000
0000
0000
0000
,
0000
0000
0000
0000
,
0000
0000
0000
0000
,
0000
0000
0000
0000
,
0000
0000
0000
0000
,
0000
0000
0000
0000
,
0000
0000
0000
0000
,
0000
0000
0000
0000
,
0000
0000
0000
0000
,
0000
0000
0000
0000
,
0000
0000
0000
0000
,
3000
0001
1000
1001
,
1000
0000
0010
0000
0100
1000
0001
0000
,
0010
0000
0100
0000
0001
0010
1000
0000
,
0001
0000
0100
0000
0010
0001
0100
0000
,
1000
0000
0100
0000
0010
1000
0001
0000
,
0010
0000
0100
0000
1000
0001
0100
0000
,
0010
0000
0100
0000
0001
1000
0100
0000
,
0010
0000
0001
0000
0010
0100
1000
0000
,
0002
1000
1000
1003
,
0001
0000
1000
0000
0001
1000
0100
1000
,
0001
0000
0100
0000
0010
0100
0001
0000
,
1000
0000
0100
0000
0010
0001
1000
0001
,
0010
0000
0100
0000
1000
0010
0100
0000
,
0001
0100
0001
0000
0100
0001
0100
0000
,
0010
1000
0010
0000
1000
0010
1000
0000
,
0001
0010
0001
0000
1000
0100
1000
0000
,
0001
0000
0000
0000
0000
0000
0000
0000
0000
0000
0000
0000
0000
0000
0000
2002
,
0000
3003
0000
0000
;

//---------------dance-single - ----------------
#NOTES:
     dance-single:
     :
     Hard:
     9:
     0.550129,0.761346,0.162485,0.064994,0.337157,446.000000,20.000000,8.000000,0.000000,0.000000,0.000000,0.550129,0.761346,0.162485,0.064994,0.337157,446.000000,20.000000,8.000000,0.000000,0.000000,0.000000:
0000
0000
0000
0000
,
0000
0000
0000
0000
,
0000
0000
0000
0000
,
0000
0000
0000
0000
,
0010
0000
1000
0000
0010
0000
0100
0001
0000
1000
0000
0000
0100
0000
0000
0000
,
0010
0000
0001
0000
0010
0000
0100
1000
0000
0100
0000
0000
0010
0000
0000
0000
,
0001
0000
0100
0000
0010
0000
1000
0100
0000
1000
0000
0000
0001
0000
0000
0000
,
0100
0000
0010
0000
1000
0000
0010
0100
0000
0001
0000
0000
0010
0000
0000
0000
,
0100
0000
1000
0000
0001
0000
1000
0100
0000
0010
0000
0000
0001
0000
0000
0000
,
0100
0000
0010
0000
1000
0000
0010
0100
0000
0001
0000
0000
0010
0000
0000
0000
,
0100
0000
1000
0000
0001
0000
0100
0010
0000
0100
0000
0000
0001
0000
0000
0000
,
2002
0000
0000
3003
,
0001
0000
0000
0010
0000
0000
1100
0000
1000
0000
0010
0000
0100
0000
0000
0000
,
0001
0000
0000
0100
0000
0000
1010
0000
0010
0000
0100
0000
0001
0000
0000
0000
,
1000
0000
0000
0100
0000
0000
0011
0000
0010
0000
0100
0000
1000
0000
0000
0000
,
0010
0000
0000
1000
0000
0000
0101
0000
0001
0000
0010
0000
0100
0000
0000
0000
,
1000
0000
0000
0010
0000
0000
1010
0000
0010
0000
0100
0000
0001
0000
0000
0000
,
0010
0000
0000
0100
0000
0000
0110
0000
0010
0000
0001
0000
1000
0000
0000
0000
,
0010
0000
0000
0100
0000
0000
0101
0000
0001
0000
1000
0000
0100
0000
0000
0000
,
0010
0000
0000
0001
0000
0000
1001
0000
1000
0000
0010
0000
0100
0000
0000
0000
,
0001
0000
0100
0000
0010
1000
0100
1000
,
0001
0000
0100
0000
0010
0100
0001
0000
,
0010
0000
0100
0000
1000
0010
1000
0001
,
0010
0100
1000
0001
,
1000
0000
0000
0001
0000
0000
1001
0000
0100
0000
0001
0000
1000
0000
0000
0000
,
0010
0001
1000
0010
0001
1000
0100
0001
,
1000
0100
0001
1000
0010
0100
1000
0010
,
0100
1000
0001
0010
0100
0001
0010
0100
,
1000
0000
0000
0000
1010
0000
0000
0100
0000
0000
0001
0000
1000
0000
0100
0000
,
0010
0000
0000
0000
0011
0000
0000
0100
0000
1000
0100
0000
0010
0000
0001
0000
,
0100
0000
0000
0000
0110
0000
0000
0010
0000
0000
1000
0000
0001
0000
0010
0000
,
0100
0000
0000
0000
0110
0000
0000
0010
0000
0001
1000
0000
0001
0000
0100
0000
,
0010
0000
1000
0000
0010
1000
0000
0010
1000
0000
0010
1000
0000
0010
1000
0000
,
0001
0000
0010
0000
0001
0010
0000
0001
0010
0000
0001
0010
0000
0001
0010
0001
,
0010
0000
0100
0000
0010
0100
0000
0010
0100
0000
0010
0100
0000
0010
0100
0000
,
1000
0000
0001
0000
1000
0001
0000
1000
0001
0000
1000
0001
0000
1000
0001
1000
,
0100
0000
1000
0000
0100
1000
0000
0100
1000
0000
0100
1000
0000
0100
1000
0000
,
0010
0000
0100
0000
0010
0100
0000
0010
0100
0000
0010
0100
0000
0010
0100
0010
,
0100
0000
0001
0000
0100
0001
0000
0100
0001
0000
0100
0001
0000
0100
0001
0000
,
2000
0000
0000
0000
0000
0000
3000
0001
,
0010
0000
0001
0000
0100
0000
0000
0100
0001
0000
0010
0000
0100
0000
1000
0000
,
0010
0100
0001
0100
0010
1000
0001
0000
,
0001
0010
0100
1000
0010
1000
0100
0000
,
0100
1000
0001
0100
0010
0100
0001
0010
,
0001
1000
0100
0000
0100
1000
0001
0000
,
0100
0010
0100
0001
1000
0100
0010
0000
,
0010
0001
0100
1000
0100
0001
0010
0000
,
0200
0000
0000
0300
,
1000
0001
1000
0001
,
1000
0001
1000
0001
,
1000
0001
1000
0001
,
1000
0001
1000
0001
,
2000
0000
0000
0000
,
0000
0000
0000
0000
,
0000
0000
0000
0000
,
0000
0000
0000
0000
,
0000
0000
0000
0000
,
0000
0000
0000
0000
,
0000
0000
0000
0000
,
0000
0000
0000
0000
,
0000
0000
0000
0000
,
0000
0000
0000
0000
,
0000
0000
0000
0000
,
0000
0000
0000
0000
,
0000
0000
0000
0000
,
0000
0000
0000
0000
,
0000
0000
0000
0000
,
0000
0000
0000
0000
,
0000
0000
0000
0000
,
0000
0000
0000
0000
,
0000
0000
0000
0000
,
0000
0000
0000
0000
,
3001
0000
1000
0000
0001
0000
0000
0001
1000
0000
0000
0000
1001
0000
0000
0000
,
1000
0000
0100
0000
0010
0000
0100
1000
0000
0001
0000
0000
0101
0000
0000
0000
,
0100
0000
0010
0000
1000
0000
0100
0010
0000
0100
0000
0000
1100
0000
0000
0000
,
1000
0000
0010
0000
0100
0000
0001
0010
0000
0001
0000
0000
1001
0000
0000
0000
,
1000
0000
0100
0000
0001
0000
0100
0010
0000
0100
0000
0000
0110
0000
0000
0000
,
0010
0000
0001
0000
0010
0000
0100
0010
0000
0001
0010
0000
0100
0000
1000
0000
,
0001
0000
0100
0000
0010
0000
1000
0010
0000
0100
0010
0000
1000
0000
0001
0000
,
0010
0000
0100
0000
1000
0000
0001
1000
0000
0001
0100
0000
0010
0000
1000
0000
,
0002
1000
1000
1000
,
1003
0000
0010
0000
0100
0000
0001
0100
0001
0000
1000
0000
0100
0000
0010
0000
,
0001
0000
0010
0000
0100
0000
1000
0100
1000
0000
0010
0000
0100
0000
0001
0000
,
0010
0000
0100
0000
1000
0000
0010
0100
0010
0000
1000
0000
0100
0000
0010
0000
,
0001
0000
0010
0000
0100
0000
1000
0001
1000
0000
0001
0000
0100
0000
0010
0000
,
1000
0010
0001
1000
0100
0001
1000
0010
,
0001
1000
0100
0001
1000
0010
0001
1000
,
0100
0000
0001
0000
0100
0000
0010
1000
0000
0010
0100
0000
0001
0000
0010
0000
,
0100
0000
0000
0000
0000
0000
0000
0000
0000
0000
0000
0000
0000
0000
0000
2002
,
0000
3003
0000
0000
;

//---------------dance-single - ----------------
#NOTES:
     dance-single:
     :
     Challenge:
     10:
     0.718418,0.797600,0.389965,0.056870,0.552450,564.000000,48.000000,7.000000,0.000000,0.000000,0.000000,0.718418,0.797600,0.389965,0.056870,0.552450,564.000000,48.000000,7.000000,0.000000,0.000000,0.000000:
// measure 0
0000
0000
0000
0000
,  // measure 1
0000
0000
0000
0000
,  // measure 2
0000
0000
0000
0000
,  // measure 3
0001
0000
1000
0000
1001
0000
0000
0100
0000
0000
0010
0100
0010
0000
0000
0000
,  // measure 4
0100
0000
1000
0000
0100
0000
1000
0100
0000
1000
0001
0000
0100
0000
0010
0000
,  // measure 5
1000
0000
0100
0000
0010
0000
0001
0010
0000
0100
0010
0000
0001
0000
0100
0000
,  // measure 6
0010
0000
1000
0000
0100
0000
1000
0001
0000
0100
0010
0000
0100
0000
0001
0000
,  // measure 7
0010
0000
0100
0000
1000
0000
0010
1000
0000
0100
0010
0000
0001
0000
0011
0000
,  // measure 8
0010
0000
0100
0000
1000
0000
0001
0100
0000
0010
0100
0000
0001
0000
1000
0000
,  // measure 9
0100
0000
0001
0000
0100
0000
1000
0010
0000
0100
0001
0000
0100
0000
0010
0000
,  // measure 10
1000
0000
0001
0000
0010
0000
0100
1000
0000
0010
0100
0000
0001
0000
1000
0000
,  // measure 11
2002
0000
0000
3003
,  // measure 12
0001
0000
0000
0010
0000
0000
0011
0000
0100
0000
1000
0000
1100
0000
0000
0000
,  // measure 13
0010
0000
0000
0100
0000
0000
0110
0000
0001
0000
1000
0000
1001
0000
0000
0000
,  // measure 14
0100
0000
0000
0010
0000
0000
0011
0000
0100
0000
1000
0000
1100
0000
0000
0000
,  // measure 15
0001
0000
0000
0100
0000
0000
1010
0000
0010
0000
0100
0000
1001
0000
0000
0000
,  // measure 16
0100
0000
0000
0010
0000
0000
0011
0000
0100
0000
1000
0000
1100
0000
0000
0000
,  // measure 17
0010
0000
0000
0100
0000
0000
1001
0000
0100
0000
0010
0000
1001
0000
0000
0000
,  // measure 18
0010
0000
0000
1000
0000
0000
0101
0000
0001
0000
0010
0000
0011
0000
0000
0000
,  // measure 19
0100
0000
0000
1000
0000
0000
1100
0000
1000
0000
0001
0000
1001
0000
0000
0000
,  // measure 20
1000
0000
0001
0100
0000
0000
0100
1000
0000
0000
1000
0010
0000
0000
0010
1000
,  // measure 21
0000
0000
1000
0100
0000
0000
0100
0001
0000
0000
0001
0010
0001
0000
1000
0000
,  // measure 22
0010
0000
0010
0000
0100
0000
0001
0000
1000
0000
0100
0000
0000
1000
0000
0001
,  // measure 23
0100
0010
0100
0000
0001
0000
1000
0100
0000
1000
0000
0001
0100
0010
0100
0000
,  // measure 24
0001
0000
0000
0010
0000
0000
0011
0000
0100
0000
1000
0000
1100
0000
0000
0000
,  // measure 25
1000
0010
1010
0100
0010
0110
0100
0001
,  // measure 26
0101
0001
1000
1001
0100
0010
0110
0001
,  // measure 27
0010
0011
0100
1000
1100
1000
0010
1010
,  // measure 28
1000
0000
0000
0000
1100
0000
0000
0001
0000
0000
0010
0000
0011
0000
0001
0000
,  // measure 29
1000
0000
0000
0000
1100
0000
0000
1000
0000
0001
0010
0000
0011
0000
0001
0000
,  // measure 30
1000
0000
0000
0000
1010
0000
0000
0010
0000
0000
0100
0000
0101
0000
0100
0000
,  // measure 31
0010
0000
0000
0000
1010
0000
0000
0100
0000
0001
0100
0000
0101
0000
0010
0000
,  // measure 32
1000
0000
0100
0000
1000
0010
0000
1000
0100
0000
1000
0010
0000
1000
0100
0000
,  // measure 33
0010
0000
0001
0000
0100
0001
0000
0010
0001
0000
0100
0001
0000
0010
0001
0010
,  // measure 34
0001
0000
1000
0000
0001
0010
0000
0001
1000
0000
0001
0010
0000
0001
1000
0000
,  // measure 35
0100
0000
1000
0000
0001
1000
0000
0100
1000
0000
0001
1000
0000
0100
1000
0100
,  // measure 36
1000
0000
0010
0000
1000
0010
0000
1000
0010
0000
0100
0010
0000
0100
0010
0000
,  // measure 37
0100
0000
0001
0000
0100
0001
0000
0100
0001
0000
1000
0001
0000
1000
0001
1000
,  // measure 38
0100
0000
1000
0000
0100
1000
0000
0100
0010
0000
0100
0010
0000
0100
0010
0000
,  // measure 39
0002
0000
1000
0000
0000
1000
0000
0000
1000
0000
0000
1000
0003
0000
1000
0001
,  // measure 40
1000
0000
0100
0000
0010
0000
0000
0010
0001
0000
0010
0001
0000
0010
0001
0000
,  // measure 41
1000
0000
0010
0000
0100
0000
0001
0000
0100
0000
0010
1000
0000
0010
1000
0000
,  // measure 42
0001
0000
0010
0000
0100
0000
1000
0000
0001
0000
0100
0001
0000
0100
0001
0000
,  // measure 43
0010
0000
0100
0000
1000
0000
0010
0000
0100
0000
0001
0100
0000
0001
0100
0001
,  // measure 44
0100
0000
0010
0000
1000
0000
0100
0000
1000
0000
0010
1000
0000
0010
1000
0000
,  // measure 45
0001
0000
0010
0000
0100
0000
0010
0000
0001
0000
0100
0010
0000
0100
0010
0000
,  // measure 46
1000
0000
0100
0000
0001
0000
0100
0000
0010
0000
0001
0010
0000
0001
0010
0000
,  // measure 47
0001
0000
1000
0000
1001
0000
0000
0010
0000
0000
0100
0010
0100
0000
0000
0000
,  // measure 48
0001
0100
0001
0100
0010
1000
0010
1000
,  // measure 49
0001
0000
0010
0001
0000
0010
0001
0000
1000
0001
0000
1000
,  // measure 50
0010
0000
1000
0010
0000
0100
0010
0000
0100
0010
0000
1000
,  // measure 51
0001
0000
0010
0100
0000
1000
0010
0000
0100
0001
0000
1000
,  // measure 52
0001
1000
0001
1000
,  // measure 53
0001
1000
0001
1000
,  // measure 54
0001
1000
0001
1000
,  // measure 55
0001
1000
0001
1000
,  // measure 56
0001
1000
0001
1000
,  // measure 57
0001
1000
0001
1000
,  // measure 58
0001
1000
0001
1000
,  // measure 59
0002
0000
0000
0000
,  // measure 60
0000
0000
0000
0000
,  // measure 61
0000
0000
0000
0000
,  // measure 62
0000
0000
0000
0000
,  // measure 63
0000
0000
0000
0000
,  // measure 64
0000
0000
0000
0000
,  // measure 65
0000
0000
0000
0000
,  // measure 66
0000
0000
0000
0000
,  // measure 67
0000
0000
0000
0000
,  // measure 68
0000
0000
0000
0000
,  // measure 69
0000
0000
0000
0000
,  // measure 70
0000
0000
0000
0000
,  // measure 71
0000
0000
0000
0000
,  // measure 72
1003
0000
0001
0000
1001
0000
0000
0100
0010
0000
0000
0000
1001
0000
0000
0000
,  // measure 73
0001
0000
0010
0000
0100
0000
1000
0010
0000
1000
0100
0000
0010
0000
0001
0000
,  // measure 74
0100
0000
0010
0000
0100
0000
0001
0010
0000
0001
0100
0000
0010
0000
1000
0000
,  // measure 75
0100
0000
0010
0000
0100
0000
1000
0100
0000
0001
0100
0000
1000
0000
0010
0000
,  // measure 76
0100
0000
0001
0000
1000
0000
0001
0010
0000
1000
0010
0000
0001
0000
0100
0000
,  // measure 77
0010
0000
1000
0000
0100
0000
1000
0100
0000
0010
0001
0000
0010
0000
0100
0000
,  // measure 78
1000
0000
0010
0000
0100
0000
0001
0100
0000
0001
0100
0000
0010
0000
1000
0000
,  // measure 79
0100
0000
0010
0000
0001
0000
0010
0100
0000
0010
0100
0000
1000
0000
0001
0000
,  // measure 80
0200
0000
0000
0000
0010
0000
0000
1000
0000
0000
0001
0000
0301
0000
0000
0000
,  // measure 81
0010
0000
0100
0000
1000
0000
0001
0100
0001
0100
0001
0000
0010
0000
0100
0000
,  // measure 82
1000
0000
0010
0000
0100
0000
1000
0100
1000
0100
1000
0000
0100
0000
0010
0000
,  // measure 83
1000
0000
0100
0000
0010
0000
0001
0010
0001
0010
0001
0000
1000
0000
0010
0000
,  // measure 84
0100
0000
0001
0000
0010
0000
0100
0010
0100
0010
0100
0000
1000
0000
0010
0000
,  // measure 85
0100
0001
0101
0010
0001
0011
0100
1000
,  // measure 86
1100
1000
0010
1010
1000
0001
1001
0001
,  // measure 87
0010
0000
0100
0000
1100
0000
1000
0001
0000
0100
0010
0000
1000
0000
0001
0000
,  // measure 88
0110
0000
0000
0000
0000
0000
0000
0000
0000
0000
0000
0000
0000
0000
0000
2002
,  // measure 89
0000
3003
0000
0000
;
