#VERSION:0.81;
#TITLE:Wiggle;
#SUBTITLE:feat. Snoop Dogg;
#ARTIST:Jason Derulo;
#TITLETRANSLIT:;
#SUBTITLETRANSLIT:;
#ARTISTTRANSLIT:;
#GENRE:Hip Hop;
#ORIGIN:;
#CREDIT:~*padu*~;
#BANNER:Wiggle-bn.png;
#BACKGROUND:Wiggle-bg.png;
#PREVIEWVID:;
#JACKET:jacket.png;
#CDIMAGE:;
#DISCIMAGE:;
#LYRICSPATH:;
#CDTITLE:;
#MUSIC:Wiggle.mp3;
#OFFSET:-0.535000;
#SAMPLESTART:60.349998;
#SAMPLELENGTH:16.150000;
#SELECTABLE:YES;
#DISPLAYBPM:82.000000;
#BPMS:0.000=82.000,
46.000=164.000,
48.000=82.000,
95.000=164.000,
97.000=82.000,
104.500=246.000,
106.000=82.000;
#STOPS:30.000=3.659,
79.000=2.927,
129.000=2.927;
#DELAYS:;
#WARPS:;
#TIMESIGNATURES:0.000=4=4;
#TICKCOUNTS:0.000=4;
#COMBOS:0.000=1;
#SPEEDS:0.000=1.000=0.000=0;
#SCROLLS:0.000=1.000;
#FAKES:;
#LABELS:0.000=Song Start;
#BGCHANGES:;
#KEYSOUNDS:;
#ATTACKS:
;

//---------------dance-single - ----------------
#NOTEDATA:;
#CHARTNAME:;
#STEPSTYPE:dance-single;
#DESCRIPTION:;
#CHARTSTYLE:;
#DIFFICULTY:Hard;
#METER:7;
#RADARVALUES:0.334754,0.318044,0.162405,0.185606,0.247475,258.000000,21.000000,24.000000,16.000000,0.000000,0.000000,0.000000,0.000000,0.334754,0.318044,0.162405,0.185606,0.247475,258.000000,21.000000,24.000000,16.000000,0.000000,0.000000,0.000000,0.000000;
#CREDIT:;
#DISPLAYBPM:82.000000;
#NOTES:
0000
0000
0000
0000
,
0000
0000
0000
0000
,
0000
0000
0000
0000
,
0000
0000
0000
0000
,
0002
0000
0000
2003
0000
0000
3200
0000
0000
0000
0000
0000
0000
0000
0300
0000
,
0020
0000
0000
0030
,
0200
0000
0000
2300
0000
0000
3002
0000
0000
0000
0000
0000
0000
0000
0000
0000
,
0013
0000
0000
0000
0000
0000
0000
0000
MMMM
0000
0000
0000
1000
0010
1000
0000
,
0001
0000
0000
0001
0000
0000
0201
0000
0000
0000
0300
0000
0001
0010
0001
0000
,
1000
0000
0000
1000
0000
0000
1200
0000
0000
0000
0300
0000
0010
0100
0010
0000
,
0001
0000
0000
0001
0000
0000
2001
0000
0000
0000
3000
0000
0010
0100
0010
0000
,
0100
0001
0100
0000
0001
1000
0001
0000
0120
0000
0000
0000
0000
0000
0000
0000
,
0031
0100
0001
0000
0001
0100
0001
0000
1000
0000
0010
0000
0101
0000
0000
0000
,
0001
0010
0001
0010
0001
0000
1000
0000
0100
0000
1000
0000
0011
0000
0000
0000
,
0010
0100
0010
0000
0100
0010
0100
0000
1000
0000
0001
0000
0110
0000
0000
0000
,
1000
0001
1000
0000
0001
0000
0001
0000
0100
0000
0001
0000
1010
0000
0000
0000
,
1000
0000
0001
0010
0000
0000
0110
0000
0000
0000
1000
0000
0001
0100
0001
0000
,
1000
0000
0001
0100
0000
0000
1001
0000
0000
0000
0100
0000
0010
0000
0100
0000
,
0001
0000
1000
0100
0000
0000
0011
0000
0000
0000
2000
0000
0020
0000
3000
0000
,
0130
0000
0001
1000
0000
0000
0000
0000
0110
0000
0000
0000
MMMM
0000
0000
0000
,
0010
0001
0010
0000
0100
0000
0000
0100
0000
0000
2100
0000
0000
0000
3000
0000
,
0001
0010
0001
0000
0100
0000
0000
0100
0000
0000
0102
0000
0000
0000
0003
0000
,
1000
0010
1000
0000
0100
0000
0000
0100
0000
0000
0120
0000
0000
0000
0030
0000
,
0001
1000
0001
0000
1000
0100
1000
0000
0010
0100
0010
0000
0102
0000
0000
0000
,
0000
0000
0000
0000
0103
0010
0100
0000
0100
0010
0100
0000
1000
0000
0100
0000
,
0011
0000
MMMM
0000
0001
0000
0010
0100
0010
0000
0100
1000
0002
0000
0100
0000
,
0103
0000
0000
0000
0000
0000
0000
0000
0010
0000
1000
0000
0010
0010
1000
0000
,
0001
0000
0100
0002
0000
0000
0003
0000
1000
0100
1000
0100
0010
0000
0001
0100
,
0000
0001
2000
0000
0000
0000
3000
0000
0100
0000
0010
0100
0000
0000
1001
0000
,
0000
0000
0010
0000
0001
0100
0001
0000
1000
0000
0100
1000
0000
0000
0011
0000
,
0000
0000
0100
0000
0001
0000
0010
0000
0100
0000
1000
0100
0000
0000
1010
0000
,
0000
0000
0200
0000
0002
0000
0300
0000
1003
0000
0010
1000
0000
0000
0000
0000
,
0000
0000
0000
0000
MMMM
0000
0000
0000
0000
0000
1000
0100
0000
0000
0100
0010
,
0000
0000
0010
0001
0000
0000
1000
0010
0000
0000
0010
0100
0000
0000
0100
0001
,
0000
0000
0010
0001
0100
0010
1000
0100
0000
0000
0010
0001
0010
0001
0100
0000
,
0000
0000
0010
1000
0100
0010
0001
0200
0000
0000
0001
0000
0000
0000
1000
0000
,
0000
0000
0301
0010
0001
0010
0100
1000
0010
0000
0100
0000
0001
0000
1000
0000
,
0010
1000
0001
0100
0001
1000
0010
0100
,
0001
0010
0100
1000
0001
0001
1000
1000
,
0100
0100
0001
0001
0100
0100
0010
0010
,
0001
1000
0120
1000
0001
1000
0100
1030
,
0001
0100
0000
0000
0000
0000
0000
0000
;

//---------------dance-single - ----------------
#NOTEDATA:;
#CHARTNAME:;
#STEPSTYPE:dance-single;
#DESCRIPTION:;
#CHARTSTYLE:;
#DIFFICULTY:Medium;
#METER:4;
#RADARVALUES:0.225379,0.238775,0.077336,0.092803,0.038668,182.000000,10.000000,12.000000,0.000000,0.000000,0.000000,0.000000,0.000000,0.225379,0.238775,0.077336,0.092803,0.038668,182.000000,10.000000,12.000000,0.000000,0.000000,0.000000,0.000000,0.000000;
#CREDIT:;
#DISPLAYBPM:82.000000;
#NOTES:
0000
0000
0000
0000
,
0000
0000
0000
0000
,
0000
0000
0000
0000
,
0000
0000
0000
0000
,
0001
0000
0000
0010
0000
0000
0200
0000
0000
0000
0000
0000
0000
0000
0000
0000
,
0000
0300
0000
0000
0000
0000
0000
0000
,
1000
0000
0000
0010
0000
0000
0200
0000
0000
0000
0000
0000
0000
0000
0000
0000
,
0000
0000
0300
0000
0000
0000
0000
0000
0000
0000
0000
0000
0010
0000
0000
0100
,
0000
0000
0100
0000
0000
0000
0100
0000
1000
0000
0000
0000
0010
0000
0000
0100
,
0000
0000
0100
0000
0000
0000
0100
0000
0001
0000
0000
0000
1000
0000
0000
0010
,
0000
0100
0000
0100
0001
0000
0010
0100
,
0010
0100
0010
0100
0000
0000
0000
0000
,
1000
0100
1000
0100
1000
0010
0001
0000
,
0010
0100
0010
0100
0001
0001
0001
0000
,
0100
0010
0100
0010
1000
0100
0001
0000
,
0100
1000
0100
1000
0010
0010
0010
0000
,
0100
0101
0000
0000
0000
0001
0010
0100
,
1000
1100
0000
0000
0000
0010
0001
1000
,
0010
0110
0000
0000
0000
0100
0002
0000
,
1003
1000
0100
0100
0011
0000
0000
0000
,
0100
0000
0000
0001
0000
0000
0001
0000
0000
0000
0001
0000
0010
0000
0000
0000
,
0100
0000
0000
1000
0000
0000
1000
0000
0000
0000
1000
0000
0010
0000
0000
0000
,
1000
0000
0000
0001
0000
0000
0001
0000
0000
0000
0001
0000
0010
0000
0000
0000
,
0001
1000
0001
1000
0001
1000
0000
0000
,
0000
0000
0010
0100
0010
0100
0001
1000
,
0100
0020
0031
0100
0001
1000
0010
0100
,
0100
0000
0000
0000
0001
0010
0001
1000
,
0100
0000
0000
0010
0000
0000
0000
0000
0001
0000
1000
0000
0010
0000
1000
0000
,
0200
0000
0300
0000
0010
0011
0000
0001
,
0000
0100
1000
0100
0010
0110
0000
0100
,
0000
0001
1000
0100
1000
1010
0000
0010
,
0000
0100
0002
0000
1003
1000
0010
0010
,
1100
0000
0000
0000
0000
0010
0000
0001
,
0000
0100
0000
0010
0000
1000
0000
0100
,
0000
0000
0000
0000
0000
0010
0010
0010
,
0000
0100
0200
0300
2000
0000
3020
0000
,
0032
0000
0023
0000
0130
0100
0100
0000
,
0001
0001
0001
0000
1000
1000
1000
0000
,
0010
0010
0010
0000
1000
0000
0101
0000
,
0010
0000
1100
0000
0001
0100
0010
1000
,
0001
0100
0020
0000
0000
0000
0000
0000
,
0000
0000
0000
0030
1000
0000
0000
0000
0000
0000
0000
0000
0000
0000
0000
0000
0000
0000
0000
0000
0000
0000
0000
0000
;

//---------------dance-single - ----------------
#NOTEDATA:;
#CHARTNAME:;
#STEPSTYPE:dance-single;
#DESCRIPTION:;
#CHARTSTYLE:;
#DIFFICULTY:Easy;
#METER:1;
#RADARVALUES:0.070707,0.091643,0.023201,0.030934,0.000000,57.000000,3.000000,4.000000,0.000000,0.000000,0.000000,0.000000,0.000000,0.070707,0.091643,0.023201,0.030934,0.000000,57.000000,3.000000,4.000000,0.000000,0.000000,0.000000,0.000000,0.000000;
#CREDIT:;
#DISPLAYBPM:82.000000;
#NOTES:
// measure 0
0000
0000
0000
0000
,  // measure 1
0000
0000
0000
0000
,  // measure 2
0000
0000
0000
0000
,  // measure 3
0000
0000
0000
0000
,  // measure 4
0020
0000
0000
0030
,  // measure 5
0200
0000
0000
0300
,  // measure 6
0002
0000
0000
0003
,  // measure 7
2000
0000
3000
0010
,  // measure 8
0010
0000
0010
0010
1001
0000
0100
0000
,  // measure 9
0100
0000
0100
0100
1001
0000
0010
0000
,  // measure 10
0010
0000
0100
0010
1001
0000
0010
0000
,  // measure 11
0001
0000
1000
0001
0000
0000
0000
0000
,  // measure 12
0000
0000
0100
0000
0100
0100
0010
0000
,  // measure 13
0000
0000
0001
0000
0001
0001
0010
0000
,  // measure 14
0000
0000
1000
0000
1000
1000
0010
0000
,  // measure 15
0100
0000
0100
0000
0001
1000
1000
0000
,  // measure 16
0010
0010
0010
0100
0000
0000
0000
0000
,  // measure 17
1000
1000
1000
0100
0000
0000
0000
0000
,  // measure 18
0001
0001
0001
0100
0000
0000
0000
0000
,  // measure 19
0100
0000
0100
0000
0010
0100
0010
0000
;
