#TITLE:Straight From The Underground;
#SUBTITLE:(Joey Riot Powerbounce Remix);
#ARTIST:DJ Kurt;
#TITLETRANSLIT:;
#SUBTITLETRANSLIT:;
#ARTISTTRANSLIT:;
#CREDIT:;
#BANNER:[Break] Straight From The Underground (Joey Riot Powerbounce Remix)-bn.png;
#BACKGROUND:[Break] Straight From The Underground (Joey Riot Powerbounce Remix)-bg.png;
#LYRICSPATH:;
#CDTITLE:cd.png;
#MUSIC:[Break] Straight From The Underground (Joey Riot Powerbounce Remix).ogg;
#OFFSET:-5.711;
#SAMPLESTART:3.070;
#SAMPLELENGTH:15.000;
#SELECTABLE:YES;
#BPMS:0.000=170.000;
#STOPS:136.000=2.471
;
#BGCHANGES:;

//---------------dance-single - ----------------
#NOTES:
     dance-single:
     :
     Hard:
     9:
     0.684,0.617,0.410,0.400,0.265: // measure 1
1001
0000
0001
1000
0000
1000
0010
0100
,  // measure 2
0110
0000
0100
0010
0000
0100
0010
0100
,  // measure 3
1001
0000
0001
0010
0000
0010
0100
1000
,  // measure 4
1002
0000
1003
0100
0000
0001
0010
0001
,  // measure 5
0201
0000
0301
0100
0000
0100
1000
0010
,  // measure 6
1010
0000
0010
1000
0000
0010
1000
0010
,  // measure 7
0101
0000
0001
1000
0000
1000
0010
0100
,  // measure 8
0102
0000
0103
0010
0000
0001
1000
0001
,  // measure 9
2000
0000
3001
0100
0001
0100
0010
1000
,  // measure 10
0020
0000
0130
0001
1000
0100
0010
0001
,  // measure 11
0200
0000
0310
0100
0001
1000
0100
0010
,  // measure 12
0002
0000
1003
0010
0100
0001
0010
0001
,  // measure 13
0012
0000
0103
0010
1000
0100
0010
0001
,  // measure 14
0102
0000
0013
0100
1000
0001
0100
0010
,  // measure 15
2010
0000
3100
0000
1001
0000
0001
1000
,  // measure 16
0010
0000
0010
0100
0001
1000
0010
1000
,  // measure 17
1001
0000
0000
0000
0001
0000
1000
0000
0000
0000
1000
0000
0100
0000
1000
0100
,  // measure 18
2000
0000
0000
0000
3001
0000
0100
0000
0000
0000
0100
0000
0010
0000
0100
0010
,  // measure 19
0200
0000
0000
0000
0301
0000
0010
0000
0000
0000
0010
0000
1000
0000
0010
1000
,  // measure 20
0020
0000
0000
0000
0031
0000
1000
0000
0000
0000
1000
0000
0100
0000
1000
0100
,  // measure 21
2000
0000
0000
0000
3001
0000
0010
0000
0000
0000
0001
0000
0010
0000
0001
0010
,  // measure 22
0002
0000
0000
0000
1003
0000
0010
0000
0000
0000
0010
0000
0100
0000
0010
0100
,  // measure 23
0020
0000
0000
0000
1030
0000
0100
0000
0000
0000
0100
0000
0001
0000
0100
0001
,  // measure 24
0200
0000
0000
0000
1300
0000
0001
0000
0000
0000
0001
0000
0010
0000
0001
0010
,  // measure 25
0002
0000
0000
0000
1003
0000
0100
0000
1000
0000
0010
0000
0100
0000
0010
1000
,  // measure 26
0020
0000
0000
0000
0130
0000
0010
0000
0100
0000
0001
0000
1000
0000
0100
0001
,  // measure 27
0200
0000
0000
0000
0310
0000
1000
0000
1000
0000
0001
0000
0001
0000
1000
0100
,  // measure 28
0020
0000
0130
1000
0001
1000
0010
0100
,  // measure 29
0002
0100
1003
0100
0000
0001
1000
0010
,  // measure 30
0100
0001
1000
0020
0000
1030
0001
0100
,  // measure 31
0010
0001
1000
0002
0000
0013
0100
1000
,  // measure 32
0010
0100
0001
2000
0000
3010
0100
0000
,  // measure 33
1001
0000
0000
0000
,  // measure 34
0000
0000
0000
0000
,  // measure 35
0000
0000
0000
0000
1000
0000
0000
1001
0000
0000
1000
0000
0001
0100
0001
0100
,  // measure 36
0001
0100
0001
0000
1000
0000
0000
0001
0000
0000
1000
0000
0100
0000
0010
0000
,  // measure 37
0100
0010
0100
0000
1001
0000
0000
0110
0000
0000
0010
0000
0110
0000
0000
1001
,  // measure 38
0000
0000
1000
0000
0001
0000
0000
0010
0100
0000
0000
0100
0001
0000
0100
0000
,  // measure 39
0010
0000
1000
0000
0002
0000
0000
1000
0000
0000
0103
0000
0010
0100
0010
0100
,  // measure 40
0010
0100
0010
0000
1000
0000
0000
0001
0000
0000
1000
0000
0100
0000
0010
0000
,  // measure 41
0001
0000
0100
0000
0010
0000
1000
0100
0000
0000
0010
0000
0001
0000
0100
0001
,  // measure 42
0000
0100
1001
0000
1001
0000
0110
0000
,  // measure 43
0110
0000
0000
0000
0110
0000
0000
1001
0000
0000
0001
0000
1000
0010
0100
0010
,  // measure 44
1000
0010
1000
0000
0001
0000
0000
1000
0000
0000
0001
0000
0010
0000
0100
0000
,  // measure 45
0010
0100
0010
0000
1001
0000
0000
0110
0000
0000
0100
0000
0110
0000
0000
1001
,  // measure 46
0000
0000
0001
0000
1000
0000
0000
0100
0010
0000
0000
0010
1000
0000
0010
0000
,  // measure 47
0100
0000
0001
0000
2000
0000
0000
0001
0000
0000
3010
0000
0100
0010
0100
0001
,  // measure 48
0100
0010
0100
0000
0001
0000
0000
1000
0000
0000
0001
0000
0010
0000
0100
0000
,  // measure 49
1000
0000
0010
0000
0100
0000
0001
0010
0000
0000
0100
0000
1000
0000
0010
1000
,  // measure 50
0000
0010
2002
0000
0000
0000
0000
0000
,  // measure 51
3003
0000
0000
0000
1001
0000
0000
1000
0000
0000
0001
0000
2000
0000
0000
0000
,  // measure 52
3001
0000
0100
0000
0010
0000
0000
1000
0000
0000
0100
0000
0010
0000
0001
0000
,  // measure 53
0100
0000
0010
0000
2000
0000
0000
0001
0000
0000
0100
0000
3001
0000
0000
0000
,  // measure 54
0100
2001
3002
0203
,  // measure 55
0301
0000
1000
0000
0200
0000
0000
0010
0000
0000
0001
0000
0302
0000
0000
0000
,  // measure 56
1003
0000
0100
0000
0010
0000
0000
1000
0000
0000
0010
0000
0100
0000
0001
0000
,  // measure 57
1000
0000
0010
0000
2000
0000
0000
0010
0000
0000
0010
0000
0010
3000
0000
0000
,  // measure 58
1000
0001
0200
0000
0310
0000
0110
0000
,  // measure 59
1001
0000
0000
0000
1100
0000
0000
0100
0000
0000
1000
0000
0200
0000
0000
0000
,  // measure 60
1300
0000
0001
0000
0010
0000
0000
0100
0000
0000
0001
0000
0010
0000
1000
0000
,  // measure 61
0001
0000
0010
0000
0200
0000
0000
1000
0000
0000
1000
0000
1300
0000
0000
0000
,  // measure 62
0001
1100
1100
0011
,  // measure 63
0011
0000
0000
0000
0002
0000
0000
0010
0000
0000
1000
0000
2003
0000
0000
0000
,  // measure 64
3100
0000
0001
0000
0010
0000
0000
0100
0000
0000
0010
0000
0001
0000
1000
0000
,  // measure 65
0100
0000
0010
0000
0200
0000
0000
0010
0000
0000
0010
0000
0010
0300
0000
0000
,  // measure 66
0100
1010
1010
0101
,  // measure 67
0101
1001
0000
0000
;

//---------------dance-single - ----------------
#NOTES:
     dance-single:
     :
     Medium:
     7:
     0.512,0.494,0.168,0.251,0.126:
1000
0000
0001
1000
0000
0010
0000
0010
,
0100
0000
0001
0010
0000
0001
0010
0100
,
1000
0000
0001
1000
0000
0010
0000
1000
,
0100
0000
1000
0001
0000
0001
1000
0000
,
0010
0000
0100
0010
0000
0001
0000
0100
,
1000
0000
0010
1000
0000
0100
0000
0010
,
1000
0000
0001
1000
0000
0010
0000
0100
,
0001
1000
0010
0100
0001
1000
0010
0000
,
0001
0000
0010
0100
0000
2000
0000
0000
,
3001
0000
0100
0010
0000
0002
0000
0000
,
1003
0000
0100
1000
0000
0010
0000
0100
,
1000
0001
1000
0010
0000
0100
0000
0000
,
0010
0000
0001
0010
0000
0200
0000
0000
,
1300
0000
0001
0010
0000
0100
1000
0010
,
1000
0000
0001
0010
0000
0100
0000
1000
,
0001
0010
0001
0010
,
0010
0000
1000
0100
0000
0010
0100
0010
,
0100
0000
0001
0010
0000
0001
0010
0100
,
1000
0000
0010
1000
0000
0001
0100
0010
,
0100
0000
0001
1000
0000
0100
0010
0001
,
0010
0000
0100
1000
0000
0010
1000
0001
,
0010
0000
0100
0010
0000
0001
0010
0100
,
1000
0000
0001
1000
0000
0010
0001
0001
,
0001
0000
1000
0100
0000
1000
0010
0100
,
0001
0000
0100
1000
0000
0010
0100
0001
,
1000
0000
0100
0010
0000
0001
0010
0100
,
0010
0000
0001
0010
0000
0001
0100
0010
,
0100
0000
0001
0100
0000
0001
0001
0010
,
1000
0000
0100
1000
0000
0010
0001
0010
,
0100
0000
0001
1000
0000
0010
0100
0001
,
1000
0010
0100
0010
0100
0000
0010
1000
,
0002
0023
0230
0310
,
1001
0000
0000
0000
,
0000
0000
0000
0000
,
0000
0000
0000
0000
1000
0000
0000
0001
0000
0000
0010
0000
0010
0000
1000
0000
,
0010
1000
0001
0000
1000
0000
0010
0100
,
0001
0000
0100
0000
0010
0000
0000
1000
0000
0000
0000
0000
0001
0000
0000
1000
,
0000
0010
0100
1001
,
0110
0000
0000
0000
0001
0000
0000
0100
0000
0000
0010
0000
1000
0000
0001
0000
,
0010
0000
1000
0000
0001
0000
0000
1000
0000
0000
0100
0000
0010
0000
0001
0000
,
0100
0000
0010
0000
1000
0000
0000
0001
0000
0000
0100
0000
0010
0000
0000
1000
,
0000
0100
0020
0000
0230
0000
0302
0000
,
2003
0000
0000
0000
3001
0000
0000
0001
0000
0000
0001
0000
0001
0000
1000
0000
,
0010
0000
1000
0000
0010
0000
0000
1000
0000
0000
0100
0000
0001
0000
0000
0000
,
1000
0000
0000
0000
0010
0000
0000
0110
0000
0000
0000
0000
0001
0000
0000
0110
,
0000
2000
3002
0203
,
0320
0000
0000
0000
1030
0000
0000
1000
0000
0000
1000
0000
1000
0000
0010
0000
,
0100
0000
0001
0000
0100
0000
0000
0001
0000
0000
0100
0000
1000
0000
0000
0000
,
0100
0000
0000
0000
0010
0000
0000
0001
0000
0000
0000
0000
1000
0000
0000
0100
,
0000
0100
0002
0000
0000
0000
0003
0000
,
0000
0000
0000
0000
1001
0000
0000
0001
0000
0000
0001
0000
0002
0000
0000
0000
,
1003
0000
0000
0000
0001
0000
0000
1000
0000
0000
1000
0000
0010
0000
0000
0000
,
0010
0000
0000
0000
0100
0000
0000
0100
0000
0000
0100
0000
0200
0000
0000
0000
,
1300
1000
1010
0001
,
0101
0000
0000
0000
1000
0000
0000
0010
0000
0000
0010
0000
2000
0000
0000
0000
,
3001
0000
0000
0000
1000
0000
0000
0010
0000
0000
0010
0000
0100
0000
0100
0000
,
0010
0000
1000
0000
0001
0000
0000
1000
0000
0000
0001
0000
0002
0000
0000
0000
,
0103
0110
1001
0110
,
1001
0000
0000
0000
0011
0000
0000
0001
0000
0000
0100
0000
0200
0000
0000
0000
,
1300
0000
0000
0000
1000
0000
0000
0100
0000
0000
0001
0000
0100
0000
0000
0000
,
0100
0000
0000
0000
0001
0000
0000
0001
0000
0000
0010
0000
0200
0000
0000
0000
,
0301
0200
2300
3200
,
0320
0000
0000
0000
0130
0000
0000
0010
0000
0000
0001
0000
0020
0000
0000
0000
,
0031
0000
0000
0000
0010
0000
0000
1000
0000
0000
0010
0000
0100
0000
1000
0000
,
0010
0000
0100
0000
0001
0000
0000
0100
0000
0000
1000
0000
0200
0000
0000
0000
,
1300
1001
0110
1001
,
0110
1001
0000
0000
;

//---------------dance-single - ----------------
#NOTES:
     dance-single:
     :
     Easy:
     4:
     0.333,0.339,0.102,0.224,0.000:
1000
0100
0010
0000
,
1000
0010
1000
0000
,
0100
0010
0001
0000
,
0001
1000
0010
0100
,
0010
0100
0002
0003
,
1000
0010
0200
0300
,
0001
0010
0002
0003
,
1000
0010
0001
1000
,
0001
1000
0001
0000
,
0001
0100
1000
0000
,
0001
0010
0001
0000
,
0001
0010
1000
0000
,
1000
0010
0200
0000
,
0301
0010
2000
0000
,
3010
1000
0002
0000
,
1003
0001
1000
0001
,
1010
0001
1000
0010
,
1000
0001
1000
0000
,
0001
0000
1000
0000
,
0010
1000
0001
1000
,
1001
0001
0010
0100
,
1000
0001
0010
0000
,
0001
0000
0100
0000
,
1000
0001
0100
0100
,
0011
0001
0010
0001
,
1000
0100
1000
0000
,
0010
0000
1000
0000
,
0001
1000
0001
0000
,
0110
0010
0100
0001
,
1000
0001
1000
0000
,
0001
0000
0100
0000
,
1000
0010
1000
0010
,
1001
0000
0000
0000
,
0000
0000
0000
0000
,
0000
0000
1001
0000
0001
0000
1000
0001
,
1000
0001
1000
0010
,
0100
0002
0003
2000
,
3000
0100
1000
0010
,
0100
0000
0110
0000
0010
0000
0100
0010
,
0100
0001
1000
0100
,
1000
0020
0030
0200
,
0300
0001
1000
0100
,
0010
0000
0011
0000
0001
0000
0010
0001
,
0010
0001
1000
0100
,
1000
0020
0030
0200
,
0300
0001
1000
0100
,
1000
0000
1010
0000
0010
0000
1000
0010
,
1000
0100
1000
0001
,
0010
0002
0003
2000
,
3000
2002
0000
0000
,
3003
0001
0001
0002
,
0003
1000
1000
1000
,
0001
1000
0010
0020
,
0030
0010
1000
1000
,
0000
0100
0100
0200
,
0300
0001
1000
0001
,
0010
0001
0001
0200
,
0300
0100
0100
0001
,
0100
1000
1000
2000
,
3000
0001
0001
0001
,
1000
0001
0100
0200
,
0300
0100
0001
0001
,
0000
0010
0010
0020
,
0030
1000
0001
1000
,
0100
1000
1000
0020
,
0030
0010
0010
1000
,
0010
1001
0000
0000
;

//---------------dance-single - ----------------
#NOTES:
     dance-single:
     :
     Beginner:
     2:
     0.217,0.278,0.037,0.354,0.000:
0100
0000
0000
0000
,
0010
0000
0000
0000
,
0100
0000
0000
0000
,
0001
0000
0000
0000
,
1000
0000
0000
0000
,
0010
0000
0000
0000
,
0001
0000
0000
0000
,
1000
0010
1000
0010
,
1000
0000
0000
0000
,
0001
0000
0000
0000
,
0100
0000
0000
0000
,
0010
0000
0000
0000
,
0001
0000
0000
0000
,
1000
0000
0000
0000
,
0001
0000
0000
0000
,
1000
0010
1000
0010
,
2000
0000
0001
3000
,
0002
0000
1003
0000
,
0200
0000
0310
0000
,
0020
0000
0130
0000
,
0002
0000
1003
0000
,
2000
0000
3010
0000
,
0020
0030
0100
0000
,
0002
0000
1003
0000
,
0002
0000
1003
0000
,
0020
0000
0130
0000
,
0002
0000
0013
0000
,
2000
0000
3010
0000
,
0002
0000
0103
0000
,
0200
0000
0310
0000
,
2000
0000
3010
0000
,
0020
0000
1030
0000
,
1001
0000
0000
0000
,
0000
0000
0000
0000
,
0000
0001
0000
0010
,
0010
0010
0000
0100
,
0100
0100
0000
0010
,
0000
0010
0000
0100
,
0000
0001
0000
1000
,
1000
1000
0000
0010
,
0010
0010
0000
0100
,
0000
0001
0000
1000
,
0000
0010
0000
0001
,
0001
0002
0003
1000
,
1000
2000
3000
0020
,
0030
2000
3000
0002
,
0003
0010
0000
0100
,
0100
0200
0300
0010
,
0010
0020
0030
0200
,
0300
0010
0000
0000
,
0000
2001
0000
0000
,
3000
0002
0000
1003
,
0001
2000
0000
0000
,
3000
0020
0000
0000
,
0030
0200
0000
0000
,
0300
0020
0000
0000
,
0030
1000
0001
1000
,
0000
2000
0000
3001
,
0000
0120
0000
0000
,
0030
2000
0000
3001
,
1000
0002
0000
0000
,
0003
0200
0000
0000
,
0300
0020
0000
0000
,
0030
0200
0000
0000
,
0300
0001
1000
0001
,
0000
0002
0000
1003
,
0000
1001
0000
0000
;
