#VERSION:0.81;
#TITLE:Sakura Mirage;
#SUBTITLE:;
#ARTIST:Ryu☆;
#TITLETRANSLIT:;
#SUBTITLETRANSLIT:;
#ARTISTTRANSLIT:;
#GENRE:;
#ORIGIN:;
#CREDIT:;
#BANNER:[Break] - Sakura Mirage.png;
#BACKGROUND:[Break] - Sakura Mirage-bg.png;
#PREVIEWVID:;
#JACKET:[Break] - Sakura Mirage-jacket.png;
#CDIMAGE:;
#DISCIMAGE:;
#LYRICSPATH:;
#CDTITLE:cdtitle.png;
#MUSIC:[Break] - Sakura Mirage.mp3;
#OFFSET:0.080000;
#SAMPLESTART:81.859955;
#SAMPLELENGTH:12.000000;
#SELECTABLE:YES;
#BPMS:0.000=187.000;
#STOPS:166.000=3.850,
236.000=1.604;
#DELAYS:;
#WARPS:;
#TIMESIGNATURES:0.000=4=4;
#TICKCOUNTS:0.000=4;
#COMBOS:0.000=1;
#SPEEDS:0.000=1.000=0.000=0;
#SCROLLS:0.000=1.000;
#FAKES:;
#LABELS:0.000=Song Start;
#BGCHANGES:;
#KEYSOUNDS:;
#ATTACKS:
;

//---------------dance-single - ----------------
#NOTEDATA:;
#CHARTNAME:;
#STEPSTYPE:dance-single;
#DESCRIPTION:;
#CHARTSTYLE:;
#DIFFICULTY:Hard;
#METER:10;
#RADARVALUES:0.771271,0.935401,0.169303,0.178709,0.362121,537.000000,18.000000,19.000000,0.000000,0.000000,0.000000,0.000000,0.000000,0.771271,0.935401,0.169303,0.178709,0.362121,537.000000,18.000000,19.000000,0.000000,0.000000,0.000000,0.000000,0.000000;
#CREDIT:;
#NOTES:
// measure 0
0000
0000
0000
0000
,  // measure 1
0000
0000
0000
0000
,  // measure 2
0000
0000
0000
0000
,  // measure 3
0000
0000
0000
0000
,  // measure 4
0000
0000
0000
0000
,  // measure 5
0000
0000
0000
0000
0001
1000
0000
1000
,  // measure 6
0000
1000
0000
1000
0000
0001
1000
0010
,  // measure 7
1000
0100
1000
0010
1000
0001
0000
0001
,  // measure 8
0000
0001
0000
1000
0001
0100
0001
0010
,  // measure 9
0001
0100
0001
1000
1002
0000
0000
0000
,  // measure 10
0000
0000
0010
0100
,  // measure 11
1000
0013
2001
0000
,  // measure 12
0000
0000
0100
0010
,  // measure 13
0001
0000
3100
0000
1000
0001
0000
0001
,  // measure 14
0000
0001
0000
0001
0000
1000
0001
0010
,  // measure 15
0100
1000
0100
0010
0001
1000
0000
1000
,  // measure 16
0000
1000
0000
1000
0001
0001
1000
0010
,  // measure 17
1000
0000
0100
0000
0010
0000
0010
0000
0001
0000
0100
0000
0010
0000
0000
0100
,  // measure 18
0001
0100
0001
0000
0010
0000
0100
0010
0100
0000
1000
0000
0100
0000
0010
0000
,  // measure 19
0100
0000
0001
0000
0100
0000
1000
0100
1000
0000
0010
0000
0100
0000
0000
0010
,  // measure 20
1000
0010
1000
0000
0100
0000
0010
0100
0010
0000
1000
0000
0010
0000
0001
0000
,  // measure 21
0010
0000
1000
0000
0010
0000
0001
0000
1000
0000
0100
0000
0010
0000
0000
0100
,  // measure 22
1000
0100
1000
0000
0010
0000
0100
0010
0100
0000
0001
0000
0100
0000
0010
0000
,  // measure 23
0100
0000
1000
0000
0100
0000
0001
0100
0001
0000
0010
0000
0100
0000
0000
0010
,  // measure 24
0001
0010
0001
0000
0100
0000
0010
0100
0010
0000
0001
0000
0010
0000
1000
0000
,  // measure 25
0010
0001
0010
1000
0001
0010
0200
0000
,  // measure 26
0320
1000
0100
0001
,  // measure 27
0230
1000
2300
0010
,  // measure 28
0001
0000
0000
0000
0100
0000
0000
0000
3001
0000
0010
0100
0010
0000
0100
0000
,  // measure 29
1000
1000
0001
0001
1000
0010
0200
0000
,  // measure 30
0320
0001
0100
1000
,  // measure 31
0230
0001
0302
0010
,  // measure 32
1000
0000
0100
0000
1003
0100
1000
0100
,  // measure 33
0010
0000
0001
0000
0010
0000
0001
0000
1000
0000
0010
0000
0100
0001
0100
0000
,  // measure 34
0010
0000
1000
0000
0100
0000
0010
0000
0001
0100
0001
0000
0010
0000
0100
0000
,  // measure 35
1000
0010
1000
0000
0100
0000
0010
0000
0001
0000
0100
0000
0010
1000
0010
0000
,  // measure 36
1000
0000
0100
0000
0010
0000
0010
0000
0001
0100
0001
0000
0100
0010
0100
0000
,  // measure 37
0010
1000
0010
0000
1000
0001
1000
0000
0001
0000
0010
0000
0100
1000
0100
0000
,  // measure 38
0010
0000
0001
0000
0100
0000
0010
0000
1000
0100
1000
0000
0010
0000
0100
0000
,  // measure 39
0001
0010
0001
0000
0100
0000
0010
0000
1000
0000
0100
0000
0010
0001
0010
0000
,  // measure 40
0001
0000
0100
0000
0010
0000
0010
0000
1000
0100
1000
0000
0100
0010
0100
0000
,  // measure 41
0010
0001
0010
0000
0001
1000
0001
0000
1001
0000
0010
0000
1001
0000
0010
0000
,  // measure 42
1001
0010
1001
0000
0002
0000
0000
1000
,  // measure 43
1003
0000
1001
0000
1000
0100
0001
0100
,  // measure 44
1000
0010
0001
0010
2000
0000
0000
0001
,  // measure 45
3001
0000
1001
0000
0001
0100
1000
0100
,  // measure 46
0001
0010
1000
0010
0002
0000
0000
1000
,  // measure 47
1003
0000
1001
0000
1000
0010
0100
0001
,  // measure 48
1000
0100
0010
0001
1000
0010
1000
0010
,  // measure 49
0100
0001
0100
0001
1000
1000
0010
0010
,  // measure 50
0100
0100
0001
0001
1000
0100
0001
0100
,  // measure 51
1000
0010
0001
0010
2000
0000
0100
0000
,  // measure 52
0010
0000
3002
0000
0010
0010
0013
0000
,  // measure 53
1001
0000
0002
0010
,  // measure 54
0100
0000
2003
0000
0100
0100
3100
0000
,  // measure 55
1001
0000
0000
0000
0001
0010
0100
0100
,  // measure 56
1000
0001
1000
0001
1000
0001
1000
0001
1000
0000
0010
0000
0100
0000
0100
0000
,  // measure 57
0001
1000
0001
1000
0001
1000
0001
1000
0001
0000
1000
0001
1000
0000
0001
1000
,  // measure 58
0001
0000
1000
0001
1000
0000
0001
1000
0001
0000
0001
0000
1000
0000
0001
0000
,  // measure 59
1001
0000
0000
0000
0001
0000
0010
0000
0100
0000
0010
0001
0010
0000
0001
0000
,  // measure 60
0100
0010
0100
0010
0100
0000
0010
0000
1000
0000
1000
0000
1001
0000
0000
0000
,  // measure 61
1000
0100
1000
0100
1000
0000
0100
0000
0010
0000
0001
0100
0001
0000
0010
0000
,  // measure 62
0100
0000
1000
0000
0001
0000
0001
0000
1000
0001
1000
0000
1001
0000
0000
0000
,  // measure 63
0001
0010
0001
0010
0001
0000
0100
0000
0010
1000
0010
1000
0010
0000
1000
0000
,  // measure 64
0001
1000
0001
1000
0001
0000
1000
0000
0010
0000
0100
0000
0001
0000
0100
0000
,  // measure 65
0001
0010
0001
0010
0001
0000
0100
0000
0010
0000
1000
0100
1000
0000
0010
0000
,  // measure 66
0100
0000
0001
0000
1000
0000
1000
0000
0001
1000
0001
0000
1001
0000
0000
0000
,  // measure 67
0000
0000
0000
0000
1000
0000
0100
0000
0001
0000
0100
0010
0100
0000
0010
0000
,  // measure 68
0001
0100
0001
0000
0100
0000
1000
0000
0100
0000
0001
0000
0100
0000
1000
0000
,  // measure 69
0100
0001
0100
0001
0100
0000
0001
0000
0010
0100
0010
0100
0010
0000
0001
0000
,  // measure 70
0100
0000
0010
0000
1000
0000
0100
0000
1000
0001
1000
0000
1001
0000
0000
0000
,  // measure 71
0001
0010
0001
0010
0001
0000
0100
0000
0010
0100
0010
0100
0010
0000
1000
0000
,  // measure 72
0100
1000
0100
1000
0100
0000
0001
0000
0100
0000
1000
0000
0100
0000
0001
0000
,  // measure 73
0100
1000
0100
1000
0100
0000
1000
0000
0010
0000
0100
0001
0100
0000
0001
0000
,  // measure 74
0010
0000
0010
0000
0100
0000
1000
0000
0001
1000
0001
0000
1000
0000
0001
0000
,  // measure 75
1001
2002
0000
0000
,  // measure 76
0000
0000
3003
0000
;

//---------------dance-single - ----------------
#NOTEDATA:;
#CHARTNAME:;
#STEPSTYPE:dance-single;
#DESCRIPTION:;
#CHARTSTYLE:;
#DIFFICULTY:Medium;
#METER:7;
#RADARVALUES:0.630185,0.611609,0.178709,0.141086,0.000000,435.000000,19.000000,15.000000,0.000000,0.000000,0.000000,0.000000,0.000000,0.630185,0.611609,0.178709,0.141086,0.000000,435.000000,19.000000,15.000000,0.000000,0.000000,0.000000,0.000000,0.000000;
#CREDIT:;
#NOTES:
0000
0000
0000
0000
,
0000
0000
0000
0000
,
0000
0000
0000
0000
,
0000
0000
0000
0000
,
0000
0000
0000
0000
,
0000
0000
0000
0000
1000
0001
0000
0001
,
0000
0001
0000
0001
0000
1000
0001
0010
,
0001
0100
0001
0010
0001
1000
0000
1000
,
0000
1000
0000
0001
1000
0100
1000
0010
,
1000
0100
1000
0001
1002
0000
0000
0000
,
0000
0000
0010
1000
,
0100
1003
2001
0000
,
0000
0000
0010
0001
,
0100
3001
1000
0100
,
0010
0000
0001
0000
1000
0001
1000
1000
,
0001
1000
0001
0000
1000
0000
0010
0000
,
0100
0000
0001
0000
1000
0001
1000
1000
,
0001
1000
1001
0000
0001
0100
0010
0000
,
0010
0100
0001
0010
0100
1000
0010
1000
,
0100
1000
0010
1000
0100
1000
0010
0000
,
0010
1000
0100
0000
0100
0010
0001
0100
,
1000
0100
0001
0010
0001
1000
0001
0000
,
1000
0100
0010
0000
0010
0100
1000
0010
,
0100
0001
0010
0001
0100
0001
0010
0000
,
0010
0001
0100
0010
1000
0100
0001
0100
,
1000
0010
1000
0001
1000
0100
0020
0000
,
0230
0001
0010
1000
,
0320
0001
0032
0010
,
1000
0000
0100
0000
1003
0000
0001
0010
,
0100
1000
0100
0010
0001
0100
0020
0000
,
0230
1000
0010
0001
,
0320
1000
2030
0010
,
0001
0000
0100
0000
3001
0010
0100
1000
,
0001
0100
0010
1000
0001
0010
0100
0000
,
0110
0000
0010
0100
1000
0001
1000
0000
,
0001
1000
0001
0000
1000
0010
0100
0000
,
0110
0000
1001
0000
1000
0010
1000
0010
,
0100
0001
0100
0001
1000
0100
0010
0000
,
0110
0000
0100
0010
0001
1000
0001
0000
,
1000
0001
1000
0000
0001
0010
0100
0000
,
0110
0000
1001
0000
0001
0010
0001
0010
,
0100
1000
0100
1000
1001
0001
1000
0001
,
1000
0001
1000
0000
0002
0000
0000
0100
,
0103
0000
1001
0000
0001
0100
1000
0000
,
1000
0100
0001
0000
2000
0000
0000
0100
,
3100
0000
1001
0000
1000
0100
0001
0000
,
0001
0100
1000
0000
0002
0000
0000
0100
,
0103
0000
1001
0000
0001
0100
1000
0000
,
1000
0100
0001
0000
1000
0100
0010
0001
,
1000
0010
0100
0001
1000
0100
1000
0100
,
0010
0001
0010
0001
1000
1000
0010
0010
,
0100
0100
0001
0001
0001
0000
0100
0000
,
0010
0000
1000
0000
0001
1000
0001
0000
,
1001
0000
1000
0100
,
0010
0000
0001
0000
1000
0001
1000
0000
,
1001
0000
1001
0000
1000
0100
0010
0001
,
1000
0001
1000
0001
1000
0100
0010
0001
,
1000
0001
1000
0001
1000
0010
0100
0001
,
1000
0100
0010
0001
0100
0100
0010
1000
,
1001
0000
0001
0010
0100
1000
0001
0100
,
0010
1000
0001
0010
1000
0010
0001
0000
,
1000
0100
0010
0001
0010
0100
1000
0010
,
0001
0010
1000
0100
0001
0100
1000
0000
,
0001
0010
0100
0010
0001
0100
0010
0100
,
0001
0010
0100
1000
0001
0100
0010
1000
,
0001
0010
0100
1000
0010
1000
0100
0010
,
0001
1000
0001
0010
0100
1000
0001
0000
,
0000
0000
1000
0100
0010
0001
1000
0010
,
0100
0001
1000
1000
0001
0001
1000
1000
,
0001
0100
1000
0100
0001
0010
0100
1000
,
0001
0100
1000
0100
0001
1000
0001
0000
,
1000
0100
0010
0001
1000
0010
0100
0001
,
1000
0001
1000
1000
0001
0001
1000
1000
,
0001
0010
0100
1000
0001
0100
0010
1000
,
0001
0010
0100
1000
0010
0100
0001
1000
,
1001
2002
0000
0000
,
0000
0000
3003
0000
;

//---------------dance-single - ----------------
#NOTEDATA:;
#CHARTNAME:;
#STEPSTYPE:dance-single;
#DESCRIPTION:;
#CHARTSTYLE:;
#DIFFICULTY:Easy;
#METER:5;
#RADARVALUES:0.370855,0.395747,0.112869,0.037623,0.000000,260.000000,12.000000,4.000000,0.000000,0.000000,0.000000,0.000000,0.000000,0.370855,0.395747,0.112869,0.037623,0.000000,260.000000,12.000000,4.000000,0.000000,0.000000,0.000000,0.000000,0.000000;
#CREDIT:;
#NOTES:
0000
0000
0000
0000
,
0000
0000
0000
0000
,
0000
0000
0000
0000
,
0000
0000
0000
0000
,
0000
0000
0000
0000
,
0000
0000
0000
0001
,
0000
0001
0000
0001
,
1000
0001
0000
1000
,
0000
1000
0001
1000
,
0001
1000
2000
0000
,
0000
0000
0000
0000
,
0000
3000
0002
0000
,
0000
0000
0000
0000
,
0000
0003
1000
0100
,
0010
0001
0010
0100
,
1000
0000
0001
0100
,
0010
1000
0010
0100
,
0001
0000
1000
0100
,
0010
0001
1000
1000
,
0001
0001
1000
0100
,
0010
0001
1000
1000
,
0001
1000
0001
0000
1000
0000
0100
0000
,
0010
0001
1000
0010
,
0100
0001
1000
0100
,
0010
0000
0001
0000
1000
0001
1000
0000
,
0001
1000
0001
0000
0001
0000
0010
0000
,
0100
0010
0001
0100
,
0010
0010
1000
0001
,
0010
0000
0100
0000
0010
0001
1000
0010
,
0100
0001
1000
0100
,
0010
0100
1000
1000
,
0010
0010
0100
0001
,
0010
0000
0100
0000
0010
0001
0010
0000
,
0100
1000
0100
0000
0010
0000
0001
0000
,
1000
0010
0100
0100
,
0010
0010
1000
0100
,
0010
0001
0100
0010
,
0100
0001
0010
0010
,
0100
1000
0010
0010
,
1000
1000
0100
0010
,
0001
0100
0010
1000
,
0001
1000
1001
0000
,
0000
0000
1001
0000
,
0000
0000
0000
0000
0001
0010
0100
0000
,
0010
0100
1000
0000
1001
0000
0000
0000
,
0000
0000
0000
0000
1000
0010
0100
0000
,
0010
0100
0001
0000
1001
0000
0000
0000
,
0000
0000
0000
0000
0001
0010
0100
0000
,
0010
0100
1000
0000
1000
0010
0100
0000
,
0010
0100
0001
0000
0001
0000
0010
0000
,
0100
1000
0100
0010
,
0001
1000
1001
0000
,
0000
0000
1000
1000
,
1001
0000
0000
0000
,
0000
0000
0001
0001
,
1001
0000
0001
0010
,
0100
1000
1000
0100
,
0010
0001
1000
0010
,
0100
0001
1000
0001
,
1001
0001
0010
0100
,
1000
0000
0100
1000
0100
0000
1100
0000
,
0000
1000
0010
0100
,
0001
0000
0100
0001
0100
0000
0101
0000
,
0001
0010
0100
0010
,
0001
0100
0010
0100
,
0001
0010
0100
1000
,
0001
0000
1000
0001
1000
0000
1001
0000
,
0000
1000
0010
0100
,
0001
0000
0100
0001
0100
0000
0001
0100
,
0001
0001
0010
0100
,
1000
0000
0100
1000
0100
0000
1000
0100
,
1000
1000
0010
0100
,
0001
0000
0100
0001
0100
0000
0001
0100
,
0001
0100
0010
1000
,
0001
0010
0100
1000
,
0001
2002
0000
0000
,
0000
0000
3003
0000
;
