#TITLE:SPOONYRIDE.MOD;
#SUBTITLE:;
#ARTIST:Dasyati;
#TITLETRANSLIT:;
#SUBTITLETRANSLIT:;
#ARTISTTRANSLIT:;
#GENRE:;
#CREDIT:www.youtube.com/watch?v=NpXfkkT5nI4;
#BANNER:spoony-banner.png;
#BACKGROUND:spoony-bg.png;
#LYRICSPATH:;
#CDTITLE:cdtitle.png;
#MUSIC:SPOONYRIDE.ogg;
#OFFSET:0.000000;
#SAMPLESTART:27.099930;
#SAMPLELENGTH:12.899992;
#SELECTABLE:YES;
#DISPLAYBPM:*;
#BPMS:0.000000=150.054001
,28.000000=300.108002
,90.000000=150.054001
,91.000000=300.108002
,263.000000=150.054001
,265.000000=300.108002
,277.000000=150.054001
,279.000000=300.108002
,309.000000=150.054001
,310.000000=75.027000
,318.000000=150.054001
,350.000000=300.108002
,502.000000=600.216003
,502.500000=550.000000
,503.000000=499.999969
,503.500000=450.000000
,504.000000=400.000000
,504.500000=350.000000
,505.000000=300.000000
,505.500000=249.999985
,506.000000=200.000000
,506.500000=150.000000
,507.000000=100.000000
,507.500000=50.000000
,507.750000=18.000000
,508.000000=600.216003
;
#STOPS:28.000000=3.130000
;
#BGCHANGES:;
#KEYSOUNDS:;
#ATTACKS:;

//---------------dance-single - Steps By CMG-UTOPIA----------------
#NOTES:
     dance-single:
     Steps By CMG-UTOPIA:
     Beginner:
     2:
     0.146695,0.199801,0.031841,0.063682,0.000000,117.000000,4.000000,8.000000,0.000000,0.000000,0.000000,0.146695,0.199801,0.031841,0.063682,0.000000,117.000000,4.000000,8.000000,0.000000,0.000000,0.000000:
0000
0000
0000
0000
,
0000
0000
0000
0000
,
1000
0000
0000
0000
,
1000
0000
0000
0000
,
0001
0000
0000
0000
,
0001
0000
0000
0000
,
1000
0000
0000
0000
,
0001
0000
0000
0000
,
0001
0000
0000
0000
,
0001
0000
0000
0000
,
0001
0000
0000
0000
,
1000
0000
0000
0000
,
1000
0000
0000
0000
,
1000
0000
0000
0000
,
1000
0000
0000
0000
,
0010
0000
0000
0000
,
0010
0000
0000
0000
,
0010
0000
0000
0000
,
0010
0000
0000
0000
,
0100
0000
0000
0000
,
0100
0000
0000
0000
,
0100
0000
0000
0000
,
0100
0000
0200
0300
,
0000
0000
0000
0100
,
0000
0000
0000
0100
,
0000
0000
0000
0100
,
0000
0000
0000
0200
,
0000
0000
0000
0000
,
0000
0000
0000
0000
,
0000
0300
0000
0000
,
0000
0000
0000
0010
,
0000
0000
0000
0010
,
0000
0000
0000
0010
,
0000
0000
0000
0010
,
0000
0000
0000
0020
,
0000
0000
0000
0000
,
0000
0000
0000
0030
,
0000
0000
0000
0000
,
0000
0000
0000
0000
,
0000
1000
0000
1000
,
0000
1000
0000
0000
,
0000
0001
0000
0001
,
0000
0001
0000
0001
,
0000
0000
0000
0000
,
0000
0000
0000
1000
,
0000
0000
0000
0001
,
0000
0000
0000
1000
,
0000
0000
0000
0001
,
0000
0000
0000
1000
,
0000
0000
0000
0001
,
0000
0000
0000
1000
,
0000
0000
0000
0001
,
0000
0000
0000
0000
,
0000
1001
0000
0000
,
0000
0000
0000
0100
,
0000
0000
0000
0010
,
0000
0000
0000
0100
,
0000
0000
0000
0010
,
0000
0000
0000
0100
,
0000
0000
0000
0010
,
0000
0000
0000
0220
,
0000
0000
0000
0330
,
0000
0000
0000
1000
,
0000
0000
0000
1000
,
0000
0000
0000
1000
,
0000
0000
0000
1000
,
1000
1000
0000
0000
,
0000
1000
0000
0000
,
0000
1000
0000
0000
,
0000
1000
1000
1000
,
0000
0000
0000
0001
,
0000
0000
0000
1000
,
0000
0000
0000
0001
,
0000
0000
0000
0100
,
0000
0000
0000
0010
,
0000
0000
0000
0100
,
0000
0000
0000
0020
,
0000
0030
0010
0000
,
0010
0000
0010
0000
,
0010
0000
0010
0000
,
0000
0000
0100
0000
,
0000
0000
0001
0000
,
0000
0000
1000
0000
,
0000
0000
0001
0000
,
0000
0000
0100
0000
,
0000
0000
0010
0000
,
0000
0000
1000
0000
,
0000
0000
0010
0000
,
0000
0000
0010
0000
,
0000
0000
0010
0000
,
0000
0000
0010
0000
,
0000
0000
0020
0000
,
0000
0000
0000
0000
,
0000
0000
0000
0000
,
0030
0000
0000
0000
,
0000
0000
0100
0000
,
0000
0000
0100
0000
,
0000
0000
0100
0000
,
0000
0000
0100
0000
,
0000
0000
0200
0000
,
0000
0000
0000
0000
,
0000
0000
0300
0000
,
0000
0000
0000
0000
,
0000
0000
0000
0000
,
0001
0000
0001
0000
,
0001
0000
0000
0000
,
1000
0000
1000
0000
,
1000
0000
1000
0000
,
0000
0000
0000
0000
,
0000
0000
0001
0000
,
0000
0000
1000
0000
,
0000
0000
0001
0000
,
0000
0000
1000
0000
,
0000
0000
0001
0000
,
0000
0000
1000
0000
,
0000
0000
0001
0000
,
0000
0000
1000
0000
,
0000
0000
0000
0000
,
1001
0000
0000
0000
,
0000
0000
0010
0000
,
0000
0000
0100
0000
,
0000
0000
0010
0000
,
0000
0000
0100
0000
,
0000
0000
0010
0000
,
0000
0000
0100
0000
,
0000
0000
0110
0000
;

//---------------dance-single - ----------------
#NOTES:
     dance-single:
     Steps By CMG-UTOPIA:
     Easy:
     3:
     0.242217,0.353831,0.119403,0.199005,0.000000,173.000000,15.000000,25.000000,0.000000,0.000000,0.000000,0.242217,0.353831,0.119403,0.199005,0.000000,173.000000,15.000000,25.000000,0.000000,0.000000,0.000000:
0000
0000
0000
0000
,
0000
0000
0000
0000
,
1000
0000
0000
0000
,
1001
0000
0000
0000
,
0001
0000
0000
0000
,
1001
0000
0000
0000
,
0110
0000
0000
0000
,
1001
0000
0000
0000
,
1000
0000
0000
0000
,
0100
0000
0000
0000
,
0010
0000
0000
0000
,
0001
0000
0000
0000
,
1000
0000
0000
0000
,
0010
0000
0000
0000
,
0100
0000
0000
0000
,
0001
0000
0000
0000
,
0010
0000
0000
0000
,
0100
0000
0000
0000
,
1000
0000
0000
0000
,
0001
0000
0000
0000
,
0100
0000
0000
0000
,
0010
0000
0000
0000
,
0220
0000
0330
1000
,
0000
0001
0000
1000
,
0000
0000
0000
0001
,
0000
1000
0000
0001
,
0000
0000
0000
2002
,
0000
0000
0000
0000
,
0000
0000
0000
0000
,
0000
3003
0000
0000
,
0000
0000
0000
0100
,
0000
0010
0000
0100
,
0000
0000
0000
0010
,
0000
0100
0000
0010
,
0000
0000
0000
0220
,
0000
0000
0000
0000
,
0000
0000
0000
0330
,
0000
0000
0000
0100
,
0000
0010
0000
1000
,
0000
1000
0000
1000
,
0000
1000
0000
0001
,
0000
0001
0000
0001
,
0000
0001
0000
2002
,
0000
0000
0000
3003
,
0000
0000
0000
0001
,
0000
0010
0000
0100
,
0000
1000
0000
0100
,
0000
0010
0000
0001
,
0000
0000
0000
1000
,
0000
0010
0000
0100
,
0000
0010
0000
2000
,
0000
0000
0000
0000
,
0000
0000
0000
0000
,
0000
3001
0000
0000
,
0000
0000
0000
0001
,
0000
0010
0000
0100
,
0000
0000
0000
1000
,
0000
0100
0000
0010
,
0000
0001
0000
2000
,
0000
0000
0000
0000
,
0000
0000
0000
3002
,
0000
0000
0000
0000
,
0000
0003
0000
1000
,
0000
0100
0000
0001
,
0000
0100
0000
1000
,
0000
0001
0000
1000
,
1000
1000
0000
0010
,
0000
0001
0000
0010
,
0000
1000
0000
0001
,
0000
1000
1000
1000
,
0000
0001
0000
0100
,
0000
0001
0000
1000
,
0000
0001
0000
0010
,
0000
0001
0000
1000
,
0000
0010
0000
0100
,
0000
0010
0000
1000
,
0000
0001
0000
2002
,
0000
3003
1000
0100
,
0001
0010
1000
0100
,
0001
0010
1000
0000
,
0100
0000
0010
0000
,
0001
0000
1000
0000
,
0010
0000
0100
0000
,
0001
0000
1000
0000
,
0100
0000
0001
0000
,
0010
0000
1000
0000
,
0010
0000
0001
0000
,
0100
0000
1000
0000
,
0010
0000
1000
0000
,
0000
0000
0001
0000
,
0010
0000
0001
0000
,
0000
0000
2002
0000
,
0000
0000
0000
0000
,
0000
0000
0000
0000
,
3003
0000
0001
0000
,
1000
0000
0010
0000
,
1000
0000
0010
0000
,
0000
0000
0100
0000
,
0001
0000
0100
0000
,
0000
0000
0220
0000
,
0000
0000
0000
0000
,
0000
0000
0330
0000
,
0000
0000
0010
0000
,
1000
0000
0100
0000
,
0010
0000
0001
0000
,
0010
0000
0100
0000
,
0010
0000
0100
0000
,
0001
0000
0202
0000
,
0000
0000
0000
0000
,
0303
0000
0001
0000
,
0010
0000
0100
0000
,
1000
0000
0001
0000
,
1000
0000
0100
0000
,
0000
0000
0100
0000
,
1000
0000
0001
0000
,
0010
0000
0022
0000
,
0000
0000
0000
0000
,
0000
0000
0000
0000
,
0033
0000
0010
0000
,
0001
0000
0100
0000
,
0010
0000
1000
0000
,
0000
0000
1000
0000
,
0010
0000
0100
0000
,
0001
0000
2002
0000
,
0000
0000
0000
0000
,
3003
0000
0220
0000
,
0000
0000
0000
0000
,
0330
0000
0000
0000
;

//---------------dance-single - ----------------
#NOTES:
     dance-single:
     Steps By CMG-UTOPIA:
     Medium:
     7:
     0.536745,0.724378,0.262687,0.294527,0.000000,402.000000,33.000000,37.000000,42.000000,0.000000,0.000000,0.536745,0.724378,0.262687,0.294527,0.000000,402.000000,33.000000,37.000000,42.000000,0.000000,0.000000:
0000
0000
0000
0000
,
0000
0000
0000
0000
,
2001
0010
0001
3010
,
2100
0010
0100
3010
,
1020
0001
1000
0031
,
0102
0010
0100
0013
,
0120
0001
1000
0130
,
1100
MM00
0100
1000
,
0100
1000
0001
0000
,
0001
0010
0001
0100
,
0010
0100
0010
0M00
,
00M0
M000
001M
1000
,
0010
0100
0001
0000
,
0001
0010
0001
1000
,
0001
1000
0100
M000
,
0M00
00M0
010M
1000
,
0010
0100
0001
0000
,
0001
0010
0100
1000
,
0100
0010
0001
00M0
,
000M
0M00
M010
0001
,
0100
0001
0010
0000
,
0100
1000
0010
0100
,
0001
1000
1200
1300
,
0010
0100
0001
0010
,
0100
1000
0001
0100
,
0010
1000
0100
0010
,
0001
1000
0010
0200
,
0000
0001
0000
0010
,
0000
1000
0000
0310
,
0000
2020
0000
3030
,
M0M0
0M0M
0000
1000
,
0100
0001
0100
1000
,
0010
0001
0010
1000
,
0100
0010
0001
0010
,
0100
1000
0001
0200
,
0000
0001
0000
0010
,
0000
1000
0000
0010
,
0300
0110
0000
1010
,
0000
0101
0000
0001
,
0010
0100
0010
0100
,
0010
0100
0010
0001
,
0100
0010
0100
0010
,
0100
0010
0100
0002
,
0000
0010
0000
0100
,
0000
1000
0003
1000
,
0000
0010
0000
0000
0100
0000
0000
0001
,
0000
0010
0100
1000
,
0001
1000
0002
1000
,
0003
1000
0001
0100
,
0010
1000
0010
0100
,
0001
0010
0200
1000
,
0000
0010
0000
0001
,
0000
0010
0000
1300
,
0000
2200
0000
3300
,
MM00
00MM
0000
0001
,
0010
0001
2000
0010
,
0000
3010
1000
0001
,
0100
0001
1000
0100
,
1000
0001
2002
0000
,
0000
0000
0000
0000
,
0000
0000
3003
0220
,
0000
0000
0000
0000
,
0000
0330
0000
1000
,
0100
0001
0100
1000
,
0010
0001
0010
1000
,
0001
0100
0010
1010
,
1010
1000
0001
0010
,
0001
1000
0001
0100
,
0001
1000
0010
0100
,
0001
0011
0011
0010
,
0100
1000
0100
0010
,
0001
1000
0010
0100
,
0001
0010
0100
1000
,
0001
0100
0010
1000
,
0100
1000
0001
0100
,
0001
1000
0010
1000
,
0001
0010
0001
1000
,
0001
0000
0201
0000
0301
0010
0100
1000
,
1000
0100
0010
0001
0001
1000
0010
0100
,
0100
0010
1000
0001
0001
0000
0010
0000
,
0100
1100
1000
0010
,
0100
0101
0001
1000
,
0010
0110
0100
0001
,
0010
0011
0001
1000
,
1100
1001
0001
0010
,
0110
1100
1000
0010
,
1010
0000
0110
0000
0100
0010
0100
0010
,
1000
0001
1000
0001
0100
0000
0010
0000
,
1000
0100
0010
0001
,
1000
0010
0100
0001
,
0010
0100
1000
0001
,
0100
0010
2000
0000
,
0100
0000
0010
0000
,
0001
0000
3010
0000
,
0220
0000
0330
0MM0
,
M00M
0000
0010
0100
,
0001
0010
0100
1000
,
0100
0010
0001
1000
,
0010
0100
0001
0100
,
0010
1000
0002
0000
,
0010
0000
0100
0000
,
1000
0000
0100
0000
,
0010
0003
0001
0010
,
0100
0010
0001
0100
,
0010
0100
0001
1000
,
0002
1000
0003
0100
,
0001
0010
0100
0010
,
0001
1000
0020
0000
,
0100
0000
0001
0000
,
1000
0000
0030
0000
1000
0000
0000
0100
,
0000
0000
0010
0000
0000
0001
0000
0000
,
0010
0100
1000
0010
,
0100
0002
0010
0000
,
0013
0001
0010
0100
,
1000
0001
1000
0001
,
0010
0100
2000
0000
,
0010
0000
0100
0000
,
0001
0000
3010
0000
,
2002
0000
3003
M00M
,
0MM0
0000
1000
0001
,
0010
0200
1000
0000
,
1300
0000
0100
0000
1000
0000
0000
0001
,
0000
0000
0100
0000
0000
0010
0000
0000
,
0100
0001
2000
0000
,
0100
0000
0010
0000
,
3001
0000
2002
0000
,
0000
0000
0000
0000
0000
0000
0000
0000
0000
0000
0000
0000
0000
0000
0000
0000
0000
0000
0000
0000
0000
0000
0000
0000
0000
0000
0000
0000
0000
0000
0000
0000
0000
0000
0000
0000
0000
0000
0000
0000
0000
0000
0000
0000
0000
0000
0000
0000
0000
0000
0000
0000
0000
0000
0000
0000
0000
0000
0000
0000
0000
0000
0000
0000
0000
0000
0000
0000
0000
0000
0000
0000
0000
0000
0000
0000
0000
0000
0000
0000
0000
0000
0000
0000
0000
0000
0000
0000
0000
0000
0000
0000
0000
0000
0000
0000
0000
0000
0000
0000
0000
0000
0000
0000
0000
0000
0000
0000
0000
0000
0000
0000
0000
0000
0000
0000
0000
0000
0000
0000
0000
0000
0000
0000
0000
0000
0000
0000
0000
0000
0000
0000
0000
0000
0000
0000
0000
0000
0000
0000
0000
0000
0000
0000
0000
0000
0000
0000
0000
0000
0000
0000
0000
0000
0000
0000
0000
0000
0000
0000
0000
0000
0000
0000
0000
0000
0000
0000
0000
0000
0000
0000
0000
0000
0000
0000
0000
0000
0000
0000
0000
0000
0000
0000
0000
0000
0000
0000
0000
0000
3003
0000
,
2002
0000
0000
0000
,
0000
0000
3003
M00M
,
M00M
0MM0
0MM0
M00M
,
M00M
0000
0000
0000
;

//---------------dance-single - ----------------
#NOTES:
     dance-single:
     Steps By CMG-UTOPIA:
     Hard:
     10:
     0.750533,1.000000,0.199005,0.175124,0.111443,613.000000,25.000000,22.000000,18.000000,0.000000,0.000000,0.750533,1.000000,0.199005,0.175124,0.111443,613.000000,25.000000,22.000000,18.000000,0.000000,0.000000:
// measure 0
0000
0000
0000
0000
,  // measure 1
0000
0000
0000
0000
,  // measure 2
1001
0000
0000
1000
0000
0000
0010
0000
0000
0100
0000
0000
0001
0000
0011
0000
,  // measure 3
0011
0000
0000
0001
0000
0000
0100
0000
0000
0010
0000
0000
1000
0000
0100
0000
,  // measure 4
1100
0000
0000
1000
0000
0000
0001
0000
0000
0010
0000
0000
0001
0000
0101
0000
,  // measure 5
0101
0000
0000
0100
0000
0000
0010
0000
0000
1000
0000
0000
0100
0000
0010
0000
,  // measure 6
0110
0000
0000
0100
0000
0000
1000
0000
0000
0010
0000
0000
1000
0000
1010
0000
,  // measure 7
2020
3030
0000
0000
0000
0000
0000
0000
0000
0000
0000
0000
0000
0000
0000
0000
0000
0000
0000
0000
0000
0000
0000
0000
0000
0000
0000
0000
0000
0000
0000
0000
0000
0000
0000
0000
0000
0000
0000
0000
0000
0000
0000
0000
0000
0000
0000
0000
0010
0000
0000
0000
0000
0000
0000
0000
0000
0000
0000
0000
0000
0000
0000
0000
0000
0000
0000
0000
0000
0000
0000
0000
0000
0000
0000
0000
0000
0000
0000
0000
0000
0000
0000
0000
0000
0000
0000
0000
0000
0000
0000
0000
0000
0000
0000
0000
1000
0000
0000
0000
0000
0000
0000
0000
0000
0000
0000
0000
0000
0000
0000
0000
0000
0000
0000
0000
0000
0000
0000
0000
0000
0000
0000
0000
0000
0000
0000
0000
0000
0000
0000
0000
0000
0000
0000
0000
0000
0000
0000
0000
0000
0000
0000
0000
0100
0000
0000
0000
0000
0000
0000
0000
0000
0000
0000
0000
0000
0000
0000
0000
0000
0000
0000
0000
0000
0000
0000
0000
0000
0000
0000
0000
0000
0000
0000
0000
0000
0000
0000
0000
0000
0000
0000
0000
0000
0000
0000
0000
0000
0000
0000
0000
,  // measure 8
0010
0001
1000
0010
,  // measure 9
0100
0001
0010
0100
,  // measure 10
1000
0001
0100
0010
,  // measure 11
1000
0100
1000
0001
,  // measure 12
0100
0001
1000
0010
,  // measure 13
1000
0001
0010
0001
,  // measure 14
0100
0010
1000
0010
,  // measure 15
0100
0000
0001
1000
0000
0100
0000
0010
,  // measure 16
0000
0001
0100
0001
,  // measure 17
1000
0000
0010
0100
0000
0010
0000
1000
,  // measure 18
0000
0100
0010
0001
,  // measure 19
1000
0000
0001
0010
0000
0100
0000
1000
,  // measure 20
0000
0100
1000
0010
,  // measure 21
0100
0000
0001
1000
0000
0001
0000
0010
,  // measure 22
0001
0000
0000
0000
0000
0000
0000
0000
0000
0000
0000
0000
0000
0000
0000
0000
0000
0000
0000
0000
0000
0000
0000
0000
0000
0000
0000
0000
0000
0000
0000
0000
0000
0000
0000
0000
0000
0000
0000
0000
0000
0000
0000
0000
0000
0000
0000
0000
1000
0000
0000
0000
0000
0000
0000
0000
0000
0000
0000
0000
0000
0000
0000
0000
0000
0000
0000
0000
0000
0000
0000
0000
0000
0000
0000
0000
0000
0000
0000
0000
0000
0000
0000
0000
0000
0000
0000
0000
0000
0000
0000
0000
0000
0000
0000
0000
2100
0000
0000
0000
0000
0000
0000
0000
0000
0000
0000
0000
0000
0000
0000
0000
0000
0000
0000
0000
0000
0000
0000
0000
0M00
0000
0000
0000
0000
0000
0000
0000
0000
0000
0000
0000
0000
0000
0000
0000
0000
0000
0000
0000
0000
0000
3000
0000
1100
0000
0000
0000
0000
0000
0000
0000
0000
0000
0000
0000
0000
0000
0000
0000
0000
0000
0000
0000
0000
0000
0000
0000
0000
0000
0000
0000
0000
0000
0000
0000
0000
0000
0000
0000
0000
0000
0000
0000
0000
0000
0000
0000
0000
0000
0000
0000
,  // measure 23
0100
1000
0010
0100
,  // measure 24
0001
0010
0100
1000
,  // measure 25
0001
0100
0010
1000
,  // measure 26
0010
0100
0001
0010
,  // measure 27
0100
1000
0001
0100
,  // measure 28
0010
1000
0100
0010
,  // measure 29
0001
0000
0022
0000
0033
0000
0001
0010
,  // measure 30
0100
1000
0001
0010
0100
1000
0001
0000
,  // measure 31
0100
0001
1000
0100
,  // measure 32
1000
0001
0010
0001
,  // measure 33
1000
0010
1000
0001
,  // measure 34
0100
0010
0100
0001
,  // measure 35
0010
0100
0010
0001
,  // measure 36
1000
0100
0010
0100
,  // measure 37
1000
0000
0001
0000
0100
0000
0010
1000
,  // measure 38
0001
0100
0010
1000
0001
0100
0010
0000
,  // measure 39
1000
0100
1000
0010
,  // measure 40
0100
0001
0010
0001
,  // measure 41
0100
0010
1000
0100
,  // measure 42
0010
0001
1000
0010
,  // measure 43
0100
0010
1000
0100
,  // measure 44
0010
0001
1000
1001
,  // measure 45
1000
0001
0000
0001
0100
0000
0100
0010
,  // measure 46
0000
0010
1000
0000
1010
0000
0010
0000
,  // measure 47
0100
0001
0010
0100
,  // measure 48
0010
0001
0100
0010
,  // measure 49
1000
0001
0010
0001
,  // measure 50
0100
0010
1000
0100
,  // measure 51
1000
0001
0010
0001
,  // measure 52
1000
0010
1000
0001
,  // measure 53
0100
0000
0220
0000
0330
0000
0100
0001
,  // measure 54
1000
0010
0100
0001
1000
0010
0100
0000
,  // measure 55
0001
0010
0001
0100
,  // measure 56
0010
1000
0100
1000
,  // measure 57
0001
0100
0010
1000
,  // measure 58
0100
0010
0001
0010
,  // measure 59
0100
1000
0001
0100
,  // measure 60
0010
1000
0010
0200
,  // measure 61
0001
0001
0010
0010
,  // measure 62
0001
0001
0010
0310
,  // measure 63
0100
0010
0100
0000
0100
0001
0100
0000
,  // measure 64
0100
0010
0100
0000
0001
0000
0010
0000
,  // measure 65
0001
0010
0001
0000
0001
1000
0001
0100
,  // measure 66
0001
0100
0001
0000
1000
0001
1000
0000
,  // measure 67
1000
0010
1000
0000
1000
0100
1000
0000
,  // measure 68
0010
0000
0100
0000
0010
1000
0010
0000
,  // measure 69
0010
0100
0010
1000
0001
1000
0010
0000
,  // measure 70
0010
0100
0001
0000
0001
0100
0010
0000
,  // measure 71
0010
0100
0010
0000
1000
0000
0100
0000
,  // measure 72
0010
0001
1000
0000
1000
0001
0010
0000
,  // measure 73
0010
0100
1000
0000
0001
0000
0100
0000
,  // measure 74
0010
1000
0100
0000
0100
1000
0010
0000
,  // measure 75
0010
1000
0001
0000
0010
0000
0100
0000
,  // measure 76
1000
0001
1000
0000
0001
1000
0001
0000
,  // measure 77
0100
0000
0000
0000
0000
0000
0000
0000
0000
0000
0000
0000
0000
0000
0000
0000
0000
0000
0000
0000
0000
0000
0000
0000
0000
0000
0000
0000
0000
0000
0000
0000
0000
0000
0000
0000
0000
0000
0000
0000
0000
0000
0000
0000
0000
0000
0000
0000
0120
0000
0000
0000
0000
0000
0000
0000
0000
0000
0000
0000
0000
0000
0000
0000
0000
0000
0000
0000
0000
0000
0000
0000
0M00
0000
0000
0000
0000
0000
0000
0000
0000
0000
0000
0000
0000
0000
0000
0000
0000
0000
0000
0000
0000
0000
0030
0000
0110
0000
0000
0000
0000
0000
0000
0000
0000
0000
0000
0000
0100
0000
0000
0000
0000
0000
0000
0000
0000
0000
0000
0000
0010
0000
0000
0000
0000
0000
0000
0000
0000
0000
0000
0000
1000
0000
0000
0000
0000
0000
0000
0000
0000
0000
0000
0000
0001
0000
0000
0000
0000
0000
0000
0000
0000
0000
0000
0000
0100
0000
0000
0000
0000
0000
0000
0000
0000
0000
0000
0000
1000
0000
0000
0000
0000
0000
0000
0000
0000
0000
0000
0000
0100
0000
0000
0000
0000
0000
0000
0000
0000
0000
0000
0000
,  // measure 78
0001
0010
1000
0010
0001
0100
0020
0000
1030
0100
1000
0001
0100
0001
1000
0010
,  // measure 79
1000
0001
0010
0001
0100
0010
2000
0000
3001
0000
0010
0000
0100
0000
1000
0000
,  // measure 80
0001
0100
0010
1000
0100
0010
0001
1000
,  // measure 81
0010
0100
0002
0000
0013
0001
0100
0010
,  // measure 82
1000
0100
1000
0010
0100
0001
0010
0001
,  // measure 83
0100
0010
2000
0000
3001
0000
0101
0100
,  // measure 84
0010
1000
0100
0010
0001
0000
0011
0001
,  // measure 85
0010
0100
2000
0000
3010
0000
0110
0100
,  // measure 86
0001
0000
0010
0000
0100
0000
1000
0000
0001
0000
1000
0100
1000
0000
0001
0010
,  // measure 87
0001
0000
1000
0010
1000
0000
0001
0100
0001
0000
0000
0000
0010
0000
0000
0000
,  // measure 88
0001
0100
0010
1000
,  // measure 89
0100
1000
0010
0100
,  // measure 90
0001
0010
0100
1000
,  // measure 91
0100
0010
0001
0100
,  // measure 92
1000
0100
0001
0010
,  // measure 93
1000
0010
0001
1000
,  // measure 94
2020
0000
3030
0000
1000
0001
0010
0001
,  // measure 95
1000
0001
0010
0001
1000
0000
0100
0000
,  // measure 96
1000
0010
0100
0001
,  // measure 97
0010
0001
1000
0010
,  // measure 98
1000
0001
0100
0001
,  // measure 99
1000
0100
1000
0010
,  // measure 100
0100
0001
0010
0100
,  // measure 101
1000
0001
0100
0010
,  // measure 102
0100
0000
0001
0000
0010
0001
1000
0001
,  // measure 103
0010
0001
1000
0001
0010
0000
0001
0000
,  // measure 104
0100
0010
1000
0100
,  // measure 105
0010
0100
1000
0010
,  // measure 106
0100
0001
0010
0100
,  // measure 107
1000
0001
0200
0001
,  // measure 108
0001
1000
1000
0010
,  // measure 109
0010
0000
0301
0000
0101
0000
0001
0100
,  // measure 110
0000
0010
0100
0000
0001
0010
0000
0100
,  // measure 111
0010
1000
0100
0010
0001
0000
0100
0000
,  // measure 112
0010
1000
0100
0010
,  // measure 113
0001
1000
0010
0100
,  // measure 114
0010
1000
0100
1000
,  // measure 115
0001
0100
0001
1000
,  // measure 116
0010
1000
0001
0010
,  // measure 117
0001
1000
0010
0100
,  // measure 118
0220
0000
0330
0000
0010
1000
0100
1000
,  // measure 119
0010
1000
0100
1000
0010
0000
0100
0000
,  // measure 120
0001
0010
0100
0010
,  // measure 121
0001
0000
1000
0000
1100
0000
1000
0100
,  // measure 122
0000
0010
0001
0000
1000
0010
0000
0100
,  // measure 123
0001
0010
0100
1000
0002
0000
0100
0000
,  // measure 124
0100
0010
0010
1000
,  // measure 125
1003
0001
2002
0000
,  // measure 126
0000
0000
0000
0000
,  // measure 127
3003
M000
000M
0M00
00M0
M000
000M
0M00
,  // measure 128
00M0
M000
000M
0M00
00M0
M000
000M
0M00
,  // measure 129
00M0
0000
0000
0000
;
