#TITLE:SPICY PIECE;
#SUBTITLE:(Ryu☆Remix);
#ARTIST:Ryu☆;
#TITLETRANSLIT:;
#SUBTITLETRANSLIT:;
#ARTISTTRANSLIT:;
#CREDIT:;
#BANNER:SPICY PIECE (Ryu Remix).png;
#BACKGROUND:SPICY PIECE (Ryu Remix)-bg.PNG;
#LYRICSPATH:;
#CDTITLE:;
#MUSIC:SPICY PIECE (Ryu Remix).mp3;
#OFFSET:-3.090;
#SAMPLESTART:25.510;
#SAMPLELENGTH:10.660;
#SELECTABLE:YES;
#DISPLAYBPM:90.000:180.000;
#BPMS:0.000=156.000,8.000=180.000,9.000=282.857,20.000=179.500,49.000=257.143,55.000=514.286,63.000=180.000,176.000=45.000,178.000=90.000,212.000=180.000;
#STOPS:63.000=3.000
;
#BGCHANGES:;

//---------------dance-single - ----------------
#NOTES:
     dance-single:
     :
     Hard:
     9:
     0.643,0.631,0.348,0.238,0.161: // measure 1
0000
1000
0100
0010
,  // measure 2
0001
0000
0100
0000
0010
0000
1000
0000
0001
1000
0001
1000
0001
1000
0001
1000
,  // measure 3
0000
0000
0000
2002
0000
0000
0000
0000
0000
0000
0000
0000
0000
0000
0000
0000
,  // measure 4
0000
0000
0000
0000
,  // measure 5
0000
0000
3003
0000
,  // measure 6
1001
0000
0001
0010
0100
0000
1100
0000
,  // measure 7
1000
0000
0000
0001
0000
0000
0100
0000
0010
0000
1000
0000
0100
0000
0010
0000
,  // measure 8
0100
0000
0000
0000
0010
0000
0001
0000
1000
0000
0000
0001
0100
0000
0010
0000
,  // measure 9
1000
0000
0000
0001
0000
0000
1000
0000
0010
0000
0100
0000
0001
0000
1000
0000
,  // measure 10
0100
0100
1001
0000
0010
0010
1001
0000
,  // measure 11
0010
1000
0101
0000
0010
0001
1100
0000
,  // measure 12
0001
0100
1000
0100
0001
0100
0010
1000
,  // measure 13
2002
0000
0000
0000
,  // measure 14
0000
0000
0000
0000
,  // measure 15
0000
0000
0000
0000
,  // measure 16
0000
0000
0000
3003
,  // measure 17
1001
0000
0110
0000
1000
0001
1001
0000
,  // measure 18
1000
0100
1000
0001
0100
0010
0100
0000
,  // measure 19
0010
0100
0001
1000
0100
0010
0001
0001
,  // measure 20
0001
0100
0010
1000
0100
0010
0100
0000
,  // measure 21
0010
0000
0001
0000
1000
0000
0001
0000
0100
0001
0100
0000
0001
0000
0000
0000
,  // measure 22
1000
0001
0100
0010
1000
0100
0010
0100
,  // measure 23
1000
0001
0010
0100
0010
0001
1000
0000
,  // measure 24
0001
1000
0100
0010
0001
1000
0010
0100
,  // measure 25
0110
1001
0220
0330
,  // measure 26
0001
0100
0010
0100
0001
1000
0100
0010
,  // measure 27
0001
0000
0010
0000
0100
0000
0010
0000
0001
0000
1000
0001
0000
1000
0001
0000
,  // measure 28
1000
0010
0100
0001
1000
1000
0001
0001
,  // measure 29
1000
0100
1000
0000
0001
0000
0100
0000
0010
0000
0100
0010
0000
0100
0010
0000
,  // measure 30
1000
0010
1000
0010
0100
0001
0100
0001
,  // measure 31
1000
0100
1000
0100
0010
0001
0010
0001
,  // measure 32
1000
0001
0100
0001
1000
0010
0100
0010
,  // measure 33
2000
0000
0000
0000
3001
0000
0000
0000
0001
1000
0001
0000
0100
0000
0001
0000
,  // measure 34
0100
0001
0100
0001
1000
0010
1000
0010
,  // measure 35
1000
0000
0001
0000
1000
0000
0001
0000
0010
0000
0001
1000
0000
1000
0001
0000
,  // measure 36
0100
0100
0010
1000
0100
0100
0010
0010
,  // measure 37
0001
0100
0010
0100
2002
0000
3003
0000
,  // measure 38
1010
0000
0001
0100
0001
0000
1000
0000
,  // measure 39
0001
0010
0100
1000
0001
0100
0010
1000
,  // measure 40
0001
0000
1000
0010
0000
0100
0001
0000
,  // measure 41
1000
0100
0010
0001
1000
0010
0100
0001
,  // measure 42
1001
0000
1000
0100
1000
0001
0100
0000
,  // measure 43
1001
0001
0100
0010
1010
0000
1001
0000
,  // measure 44
0011
0001
0100
0010
1000
0100
0010
0100
,  // measure 45
0220
0330
1002
0100
,  // measure 46
0010
0000
0000
0000
1003
0000
0001
0010
0200
0000
0000
0000
0001
0000
0000
0000
,  // measure 47
0010
0000
0000
0000
1300
0000
0100
1000
0020
0000
0000
0000
1000
0000
0000
0000
,  // measure 48
0001
0000
1030
0010
0200
0002
0000
0000
,  // measure 49
0000
0000
0000
0000
0000
0000
0000
0000
0000
0000
0000
0000
0303
0000
0000
0000
0000
0000
0000
0000
0000
0000
0001
0000
1000
0000
0000
0000
0000
0000
0010
0000
0000
0000
0000
0000
0110
0000
0000
0000
0000
0000
0000
0000
0000
0100
0000
0000
,  // measure 50
0000
0000
0010
0000
1000
0000
0001
0010
0100
0000
0010
0000
0001
0000
0000
1000
,  // measure 51
0000
0001
0100
0000
0001
0000
1000
0010
0100
0000
0010
0000
1000
0000
0000
0001
,  // measure 52
1000
0100
0110
0010
1001
0220
0000
0000
,  // measure 53
0000
0030
0310
0001
1001
0220
0000
0000
,  // measure 54
0330
0000
0000
0000
,  // measure 55
1001
0000
0101
0000
1010
0010
0110
0000
,  // measure 56
1001
0000
0000
0000
0011
0000
0000
0000
1100
0000
0010
0001
1000
0000
0000
0000
,  // measure 57
0001
0100
0010
2000
0000
3001
0100
0010
,  // measure 58
1000
0000
0001
0010
0100
0001
0100
0010
,  // measure 59
0001
1000
0001
0000
0100
0010
1000
0100
,  // measure 60
0010
0000
0001
0000
1000
0000
0001
0000
1000
0001
1000
0000
0001
0000
0100
0000
,  // measure 61
0010
1000
0100
0020
0000
0130
1000
0001
,  // measure 62
0100
0000
0010
0000
1000
0010
0100
0002
,  // measure 63
1000
0010
1000
0103
,  // measure 64
1000
0000
1000
0000
0001
0000
0001
0000
0100
0000
0010
1000
0001
0000
0000
0000
,  // measure 65
1001
0001
0100
0020
0000
1030
0100
0010
,  // measure 66
0110
0000
0000
0000
0010
0000
0001
0000
0100
0000
0010
1000
0000
0001
0100
0000
,  // measure 67
0010
1000
0100
0010
0110
0000
1001
0000
,  // measure 68
0001
0000
0100
0001
0100
0000
0010
0000
1000
0001
1000
0000
0100
0000
0010
0000
,  // measure 69
0011
0001
0100
2000
0000
3100
0001
1000
,  // measure 70
0100
0000
0000
0000
0010
0000
0001
0000
0100
0000
0000
0001
0100
0000
0010
0000
,  // measure 71
1000
0100
1000
0100
0010
0001
0010
0001
,  // measure 72
1000
0001
0100
0010
1000
0100
0010
0002
,  // measure 73
0000
1000
1000
1000
,  // measure 74
1003
0000
0001
0000
1000
0000
0001
0000
1000
0001
1000
0001
1000
0001
1000
0002
,  // measure 75
2000
3003
0000
0000
;

//---------------dance-single - ----------------
#NOTES:
     dance-single:
     :
     Medium:
     8:
     0.522,0.567,0.212,0.246,0.038: // measure 1
0000
0001
1000
0001
,  // measure 2
0100
0010
0100
0010
1000
0001
1000
0001
,  // measure 3
0000
0000
0000
2002
0000
0000
0000
0000
0000
0000
0000
0000
0000
0000
0000
0000
,  // measure 4
0000
0000
0000
0000
,  // measure 5
0000
0000
3003
0000
,  // measure 6
1001
0100
0010
0100
,  // measure 7
0001
0000
0000
0100
0000
0000
0001
0000
1000
0000
0000
0000
0001
0000
0000
0000
,  // measure 8
0110
1000
0100
1000
,  // measure 9
0001
0000
0000
1000
0000
0000
0001
0000
0010
0000
0000
0000
0100
0000
0000
0000
,  // measure 10
0010
0001
0100
0000
0010
1000
0100
0000
,  // measure 11
1000
0001
1000
0000
0001
0100
0001
0000
,  // measure 12
1000
0010
1000
0010
0100
0001
1000
0000
,  // measure 13
2002
0000
0000
0000
,  // measure 14
0000
0000
0000
0000
,  // measure 15
0000
0000
0000
0000
,  // measure 16
0000
0000
0000
3003
,  // measure 17
1001
0000
0110
0000
0001
1000
0001
0000
,  // measure 18
1000
0001
0100
0001
1000
0000
0100
0000
,  // measure 19
0010
0001
0010
0100
0010
0000
0001
0000
,  // measure 20
1000
0010
0100
0001
1000
0000
0001
0000
,  // measure 21
0100
0000
0010
0000
1000
1000
1000
0000
,  // measure 22
0001
0010
0100
0010
0001
0000
1000
0000
,  // measure 23
0010
0100
0010
0100
0001
0000
1000
0001
,  // measure 24
0100
0010
1000
0010
1000
0000
0001
0000
,  // measure 25
1100
0011
2002
3003
,  // measure 26
1000
0100
0010
0001
1000
0000
0001
0000
,  // measure 27
0100
0000
0010
0000
1000
0000
0001
0000
1000
0000
0000
0001
0000
0000
1000
0000
,  // measure 28
0100
0010
0100
0000
1000
0010
0100
0001
,  // measure 29
1000
0100
0010
0001
1000
0001
1000
0000
,  // measure 30
0001
0100
0001
0000
1000
0010
0100
0000
,  // measure 31
0010
1000
0001
0000
0100
0010
0001
0000
,  // measure 32
1000
0001
0100
0000
0010
0100
0001
0000
,  // measure 33
1000
0100
0010
0001
0100
0100
0100
0000
,  // measure 34
0010
1000
0001
1000
0100
0000
0010
0000
,  // measure 35
0100
0000
0010
0000
0100
0000
1000
0000
0001
0000
0000
1000
0000
0000
0001
0000
,  // measure 36
1000
0001
0100
0000
0001
1000
0100
0000
,  // measure 37
0011
1100
2002
3003
,  // measure 38
1000
0000
0001
0000
0010
0100
0010
0000
,  // measure 39
0001
1000
0001
0100
0010
1000
0010
0000
,  // measure 40
0100
0000
0001
1000
0000
1000
0100
0000
,  // measure 41
0010
0001
0100
0000
0010
1000
0001
0000
,  // measure 42
0110
0000
1000
0000
0100
0010
0100
0000
,  // measure 43
0010
0001
0010
0001
1000
0100
1000
0100
,  // measure 44
0100
0000
0010
0000
0001
1000
0001
0000
,  // measure 45
0220
0330
2002
0000
,  // measure 46
0000
0000
0000
0000
3003
0000
0100
0020
0200
0000
0000
0000
0000
0000
0000
0000
,  // measure 47
0000
0000
0000
0000
0330
0000
0001
2000
0002
0000
0000
0000
0000
0000
0000
0000
,  // measure 48
3003
0000
0001
0010
0100
2000
0000
0000
,  // measure 49
0000
0000
3001
0000
0001
1000
0100
0000
,  // measure 50
0010
0000
0001
0000
0100
0000
0010
0100
0010
0000
1000
0000
0001
0000
0000
0000
,  // measure 51
1000
0000
0001
0000
0010
0000
0001
0010
0001
0000
1000
0000
0100
0000
0000
0000
,  // measure 52
0010
0100
1000
0001
1001
2002
0000
0000
,  // measure 53
3003
0000
0010
0100
0110
0220
0000
0000
,  // measure 54
0330
0000
0000
0000
,  // measure 55
1001
0000
0110
0000
0001
1000
0001
0000
,  // measure 56
0110
0000
1001
0000
0100
0100
0100
0000
,  // measure 57
0001
0200
0000
1000
0000
0301
0100
0001
,  // measure 58
1000
0000
0001
0010
0001
1000
0100
1000
,  // measure 59
0001
1000
0001
0000
1000
0000
0100
0000
,  // measure 60
0010
0001
2000
0000
0001
0001
3001
0000
,  // measure 61
1000
0200
0000
0001
0000
1300
0001
0100
,  // measure 62
0010
0000
0100
0000
0001
1000
0001
1000
,  // measure 63
0100
0000
0010
0000
0001
1000
0001
0000
,  // measure 64
0100
0000
0010
0000
1000
0001
1000
0000
,  // measure 65
0001
0100
0010
2000
0000
3001
0010
0001
,  // measure 66
1000
0000
0001
0010
0100
1000
0001
0010
,  // measure 67
0100
1000
0001
0000
1000
0001
0100
0000
,  // measure 68
0110
0000
1001
0000
0010
1000
0001
0000
,  // measure 69
1000
0001
0100
0020
0000
1030
0010
0100
,  // measure 70
0001
0000
1000
0000
0001
0010
0100
0010
,  // measure 71
0001
0000
1000
0000
0010
0100
0001
0000
,  // measure 72
1000
0100
1000
0100
0010
0001
0010
0002
,  // measure 73
0000
1000
1000
1000
,  // measure 74
1003
0001
1000
0001
0010
0100
1000
0002
,  // measure 75
2000
3003
0000
0000
;

//---------------dance-single - ----------------
#NOTES:
     dance-single:
     :
     Easy:
     5:
     0.375,0.567,0.314,0.306,0.000:
0000
0001
1000
0001
,
1000
0100
0010
0100
,
0000
0220
0000
0000
,
0000
0000
0000
0000
,
0000
0000
0330
0000
,
0010
0001
1000
0001
,
0100
0000
0010
1000
,
0001
1000
0100
0010
,
0001
0000
1000
0001
,
1001
0000
0110
0000
,
1001
0000
0110
0000
,
0010
0100
0010
0100
,
2002
0000
0000
0000
,
0000
0000
0000
0000
,
0000
0000
0000
0000
,
0000
0000
0000
3003
,
0001
1000
2002
3003
,
0001
0100
0001
0100
,
0010
1000
0001
0000
,
1000
0100
1000
0100
,
0010
0001
1000
0000
,
0001
0100
0010
1000
,
0100
0010
0001
0000
,
0100
0001
0100
0010
,
1000
1000
0001
0001
,
1000
0100
0001
0100
,
1000
0010
0200
0000
,
0310
0100
0001
1000
,
0100
0010
0200
0000
,
0310
0001
1000
0001
,
0100
0010
1000
0001
,
1000
0100
0010
0001
,
0200
0000
0310
0100
,
0001
1000
0100
0010
,
0001
1000
2002
3003
,
0001
0100
0010
1000
,
0001
1000
2002
3003
,
0001
0100
0010
1000
,
0100
0001
0100
1000
,
0010
0100
0001
1000
,
0100
0010
0110
0110
,
1001
0001
0100
0010
,
1001
0100
0001
1000
,
1001
0001
0010
0100
,
0220
0330
2000
0000
,
0000
3001
0002
0000
,
0000
0103
0200
0000
,
0000
0000
0310
0000
2000
0002
0000
0000
,
0000
3003
1001
0001
,
0100
0000
0010
0010
0010
0000
1000
0000
,
0001
0000
1000
1000
1000
0000
0100
0000
,
0010
0000
0100
0000
2000
0002
0000
0000
,
3003
0000
1001
0000
0002
2000
0000
0000
,
3003
0000
0000
0000
,
1001
0110
2002
3003
,
0110
1001
0220
0330
,
1001
0001
0100
0010
,
1000
0100
0010
0100
,
1000
0001
1000
0000
,
0001
0100
0001
0000
,
1001
0001
0100
0010
,
1000
0100
0010
0100
,
1000
0001
0100
0010
,
0210
0010
0020
0330
,
1001
0001
0100
0010
,
1000
0100
0010
0001
,
1000
0001
0100
0010
,
1001
1001
2002
3003
,
0110
0010
1000
0001
,
1001
0001
0010
0100
,
0110
0010
0001
1000
,
1001
0001
1001
2002
,
3003
0001
1000
0001
,
0100
0010
0100
0010
,
0220
0330
0000
0000
;

//---------------dance-single - ----------------
#NOTES:
     dance-single:
     :
     Beginner:
     3:
     0.188,0.314,0.170,0.034,0.000:
0000
0000
0000
0000
,
0000
0000
0000
0000
,
0000
0110
0000
0000
,
0000
0000
0000
0000
,
0000
0000
0000
0000
,
1000
0000
0001
0000
,
1001
0000
0000
0000
,
0001
0000
0100
0000
,
0110
0000
0000
0000
,
0010
0000
1000
0000
,
0001
0000
1000
0000
,
1001
0000
0110
0000
,
2002
0000
0000
0000
,
0000
0000
0000
0000
,
0000
0000
0000
0000
,
0000
0000
0000
3003
,
0001
0000
1000
0000
,
1001
0000
0001
0000
,
0100
0000
0010
0000
,
1000
0000
0001
0000
,
1000
0000
0000
0000
,
1001
0000
0001
0000
,
0010
0000
0100
0000
,
0010
0000
0001
0000
,
1000
1000
1000
0000
,
0001
0000
0100
0000
,
0010
0000
0000
0000
,
1001
0000
1000
0000
,
0100
0000
0000
0000
,
0110
0000
0010
0000
,
0001
0000
1000
0000
,
0100
0000
1000
0000
,
0001
0000
0000
0000
,
1000
0000
0001
0000
,
0100
0000
0010
0000
,
0100
0000
0001
0000
,
1000
1000
1000
0000
,
1001
0000
0000
0000
,
0010
0000
0001
0000
,
0100
0000
0000
0000
,
0010
0000
1000
0000
,
0001
0000
0000
0000
,
1000
0000
0001
0000
,
1000
0000
0001
0000
,
2002
3003
1001
0000
,
0000
0000
0010
0000
,
0000
0000
0100
0000
,
0000
0001
0001
0000
,
0000
1001
1001
0000
,
0001
0001
0001
0000
,
0100
0100
0100
0000
,
0010
0010
0010
0000
,
0000
1001
1001
0000
,
0000
0000
0000
0000
,
0100
0100
0100
0000
,
0110
0110
0110
0000
,
0010
0000
1000
0000
,
0001
0000
1000
0000
,
0100
0000
0010
0000
,
0001
0000
0000
0000
,
1000
0000
0001
0000
,
0100
0000
0010
0000
,
1000
0000
0001
0000
,
1000
1000
1000
0000
,
0001
0000
1000
0000
,
0100
0000
1000
0000
,
0001
0000
0100
0000
,
0010
0000
1000
0000
,
0010
0000
0010
0000
,
0100
0000
0100
0000
,
0001
0000
1000
0000
,
0100
0000
0010
0010
,
0000
0100
0100
0100
,
0100
0100
0100
0100
,
0100
0000
0000
0000
;
