#VERSION:0.81;
#TITLE:Proposed, Flower, Wolf Part 2;
#SUBTITLE:;
#ARTIST:ReX;
#TITLETRANSLIT:;
#SUBTITLETRANSLIT:;
#ARTISTTRANSLIT:;
#GENRE:Violin Trance;
#ORIGIN:;
#CREDIT:vincentw;
#BANNER:[Break] - Proposed, Flower, Wolf Part 2.png;
#BACKGROUND:[Break] - Proposed, Flower, Wolf Part 2-bg.png;
#PREVIEWVID:;
#JACKET:[Break] - Proposed, Flower, Wolf Part 2-jacket.png;
#CDIMAGE:;
#DISCIMAGE:;
#LYRICSPATH:;
#CDTITLE:cdtitle.png;
#MUSIC:[Break] - Proposed, Flower, Wolf Part 2.mp3;
#OFFSET:-1.630000;
#SAMPLESTART:31.609999;
#SAMPLELENGTH:11.999998;
#SELECTABLE:YES;
#BPMS:0.000=160.000,
64.000=80.000,
118.000=240.000,
120.000=160.000,
184.000=20.000;
#STOPS:118.000=0.167,
118.333=0.166,
118.667=0.167,
119.000=0.167,
119.333=0.166,
119.667=0.167;
#DELAYS:;
#WARPS:;
#TIMESIGNATURES:0.000=4=4;
#TICKCOUNTS:0.000=4;
#COMBOS:0.000=1;
#SPEEDS:0.000=1.000=0.000=0;
#SCROLLS:0.000=1.000,
76.000=1.100,
80.000=1.200,
84.000=1.300,
88.000=1.400,
92.000=1.500,
96.000=1.600,
100.000=1.700,
108.000=1.800,
112.000=1.900,
116.000=2.000,
120.000=1.000,
184.000=0.500;
#FAKES:;
#LABELS:0.000=Song Start;
#BGCHANGES:0.000=[Break] - Proposed, Flower, Wolf Part 2-bg.png=1.000=0=0=1=====,
99999=-nosongbg-=1.000=0=0=0 // don't automatically add -songbackground-
;
#KEYSOUNDS:;
#ATTACKS:
;

//---------------dance-single - ----------------
#NOTEDATA:;
#CHARTNAME:;
#STEPSTYPE:dance-single;
#DESCRIPTION:;
#CHARTSTYLE:;
#DIFFICULTY:Beginner;
#METER:2;
#RADARVALUES:0.109298,0.129449,0.018216,0.081973,0.000000,73.000000,2.000000,9.000000,4.000000,0.000000,0.000000,0.000000,0.000000,0.109298,0.129449,0.018216,0.081973,0.000000,73.000000,2.000000,9.000000,4.000000,0.000000,0.000000,0.000000,0.000000;
#CREDIT:;
#NOTES:
// measure 0
0000
0000
0000
0000
,  // measure 1
0000
0000
0000
0000
,  // measure 2
0000
0000
0000
0000
,  // measure 3
0000
0000
0000
0000
,  // measure 4
1000
0000
0000
0000
,  // measure 5
0001
0000
0000
0000
,  // measure 6
0100
0000
0010
0000
,  // measure 7
0000
0000
0000
0000
,  // measure 8
2000
0000
3000
0000
,  // measure 9
0002
0000
0003
0000
,  // measure 10
2000
0000
3000
0000
,  // measure 11
0002
0000
0003
0000
,  // measure 12
0200
0000
0300
0000
,  // measure 13
0020
0000
0030
0000
,  // measure 14
0200
0000
0300
0000
,  // measure 15
0020
0000
0030
0000
,  // measure 16
0110
0000
0000
0000
,  // measure 17
0000
0000
0000
0000
,  // measure 18
1000
0000
0001
0000
,  // measure 19
1000
1000
0001
0001
,  // measure 20
0100
0000
0010
0000
,  // measure 21
0100
0100
0010
0010
,  // measure 22
1000
0000
0100
0000
,  // measure 23
0010
0010
0001
0000
,  // measure 24
1000
0000
0010
0000
,  // measure 25
0100
0100
0001
0001
,  // measure 26
0100
0100
0010
0000
,  // measure 27
1000
0000
0100
0000
,  // measure 28
0010
0000
0001
0000
,  // measure 29
1000
0000
0000
1000
0000
0000
2000
0000
0000
0000
0000
3000
,  // measure 30
0001
0000
0000
0000
,  // measure 31
1000
0000
0000
0000
,  // measure 32
0001
0000
0000
0000
,  // measure 33
0000
0000
1000
0000
,  // measure 34
0001
0000
1000
0000
,  // measure 35
0001
0000
0000
0000
,  // measure 36
0100
0000
0000
0010
,  // measure 37
0000
0010
0000
0000
,  // measure 38
1000
0000
1000
0000
,  // measure 39
0001
0000
0001
0000
,  // measure 40
1000
0000
0001
0000
,  // measure 41
1000
0000
0001
0000
,  // measure 42
0100
0000
0100
0000
,  // measure 43
0010
0000
0010
0000
,  // measure 44
0100
0000
0010
0000
,  // measure 45
0100
0000
0010
0000
,  // measure 46
0110
0000
0000
0000
,  // measure 47
0000
0000
0000
MMMM
0000
0000
0000
0000
;

//---------------dance-single - ----------------
#NOTEDATA:;
#CHARTNAME:;
#STEPSTYPE:dance-single;
#DESCRIPTION:;
#CHARTSTYLE:;
#DIFFICULTY:Easy;
#METER:4;
#RADARVALUES:0.176958,0.258899,0.009108,0.127514,0.013662,121.000000,1.000000,14.000000,4.000000,0.000000,0.000000,0.000000,0.000000,0.176958,0.258899,0.009108,0.127514,0.013662,121.000000,1.000000,14.000000,4.000000,0.000000,0.000000,0.000000,0.000000;
#CREDIT:;
#NOTES:
// measure 0
0000
0000
0000
0000
,  // measure 1
0000
0000
0000
0000
,  // measure 2
0000
0000
0000
0000
,  // measure 3
0000
0000
0000
0000
,  // measure 4
1000
0000
0000
0000
,  // measure 5
0001
0000
0100
0000
,  // measure 6
0100
0000
0010
0000
,  // measure 7
0000
0000
0000
0000
,  // measure 8
1000
1000
1000
0000
,  // measure 9
0001
0001
0001
0000
,  // measure 10
0100
0100
0100
0000
,  // measure 11
0010
0010
0010
0000
,  // measure 12
1000
0100
1000
0000
,  // measure 13
0001
0010
0001
0000
,  // measure 14
1000
0000
0001
0000
,  // measure 15
1000
0001
1000
0001
,  // measure 16
1001
0000
0000
0000
,  // measure 17
0000
0000
0000
0000
,  // measure 18
1000
1000
0001
0001
,  // measure 19
1000
0100
0010
0001
,  // measure 20
0100
0100
0010
0010
,  // measure 21
0100
0001
1000
0010
,  // measure 22
1000
0000
1000
0100
0000
0000
0010
0000
0010
0001
0000
0000
,  // measure 23
0100
0000
0000
0000
0100
0000
0010
0000
0000
0000
0000
0000
1000
0000
0000
0000
0000
0000
0001
0000
0000
0001
0000
0000
,  // measure 24
1000
0001
1000
0001
,  // measure 25
0100
0000
0010
0000
0100
0010
0100
0000
,  // measure 26
0001
0100
1000
0100
,  // measure 27
0020
0000
1030
1000
,  // measure 28
0200
0000
0310
0010
,  // measure 29
0001
0000
0000
0001
0000
0000
0200
0000
0300
0200
0000
0300
,  // measure 30
0002
0000
0013
0100
,  // measure 31
2000
0000
0000
0000
,  // measure 32
3002
0000
0000
0000
,  // measure 33
0003
0100
0010
1000
,  // measure 34
0200
0000
0320
0000
,  // measure 35
0032
0000
0003
0010
,  // measure 36
0100
0000
0000
0010
0000
0000
0001
0000
,  // measure 37
0000
1000
0000
0000
,  // measure 38
0001
0001
1000
1000
,  // measure 39
0010
0000
0100
0000
,  // measure 40
0010
0010
0100
0100
,  // measure 41
0010
1000
0001
0100
,  // measure 42
0010
0000
1000
0000
,  // measure 43
0100
0000
0010
0001
,  // measure 44
0200
0000
0000
0302
0000
0000
0023
0000
,  // measure 45
0000
2030
0000
0000
0000
0000
0000
0000
,  // measure 46
3100
0000
0000
0000
,  // measure 47
0000
0000
0000
MMMM
0000
0000
0000
0000
;

//---------------dance-single - ----------------
#NOTEDATA:;
#CHARTNAME:;
#STEPSTYPE:dance-single;
#DESCRIPTION:;
#CHARTSTYLE:;
#DIFFICULTY:Medium;
#METER:6;
#RADARVALUES:0.310978,0.474648,0.027324,0.337001,0.177609,199.000000,3.000000,37.000000,4.000000,0.000000,0.000000,0.000000,0.000000,0.310978,0.474648,0.027324,0.337001,0.177609,199.000000,3.000000,37.000000,4.000000,0.000000,0.000000,0.000000,0.000000;
#CREDIT:;
#NOTES:
// measure 0
0000
0000
0000
0000
,  // measure 1
0000
0000
0000
0000
,  // measure 2
0000
0000
0000
0000
,  // measure 3
0000
0000
0000
1000
,  // measure 4
0002
0000
0000
0000
0000
0000
0003
1000
,  // measure 5
0200
0000
1300
0001
,  // measure 6
0100
0000
0000
0010
2000
0000
0000
0000
,  // measure 7
0002
0000
0000
3003
,  // measure 8
1000
0000
0100
1000
0001
0000
0010
0000
,  // measure 9
0002
0000
2000
3003
,  // measure 10
0010
0000
0000
1000
0000
0000
0200
0000
0000
0000
0000
0000
0000
0000
0000
0000
,  // measure 11
0310
0000
0000
0000
0000
0000
0001
0000
0010
0000
0000
0100
0000
0000
1000
0000
,  // measure 12
0001
0000
0010
0001
1000
0000
0100
0000
,  // measure 13
2000
0000
3200
0320
,  // measure 14
0032
0000
0010
0000
,  // measure 15
1000
0100
1000
0013
,  // measure 16
1001
0000
0000
0000
,  // measure 17
0000
0000
0000
0000
,  // measure 18
1000
0000
1000
0100
0000
0000
0010
0000
0010
0001
0000
0000
,  // measure 19
1000
0000
0000
0000
1000
0000
0010
0000
0000
0000
0000
0000
0100
0000
0000
0000
0100
0000
0001
0000
0000
0001
0000
0000
,  // measure 20
0100
0000
0000
0001
0000
0000
0010
0000
0010
0001
0000
0000
,  // measure 21
1000
0001
0010
0001
1000
0100
1000
0001
,  // measure 22
0010
0001
0010
0001
0010
0000
0100
1000
0100
1000
0100
0000
,  // measure 23
1000
0000
0001
0000
1000
0000
0001
0000
1000
0000
0000
0000
0010
0000
0100
0000
0010
0000
0100
0000
0000
0100
0000
0000
,  // measure 24
0002
0000
0103
0020
0000
1030
0200
0000
0310
0002
0000
1003
,  // measure 25
0010
0010
0100
0100
0001
0001
1000
1000
,  // measure 26
0100
0010
0100
0010
0001
1000
0001
1000
,  // measure 27
2002
0000
0000
0003
0000
3010
1000
0001
0100
0010
1000
0100
,  // measure 28
0002
0000
0000
0103
0100
0100
2000
0000
0000
3010
0010
0010
,  // measure 29
0001
0001
0001
0010
0010
0010
1000
0100
0010
0001
0010
0100
,  // measure 30
2000
0000
3100
0010
,  // measure 31
0200
0000
0000
0000
0000
0000
0300
0010
,  // measure 32
0002
1000
0000
1000
,  // measure 33
0000
1003
0010
0100
,  // measure 34
0002
0010
2003
0100
,  // measure 35
3002
0000
0000
1003
,  // measure 36
0020
0000
0000
0032
0000
0000
0023
0000
,  // measure 37
0000
2030
0000
3000
,  // measure 38
1001
0010
1000
0001
,  // measure 39
0200
0000
0000
0000
0310
0000
0000
1000
,  // measure 40
0001
1000
0000
0100
0010
0100
0000
1000
,  // measure 41
0001
0010
0100
1000
,  // measure 42
0020
0100
0000
0130
0002
1000
0000
1003
,  // measure 43
0200
0010
0000
0310
0100
0000
0010
0000
,  // measure 44
0002
0100
0000
0203
1000
0000
2300
0010
,  // measure 45
0000
3020
0001
0000
0031
1000
0000
1000
,  // measure 46
0001
0000
0000
0000
,  // measure 47
0000
0000
0000
MMMM
0000
0000
0000
0000
;

//---------------dance-single - ----------------
#NOTEDATA:;
#CHARTNAME:;
#STEPSTYPE:dance-single;
#DESCRIPTION:;
#CHARTSTYLE:;
#DIFFICULTY:Hard;
#METER:9;
#RADARVALUES:0.631063,0.949295,0.373433,0.200379,0.988232,422.000000,41.000000,22.000000,95.000000,0.000000,0.000000,0.000000,0.000000,0.631063,0.949295,0.373433,0.200379,0.988232,422.000000,41.000000,22.000000,95.000000,0.000000,0.000000,0.000000,0.000000;
#CREDIT:;
#NOTES:
// measure 0
0000
0000
0000
0000
,  // measure 1
0000
0000
0000
0000
,  // measure 2
0000
0000
0000
0000
,  // measure 3
0000
0000
0000
1000
,  // measure 4
0002
0000
0000
0000
0000
0000
0000
0000
0000
0000
0000
0000
0003
0000
0100
0010
,  // measure 5
0200
0000
0301
1000
,  // measure 6
0010
0000
0000
0000
0000
0000
1000
0010
0200
0000
0000
0000
0000
0000
0000
0000
,  // measure 7
0002
0000
0000
0303
,  // measure 8
0101
0000
0100
0001
0100
0001
1000
0010
2000
0000
0000
0000
0000
0000
0001
0000
,  // measure 9
3001
0000
0000
0000
1000
0000
0010
0000
0110
0000
0100
0000
0000
0000
0001
0010
,  // measure 10
0002
0000
0000
2003
0000
0000
3200
0000
0310
0000
0001
0000
0000
1000
0000
0100
,  // measure 11
1000
0000
0001
0000
0010
0000
0100
1000
0001
0000
0001
0010
0000
0010
1000
0000
,  // measure 12
0110
0000
0001
0010
0001
1000
0010
1000
0200
0000
0000
0000
0000
0000
0010
0000
,  // measure 13
0320
0000
0000
0100
0000
0000
0100
0000
0032
0000
1000
0000
0023
1000
0000
0000
,  // measure 14
2030
0000
0000
0000
0000
0000
0000
0000
3001
0000
0100
0000
0000
0100
0000
0100
,  // measure 15
0010
0000
1000
0000
0100
0000
0001
0000
0100
0000
1000
0000
0010
0100
0001
1000
,  // measure 16
0200
00M0
000M
M000
00M0
M000
000M
00M0
M000
00M0
000M
M000
00M0
000M
00M0
M000
000M
00M0
000M
00M0
000M
M000
00M0
M000
,  // measure 17
00M0
M000
000M
M000
000M
M000
00M0
M000
000M
00M0
000M
M000
00M0
000M
M000
000M
00M0
M000
000M
00M0
M000
030M
M000
00M0
,  // measure 18
011M
0000
0100
0100
0010
0001
0010
0000
0011
0000
1000
0100
1000
0000
0001
0001
1000
0010
1000
0000
1010
0000
0010
0100
,  // measure 19
0100
0000
0001
0001
0010
0100
1000
0000
1001
0000
0001
1000
0010
0000
0010
0010
1000
0100
0010
0001
0100
0010
1000
0100
,  // measure 20
0001
0000
1000
1000
0001
0100
1000
0000
0001
0001
1000
0010
0001
0000
1000
1000
0001
0010
1000
0000
0010
1000
0100
0001
,  // measure 21
0100
1000
0010
0001
0010
1000
0100
0010
0001
1000
0001
0010
0100
1000
0010
1000
0100
0010
0001
0100
0001
0010
0100
1000
,  // measure 22
0100
0000
0010
0010
0100
1000
0100
0000
1100
0000
0001
0010
0001
0000
1000
1000
0001
0100
0001
0000
0101
0000
0100
0010
,  // measure 23
0010
0000
1000
1000
0100
0010
0001
0000
1001
0000
1000
0001
0100
0000
0100
0100
0001
0010
0100
1000
0010
0100
0001
0010
,  // measure 24
100M
0000
0001
0001
1000
0010
0M01
0000
1000
1000
0001
0100
10M0
0000
0001
0001
1000
0100
M002
0000
0000
0003
0010
1000
,  // measure 25
0010
0001
0100
1000
0100
0001
0010
0100
1000
0001
1000
0100
0010
0001
0100
0001
0010
0100
1000
0010
1000
0100
0010
0001
,  // measure 26
1000
0100
0001
0010
0001
0100
1000
0001
0100
0010
0100
0001
1000
0010
0001
0010
1000
0001
0100
1000
0100
0001
1000
0010
,  // measure 27
0200
0000
0000
0001
0001
0000
0010
0000
0310
0000
0010
1000
0100
0000
0100
0010
0100
0000
1000
0001
1000
0000
1000
0100
,  // measure 28
0020
0000
0000
0001
0001
0000
0100
0000
0130
0000
0100
0000
1010
0000
1000
0000
1000
0000
0110
0000
0010
0000
0010
0000
,  // measure 29
0101
0000
0100
0001
0100
0000
1001
0000
0001
0000
0001
0000
MM11
0000
11MM
0000
M1M1
0000
1M1M
0000
M11M
0000
1MM1
0000
,  // measure 30
0220
0000
0000
0330
0002
0000
2003
0000
,  // measure 31
3200
0000
0000
0000
0000
0000
0000
0000
0000
0000
0000
0000
0300
0000
0010
0001
,  // measure 32
0010
0011
0000
0100
1000
1100
0000
0010
,  // measure 33
0100
0000
0110
0000
0M10
0000
1000
0000
M010
0000
0100
0010
010M
0000
0001
0010
,  // measure 34
0M01
1000
0010
1010
01M0
0001
0101
0010
,  // measure 35
0M01
0000
0011
0000
1000
0000
0100
0000
1100
0000
1000
0100
M010
0001
0010
0100
,  // measure 36
1000
0010
0100
0110
0001
1000
1001
0001
,  // measure 37
0011
0000
0010
0001
0100
0000
0100
0010
1000
0000
1000
0001
0100
0001
0100
0001
,  // measure 38
0010
0000
0001
0000
0M00
0000
0010
0000
00M1
0000
1000
0000
0M00
0000
0010
1000
,  // measure 39
001M
0000
1000
0000
0000
0000
0010
0000
M100
0000
0010
0000
0000
0000
01M0
M001
,  // measure 40
01M0
0000
0001
0000
0000
0000
0100
0000
0001
0000
1000
0000
0000
0000
0100
1000
,  // measure 41
0100
0000
1000
0000
00M0
0000
0100
0000
M010
0000
0100
0000
000M
0000
0010
0001
,  // measure 42
M010
0000
0011
0000
0000
0000
0001
0000
10M0
0000
1001
0000
0000
0000
0010
1000
,  // measure 43
0M10
0000
1010
0000
0000
0000
0100
0000
001M
0000
0110
0000
M000
0000
0100
0001
,  // measure 44
01M0
0000
0101
0000
0000
0000
0M01
0000
1000
0000
1001
0000
00M0
0000
1000
0100
,  // measure 45
1000
110M
0000
0100
0010
0110
0000
0110
,  // measure 46
1001
0000
0000
0000
,  // measure 47
0000
0000
0000
MMMM
0000
0000
0000
0000
;
