#VERSION:0.81;
#TITLE:Problem;
#SUBTITLE:;
#ARTIST:Ariana Grande;
#TITLETRANSLIT:;
#SUBTITLETRANSLIT:;
#ARTISTTRANSLIT:;
#GENRE:;
#ORIGIN:;
#CREDIT:;
#BANNER:[Break] - Problem.png;
#BACKGROUND:[Break] - Problem-bg.png;
#PREVIEWVID:;
#JACKET:[Break] - Problem-jacket.png;
#CDIMAGE:;
#DISCIMAGE:;
#LYRICSPATH:;
#CDTITLE:;
#MUSIC:Problem.ogg;
#OFFSET:-1.551;
#SAMPLESTART:38.921;
#SAMPLELENGTH:18.641;
#SELECTABLE:YES;
#BPMS:0.000=103.024,
96.000=51.512,
114.000=103.024;
#STOPS:;
#DELAYS:;
#WARPS:;
#TIMESIGNATURES:0.000=4=4,
96.000=2=4,
114.000=4=4;
#TICKCOUNTS:0.000=4;
#COMBOS:0.000=1;
#SPEEDS:0.000=1.000=0.000=0;
#SCROLLS:0.000=1.000;
#FAKES:;
#LABELS:0.000=Song Start;
#BGCHANGES:;
#KEYSOUNDS:;
#ATTACKS:
;

//---------------dance-single - ----------------
#NOTEDATA:;
#CHARTNAME:;
#STEPSTYPE:dance-single;
#DESCRIPTION:;
#CHARTSTYLE:;
#DIFFICULTY:Hard;
#METER:7;
#RADARVALUES:0.364,0.385,0.139,0.139,0.104,228.000,14.000,14.000,0.000,0.000,0.000,0.000,0.000,0.364,0.385,0.139,0.139,0.104,228.000,14.000,14.000,0.000,0.000,0.000,0.000,0.000;
#CREDIT:;
#NOTES:
0000
0000
0000
0000
,
0000
0000
0000
0000
,
0000
0000
0000
0000
,
0000
0000
0000
0000
,
1000
0100
0010
0100
0010
0010
0001
0010
,
0001
0001
1000
0001
1000
1000
2000
0000
,
3010
1000
0010
0100
0001
0001
0100
0010
,
0100
0100
0010
1000
0010
0010
0020
0000
,
1030
0010
0001
0000
0011
0000
1010
0000
,
1000
0100
0001
0000
0101
0000
1100
0000
,
1000
0100
0010
0001
0010
0010
0001
1000
,
0010
0010
0100
0001
0010
0010
0020
0000
,
0130
0000
0000
0100
1000
0000
0001
0000
0100
0000
0101
0000
0110
0000
0100
0010
,
1000
0000
0000
1000
0001
0000
0010
0000
0100
0000
0110
0000
1100
0000
1000
0000
,
0001
0000
0000
0001
0100
0000
0010
0000
1000
0000
1010
0000
1001
0000
1000
0001
,
0010
0000
0000
0010
0100
0000
1000
0000
0001
0000
1000
0000
1001
0000
0000
0000
,
0001
0010
1000
0001
0100
1000
0002
0000
,
1003
0010
0001
1000
0100
0001
2000
0000
,
3001
0010
1000
0001
0100
1000
0002
0000
,
1003
0010
0001
0010
1000
0000
1001
0000
,
0001
0000
0000
0001
0010
0000
0100
0000
1000
0000
0001
0000
0100
0000
0000
0000
,
0001
0000
0000
0001
1000
0000
0100
0000
0010
0000
0001
0000
1000
0000
0000
0000
,
0010
0000
0000
0010
1000
0000
0001
0000
0010
0000
0100
0000
1000
0000
0000
0000
,
0001
0010
1000
0010
0001
0000
1000
0000
,
2002
0000
0000
0000
,
0000
0000
0000
0000
0000
0000
0000
3003
,
2000
0000
0000
0000
3020
0000
0000
0000
0130
0010
0100
0001
1000
0000
0001
0000
,
0020
0000
0000
0000
0230
0000
0000
0000
1300
0100
1000
0001
0100
0000
0010
0000
,
1000
0000
0001
0000
1000
0000
1001
0000
0001
0000
0000
0001
0010
0000
0001
0000
,
0100
0000
0010
0000
0100
0000
0001
0000
1000
0000
0000
1000
0010
0000
1000
0000
,
0001
0000
1000
0000
0100
0000
0100
0000
0010
0000
0000
0010
0001
0000
0010
0000
,
0001
1000
0010
0000
0100
0010
1000
0001
,
0010
0000
0000
0000
0100
0010
0100
0010
0100
0000
0000
0100
1000
0000
0100
0000
,
1000
0000
0001
0000
0100
0000
0001
0000
0100
0000
0000
0100
0010
0000
0100
0000
,
0010
0000
1000
0000
0001
0000
1000
0000
0001
0000
0000
0001
1000
0000
0001
0000
,
0010
0001
0010
0100
1000
1000
0001
0001
,
1000
0010
0100
0002
2000
0000
0003
3000
;

//---------------dance-single - ----------------
#NOTEDATA:;
#CHARTNAME:;
#STEPSTYPE:dance-single;
#DESCRIPTION:;
#CHARTSTYLE:;
#DIFFICULTY:Medium;
#METER:6;
#RADARVALUES:0.233,0.236,0.050,0.020,0.080,157.000,5.000,2.000,0.000,0.000,0.000,0.000,0.000,0.233,0.236,0.050,0.020,0.080,157.000,5.000,2.000,0.000,0.000,0.000,0.000,0.000;
#CREDIT:;
#NOTES:
0000
0000
0000
0000
,
0000
0000
0000
0000
,
0000
0000
0000
0000
,
0000
0000
0000
0000
,
1000
0000
0010
0100
0010
0000
0000
1000
,
0001
0000
0000
0010
0100
0000
0010
0000
,
0001
0000
1000
0001
1000
0000
0000
0001
,
1000
0000
0000
0010
0100
0000
0010
0000
,
1000
0001
0010
0000
0100
0000
1000
0000
,
0001
0100
0010
0000
1000
0000
0001
0000
,
0010
0000
0100
0010
0100
0000
0000
1000
,
0001
0000
0000
0100
0010
0000
0100
0000
,
0010
0000
1000
0000
0010
1000
0001
0000
,
0010
0000
0001
0000
0010
0001
1000
0000
,
0010
0000
0100
0000
0010
0100
0001
0000
,
1000
0000
0001
0000
0010
0100
1000
0000
,
0001
0000
0000
1000
0000
0000
0001
0000
0000
0000
1000
0000
1000
0000
0000
0000
,
0010
0000
0000
0100
0000
0000
0010
0000
0000
0000
0100
0000
0100
0000
0000
0000
,
0001
0000
0000
0100
0000
0000
0001
0000
0000
0000
0100
0000
0100
0000
0000
0000
,
0010
1000
0100
0110
,
0010
0000
0000
0001
0000
0000
1000
0000
0000
0000
0010
0000
0010
0000
0000
0000
,
1000
0000
0000
0001
0000
0000
0010
0000
0000
0000
0100
0000
0100
0000
0000
0000
,
1000
0000
0000
0001
0000
0000
0100
0000
0000
0000
0010
0000
0010
0000
0000
0000
,
1000
0100
0010
0001
1000
0000
1001
0000
,
0220
0000
0000
0000
,
0000
0000
0000
0000
0000
0000
0000
0330
,
0001
0000
0010
0000
1000
0010
0001
1000
,
0001
0000
0100
0000
1000
0100
0001
1000
,
0100
0000
0010
0000
0001
0000
1001
0000
1000
0000
0000
0010
0000
0000
0100
0000
,
0000
0000
0001
0000
0000
0001
0000
0000
0001
0000
0000
1000
0000
0000
0100
0000
,
0000
0000
0010
0000
0000
0010
0000
0000
0010
0000
0000
0001
0000
0000
1000
0000
,
0000
0001
0000
0001
0100
0000
0010
0000
,
1000
0000
0000
0000
1001
0000
0000
0000
0001
0000
0000
0010
0000
0000
1000
0000
,
0000
0000
0010
0000
0000
0001
0000
0000
1000
0000
0000
0010
0000
0000
0001
0000
,
0000
0000
0010
0000
0000
1000
0000
0000
0001
0000
0000
0010
0000
0000
0100
0000
,
0000
1000
0000
0001
0100
0010
0100
0010
,
1000
0001
0010
0100
1000
0000
0000
0000
;

//---------------dance-single - ----------------
#NOTEDATA:;
#CHARTNAME:;
#STEPSTYPE:dance-single;
#DESCRIPTION:;
#CHARTSTYLE:;
#DIFFICULTY:Easy;
#METER:3;
#RADARVALUES:0.161,0.218,0.030,0.080,0.000,102.000,3.000,8.000,0.000,0.000,0.000,0.000,0.000,0.161,0.218,0.030,0.080,0.000,102.000,3.000,8.000,0.000,0.000,0.000,0.000,0.000;
#CREDIT:;
#NOTES:
0000
0000
0000
0000
,
0000
0000
0000
0000
,
0000
0000
0000
0000
,
0000
0000
0000
0000
,
0001
0010
0100
0000
,
1000
0000
0001
0001
,
0100
0010
1000
0000
,
0001
0000
0010
0010
,
0100
1000
2200
3300
,
0001
0100
0202
0303
,
0001
1000
0001
0000
,
0010
0000
0100
0100
,
1000
0000
0001
0000
,
0100
0000
0010
0100
,
0010
0000
1000
0000
,
0001
0000
1000
0001
,
1000
1000
1000
0000
,
0100
0100
0100
0000
,
0010
0010
0010
0000
,
0001
0001
0001
0001
,
1000
1000
1000
0000
,
0010
0010
0010
0000
,
0100
0100
0100
0000
,
0001
0001
0001
0001
,
1000
0000
0000
0000
,
0000
0000
0000
0000
,
0001
1000
0100
0010
,
0001
0100
0010
2000
,
0002
0000
0000
3003
1000
0000
0100
0000
,
1000
1000
0001
0100
,
0001
0001
1000
0001
,
1000
1000
0100
0010
,
0001
1000
0010
0100
,
0010
0010
1000
0001
,
1000
1000
0100
0010
,
0100
0100
0010
0001
,
1000
2002
3003
0000
;

//---------------dance-single - ----------------
#NOTEDATA:;
#CHARTNAME:;
#STEPSTYPE:dance-single;
#DESCRIPTION:;
#CHARTSTYLE:;
#DIFFICULTY:Beginner;
#METER:1;
#RADARVALUES:0.065,0.109,0.000,0.000,0.000,46.000,0.000,0.000,0.000,0.000,0.000,0.000,0.000,0.065,0.109,0.000,0.000,0.000,46.000,0.000,0.000,0.000,0.000,0.000,0.000,0.000;
#CREDIT:;
#NOTES:
// measure 0
0000
0000
0000
0000
,  // measure 1
0000
0000
0000
0000
,  // measure 2
0000
0000
0000
0000
,  // measure 3
0000
0000
0000
0000
,  // measure 4
1000
0000
1000
0000
,  // measure 5
1000
0000
0000
0000
,  // measure 6
0001
0000
0001
0000
,  // measure 7
0001
0000
0000
0000
,  // measure 8
0010
0000
0000
0000
,  // measure 9
0100
0000
0000
0000
,  // measure 10
1000
0000
1000
0000
,  // measure 11
1000
0000
0000
0000
,  // measure 12
0001
0000
0000
0000
,  // measure 13
0100
0000
0100
0000
,  // measure 14
0010
0000
0000
0000
,  // measure 15
1000
0000
1000
0000
,  // measure 16
0001
0000
0000
0000
,  // measure 17
1000
0000
0000
0000
,  // measure 18
0001
0000
0000
0000
,  // measure 19
1000
0000
1000
0000
,  // measure 20
0100
0000
0000
0000
,  // measure 21
0010
0000
0000
0000
,  // measure 22
0100
0000
0000
0000
,  // measure 23
0010
0000
0010
0000
,  // measure 24
0010
0000
0000
0000
,  // measure 25
0000
0000
0000
0000
,  // measure 26
0001
0000
1000
1000
,  // measure 27
1000
0000
0001
0001
,  // measure 28
0001
0000
1000
0000
,  // measure 29
0000
0000
0001
0000
,  // measure 30
0000
0000
1000
0000
,  // measure 31
0000
0000
0001
0000
,  // measure 32
0001
0000
0100
0000
,  // measure 33
0000
0000
0010
0000
,  // measure 34
0000
0000
0100
0000
,  // measure 35
0000
0000
0010
0000
,  // measure 36
0100
0000
0010
0000
;
