#VERSION:0.81;
#TITLE:Odin;
#SUBTITLE:;
#ARTIST:Noizenecio;
#TITLETRANSLIT:;
#SUBTITLETRANSLIT:;
#ARTISTTRANSLIT:;
#GENRE:;
#ORIGIN:;
#CREDIT:;
#BANNER:Odin.png;
#BACKGROUND:Odin-bg.png;
#PREVIEWVID:;
#JACKET:Odin-jacket.png;
#CDIMAGE:;
#DISCIMAGE:;
#LYRICSPATH:;
#CDTITLE:;
#MUSIC:Odin.ogg;
#OFFSET:-6.588000;
#SAMPLESTART:9.254087;
#SAMPLELENGTH:12.000000;
#SELECTABLE:YES;
#BPMS:0.000=180.000,
81.000=172.000,
85.000=166.000,
89.000=160.000,
125.000=166.000,
141.000=172.000,
149.000=180.000;
#STOPS:8.000=1.000,
153.500=1.000,
178.000=2.333,
238.000=1.000,
332.000=2.000;
#DELAYS:;
#WARPS:;
#TIMESIGNATURES:0.000=4=4;
#TICKCOUNTS:0.000=4;
#COMBOS:0.000=1;
#SPEEDS:0.000=1.000=0.000=0;
#SCROLLS:0.000=1.000;
#FAKES:;
#LABELS:0.000=Song Start;
#BGCHANGES:;
#KEYSOUNDS:;
#ATTACKS:
;

//---------------dance-single - ----------------
#NOTEDATA:;
#CHARTNAME:;
#STEPSTYPE:dance-single;
#DESCRIPTION:;
#CHARTSTYLE:;
#DIFFICULTY:Hard;
#METER:8;
#RADARVALUES:0.556377,0.567312,0.652859,0.240132,0.026264,400.000000,87.000000,32.000000,0.000000,0.000000,0.000000,0.000000,0.000000,0.556377,0.567312,0.652859,0.240132,0.026264,400.000000,87.000000,32.000000,0.000000,0.000000,0.000000,0.000000,0.000000;
#CREDIT:;
#NOTES:
0001
0001
0010
0010
,
0110
0110
1001
0110
,
1001
0000
0100
2002
3003
0010
2001
0000
,
3200
0000
0310
0100
0000
1000
0001
1000
,
0000
0001
0100
0001
0000
0100
0010
0100
,
0000
0010
1000
0010
0000
1000
0001
1000
,
0000
0001
0010
0001
0000
0010
0100
0010
,
0002
0000
1003
0000
0001
0100
0000
0100
,
0010
0000
0010
1000
0000
1000
0001
0000
,
1001
0000
0001
0000
1000
0010
0000
0010
,
0100
0000
0000
0100
0001
0010
0100
0000
,
0010
0000
0001
2000
0000
3010
0200
0000
,
0310
2000
0000
3100
0020
0000
0130
0010
,
0001
1000
0020
0000
1030
0002
0000
0013
,
0100
2000
0000
3100
0020
0000
0032
0000
,
2003
0000
0000
0000
3010
0000
0000
1010
0000
0000
0101
0000
0000
1001
0000
0000
,
0000
0000
0000
0000
1000
0000
1001
0000
0000
1010
0000
0000
0101
0000
0101
0000
,
0001
0010
0110
0000
0100
1001
0000
0110
,
0000
1001
0001
1000
0010
0000
1000
0001
,
0010
0000
0100
0010
0100
0000
0010
0001
,
0010
0000
0001
1000
0001
0000
0100
0010
,
0100
0000
0010
1000
0010
0000
1000
0010
,
1000
0100
1000
0010
0100
1000
0100
0001
,
0010
0100
1001
0000
0000
0000
0000
0000
,
0000
0000
0000
0000
,
0000
0000
0000
0000
,
0000
0000
0000
0000
,
0000
0000
0001
1000
0001
0000
0000
0000
0000
0000
0000
0000
0000
0000
0000
0000
,
0000
0000
0000
0000
,
0000
0000
0000
0000
,
0000
0000
0000
0000
,
0000
0000
0001
1000
0010
0100
0000
0100
,
0000
0010
1000
0001
0010
0100
0000
0100
,
0000
0100
0010
0001
1000
0010
0000
0000
,
0000
0100
0010
0100
0000
0010
0100
0010
,
0000
1000
0001
0100
0010
1000
0000
1000
,
0000
0001
0010
0001
1000
0010
0100
0000
,
0010
2002
0000
0000
,
0000
0000
0000
3003
0000
0000
0001
0000
,
0100
0000
0010
1000
0000
1000
0000
0010
,
1000
0200
0300
0010
,
0100
0000
1000
0010
0000
0010
0000
0100
,
0010
0000
2000
0000
3000
0000
0001
1000
,
0100
0000
1000
0001
0000
0001
0000
0100
,
0001
0000
0010
0011
0011
0000
0010
0000
,
1100
0000
0011
0000
1001
0001
1000
0010
,
1000
0001
0012
0000
0203
0000
0301
0000
,
0110
0000
0101
0000
1010
1000
0001
0010
,
0100
1000
2100
0000
3001
0100
0101
0000
,
0100
0010
2010
0000
3001
0010
0000
0100
,
0000
0010
0002
0000
0103
0000
1010
0000
,
0101
0000
0001
0100
0100
0010
0000
1000
,
0000
0010
0100
0001
2001
0000
3100
1100
,
1100
1001
0101
1010
,
1100
0000
1000
0001
0020
0000
0130
0000
,
0011
1100
0101
1010
,
1001
0000
0001
1000
0020
0000
0130
0000
,
0010
1000
0010
0000
0100
0001
0000
0001
,
0000
1000
0001
0000
0010
0000
0200
0000
,
0000
0000
0300
2000
,
3100
1000
1100
0000
0100
1000
1100
0000
,
0100
1000
1100
0000
1000
0100
1100
0000
,
0100
0010
0110
0000
0010
0100
0110
0000
,
0100
0010
0110
0000
0010
0100
0110
0000
,
0010
0001
0011
0000
0001
0010
0011
0000
,
0010
0001
0011
0000
0001
0010
0011
0000
,
0001
1000
1001
0000
1000
0001
1001
0000
,
0001
0100
0101
0000
0100
0010
0110
0000
,
0010
0100
0010
1000
0001
0010
1000
0000
,
1000
0010
0001
0100
1000
0100
0010
0000
,
0100
0010
1000
0001
0010
1000
0010
0000
,
0010
0100
0010
0001
1000
0010
0100
0000
,
0101
0000
0001
0100
0000
0010
1000
0000
,
0001
0100
0000
0010
1000
0000
0101
0000
,
1001
0000
0000
0000
,
0000
0000
0000
0000
,
0001
1001
1001
0000
0101
0000
0110
0000
,
1010
0000
0000
0000
0110
0000
0000
0000
0101
0000
0000
1001
0000
0000
0000
0000
,
1010
1100
1001
0011
,
1010
0000
0000
0000
0000
0000
1001
0000
0000
0000
0000
0000
0001
0000
1000
0000
0001
0000
0010
0000
0000
0100
0000
0000
,
1200
0000
0310
0000
0001
0010
0100
0010
,
0011
0000
1100
0000
0001
0100
0010
1000
,
0001
0001
0010
1000
1010
0000
0011
0001
,
1001
0010
2002
0000
,
3003
0000
0000
0000
;

//---------------dance-single - ----------------
#NOTEDATA:;
#CHARTNAME:;
#STEPSTYPE:dance-single;
#DESCRIPTION:;
#CHARTSTYLE:;
#DIFFICULTY:Medium;
#METER:6;
#RADARVALUES:0.400935,0.409725,0.397719,0.180099,0.011256,297.000000,53.000000,24.000000,0.000000,0.000000,0.000000,0.000000,0.000000,0.400935,0.409725,0.397719,0.180099,0.011256,297.000000,53.000000,24.000000,0.000000,0.000000,0.000000,0.000000,0.000000;
#CREDIT:;
#NOTES:
0001
0001
1000
1000
,
1001
0110
1001
0110
,
1001
0000
0001
0200
0000
0310
0020
0000
,
0230
0310
0100
1000
,
0100
0010
0100
0001
,
1000
0001
0010
0000
0100
0000
1000
0000
,
0100
0010
0001
0100
,
0010
0100
0010
0000
0100
0001
0000
0000
,
0100
0000
0010
1000
0000
0001
1000
0000
,
0001
0000
0100
0000
0001
0010
0000
0100
,
1000
1010
0000
0000
,
0000
0000
1002
0000
0000
0203
0000
0000
,
0320
0000
0000
2030
0000
0000
3100
0000
,
0010
0000
0002
0000
0000
0023
0000
0000
,
0230
0000
0000
0320
0000
0000
0031
0000
,
1000
0000
0000
0000
0010
0000
0000
1000
0000
0000
0001
0000
0000
0100
0000
0000
,
0000
0000
0000
0000
0010
0000
1000
0000
0000
0001
0000
0000
1000
0000
0100
0000
,
0010
0100
1000
0000
0001
0010
0000
0100
,
0000
0000
0010
0001
1000
0000
0001
0100
,
0010
1001
0000
0001
,
0000
0100
0000
0010
,
0000
0100
0010
1000
,
0001
0000
0010
0000
0100
0010
0001
0010
,
0001
1000
0200
0000
0000
0000
0000
0000
,
0000
0000
0000
0000
,
2300
0000
3020
0000
,
0000
0000
0000
0000
,
0000
0130
0002
0000
0000
0000
0000
0000
,
0000
0000
0000
0000
,
0000
2003
0000
0000
,
0000
0000
0000
0000
,
0000
3010
0000
0100
,
0000
0101
0001
1000
,
0000
0100
0000
0010
,
0000
0110
0010
0001
,
0000
1000
0000
0001
,
0000
1000
0100
0010
,
0001
2002
0000
0000
,
0000
0000
0000
3003
0000
0000
0001
0000
,
0010
0000
0001
0010
0000
0001
0000
0010
,
0001
0010
0000
0100
,
1000
0000
0100
1000
0000
0100
0000
1000
,
0100
0000
1000
0000
0000
0000
1000
0100
,
0010
0000
0001
0010
0000
0100
0000
1000
,
0100
0000
0010
0001
1001
0000
1000
0000
,
0001
0100
0001
0010
,
0100
1100
1100
0100
,
1000
0010
0100
0001
,
1000
0000
1001
0000
1001
0001
0010
0000
,
0100
0010
0001
0100
,
0010
1010
1010
0010
,
0001
0010
0100
0001
,
1000
0000
0001
1000
0001
1000
0001
0000
,
0100
0000
0001
0000
0010
0100
0000
1000
,
0000
0100
0010
0000
0011
0000
0000
0000
,
0010
0000
0100
0000
1000
0010
0000
0100
,
0000
0001
1000
0000
1001
0000
0102
0000
,
0000
0000
0000
0023
,
0000
0230
0000
2000
,
0000
0000
3300
0000
,
0001
0101
0100
0101
,
0001
0101
0100
0101
,
0001
0101
0100
0101
,
0001
0101
0100
0101
,
1000
1100
0100
1100
,
1000
1100
0100
1100
,
1000
1100
0100
1100
,
1000
1100
0100
1100
,
1000
1001
0001
0101
,
0100
0110
0010
1010
,
1000
1001
0001
0011
,
0010
0110
0100
1001
,
1100
0000
0000
0011
0000
0000
1100
0000
,
0000
0011
0000
0000
1100
0000
0011
0000
,
1001
0000
0000
0000
,
0000
0000
0000
0000
,
0001
0100
1000
0000
0100
0000
0010
1000
,
0010
0000
0100
0000
0001
0010
0100
0000
,
0010
0001
0010
0100
,
1000
0000
0010
0000
0100
0100
0010
1000
,
0001
1000
0001
0000
0100
0000
0001
0010
,
0100
0000
0010
0000
0001
0000
1000
0010
,
0100
0100
0100
0000
0010
0000
1000
0001
,
0010
0100
2002
0000
,
3003
0000
0000
0000
;

//---------------dance-single - ----------------
#NOTEDATA:;
#CHARTNAME:;
#STEPSTYPE:dance-single;
#DESCRIPTION:;
#CHARTSTYLE:;
#DIFFICULTY:Easy;
#METER:3;
#RADARVALUES:0.275509,0.315173,0.420231,0.067537,0.000000,192.000000,56.000000,9.000000,0.000000,0.000000,0.000000,0.000000,0.000000,0.275509,0.315173,0.420231,0.067537,0.000000,192.000000,56.000000,9.000000,0.000000,0.000000,0.000000,0.000000,0.000000;
#CREDIT:;
#NOTES:
0001
0000
1000
0000
,
0010
0000
0100
0000
,
1001
1001
0000
0110
,
0000
0100
0000
0001
,
0000
1000
0000
0100
,
0000
1000
0000
0010
,
0000
0100
0000
0001
,
1000
0010
0000
1000
,
0000
0001
0000
0100
,
0010
1000
0000
0010
,
0000
0200
0000
0000
,
0300
0010
1000
0001
,
0010
0100
0100
0010
,
0010
0100
1000
0001
,
0100
0001
0001
1000
,
1000
1001
0000
0000
,
0000
0110
0000
0000
,
0000
0110
0000
0000
,
0000
1001
0000
1001
,
0000
2002
0000
0000
,
0000
3003
0000
0000
,
0000
0000
0000
0000
,
0000
0000
0001
0010
,
0100
1100
0000
0000
,
0000
0000
0000
0000
,
0000
0000
0000
0000
,
0000
0000
0000
0000
,
0000
0000
0000
0000
,
0000
0000
0000
0000
,
0000
0000
0000
0000
,
0000
0000
0000
0000
,
0000
1000
0000
0001
,
0000
0101
0000
0000
,
0000
0001
0000
1000
,
0000
1010
0000
0000
,
0000
0010
0000
0100
,
0000
1001
0000
0000
,
0000
0110
0000
0000
,
0000
0000
0000
0010
,
1000
0001
1000
0100
,
1000
1000
0000
0100
,
1000
0010
0100
0001
,
0010
0010
0000
0100
,
0010
0001
1000
0010
,
1000
0000
0001
1000
0001
0000
0000
0000
,
1000
0001
0100
0001
,
0010
0110
0110
0000
,
0100
1000
0010
0100
,
0001
1001
1001
0000
,
0001
0010
0100
1000
,
0100
0110
0110
0000
,
0100
0010
0001
1000
,
0010
1001
1001
0001
,
0100
0010
1000
0100
,
0010
0011
0011
0000
,
0001
0100
0010
1000
,
0001
1001
1001
2000
,
0000
0000
0000
3020
,
0000
0230
0000
0002
,
0000
0000
0303
0001
,
0000
1001
0000
0110
,
0000
1001
0000
0110
,
0000
0101
0000
1010
,
0000
0101
0000
1010
,
0000
1100
0000
0011
,
0000
1100
0000
0011
,
0000
1001
0000
0110
,
0000
0110
0000
1001
,
0000
0101
0000
1001
,
0000
1100
0000
1001
,
0000
0011
0000
1001
,
0000
1010
0000
1001
,
0000
0110
0000
1001
,
0000
0110
0000
1001
,
1001
0000
0000
0000
,
0000
0000
0000
0000
,
0001
0100
0001
0000
0100
0000
0010
0000
,
1000
0010
0001
0001
,
0010
0100
0010
1000
,
0001
0010
0100
0010
,
0001
1000
0001
0100
,
0001
1000
0100
1000
,
0010
0100
0001
1000
,
0100
0010
2002
0000
,
3003
0000
0000
0000
;

//---------------dance-single - ----------------
#NOTEDATA:;
#CHARTNAME:;
#STEPSTYPE:dance-single;
#DESCRIPTION:;
#CHARTSTYLE:;
#DIFFICULTY:Beginner;
#METER:2;
#RADARVALUES:0.137218,0.156649,0.105058,0.000000,0.000000,114.000000,14.000000,0.000000,0.000000,0.000000,0.000000,0.000000,0.000000,0.137218,0.156649,0.105058,0.000000,0.000000,114.000000,14.000000,0.000000,0.000000,0.000000,0.000000,0.000000,0.000000;
#CREDIT:;
#NOTES:
// measure 0
1000
0000
0000
0000
,  // measure 1
0001
0000
0000
0000
,  // measure 2
1001
0001
0000
1000
,  // measure 3
0000
0010
0000
0000
,  // measure 4
0000
0010
0000
0000
,  // measure 5
0100
0010
0000
0000
,  // measure 6
0000
1000
0000
0000
,  // measure 7
0001
1000
0000
0000
,  // measure 8
0000
0001
0000
0000
,  // measure 9
0000
0100
0000
0000
,  // measure 10
0000
0010
0000
0000
,  // measure 11
0000
1001
0000
0001
,  // measure 12
0000
1000
1000
1000
,  // measure 13
0000
0001
0000
0100
,  // measure 14
0000
0010
0010
0010
,  // measure 15
0000
0110
0000
0000
,  // measure 16
0000
0110
0000
0000
,  // measure 17
0000
1001
0000
0000
,  // measure 18
0000
0110
0000
0100
,  // measure 19
0000
1001
0000
0000
,  // measure 20
0000
0000
0000
0000
,  // measure 21
0000
0000
0000
0000
,  // measure 22
0000
0000
0000
0000
,  // measure 23
0000
1001
0000
0000
,  // measure 24
0000
0000
0000
0000
,  // measure 25
0000
0000
0000
0000
,  // measure 26
0000
0000
0000
0000
,  // measure 27
0000
0000
0000
0000
,  // measure 28
0000
0000
0000
0000
,  // measure 29
0000
0000
0000
0000
,  // measure 30
0000
0000
0000
0000
,  // measure 31
0000
0010
0000
0000
,  // measure 32
0000
0100
0000
0000
,  // measure 33
0000
0001
0000
0000
,  // measure 34
0000
1000
0000
0001
,  // measure 35
0000
0100
0000
0000
,  // measure 36
0000
0010
0000
0000
,  // measure 37
0000
1001
0000
0000
,  // measure 38
0000
0000
0000
0001
,  // measure 39
0000
0000
0000
0000
,  // measure 40
1000
0000
0000
0010
,  // measure 41
0000
0000
0000
0000
,  // measure 42
0100
0000
0000
0010
,  // measure 43
0000
0000
0000
0000
,  // measure 44
1000
0000
1001
0000
,  // measure 45
0001
0000
0000
1000
,  // measure 46
0000
0001
0001
0000
,  // measure 47
0100
0000
0000
0010
,  // measure 48
0000
1000
1000
0000
,  // measure 49
0010
0000
0000
0100
,  // measure 50
0000
0001
0001
0000
,  // measure 51
1000
0000
0000
0001
,  // measure 52
0000
1001
0000
1001
,  // measure 53
0000
0000
0000
0001
,  // measure 54
0000
0010
0010
0001
,  // measure 55
0000
0000
0000
0010
,  // measure 56
0000
0100
0100
1000
,  // measure 57
0000
0000
0000
0000
,  // measure 58
0000
0000
0000
0001
,  // measure 59
0000
0000
0000
0000
,  // measure 60
0000
1000
0000
1000
,  // measure 61
0000
1000
0000
1000
,  // measure 62
0000
0100
0000
0100
,  // measure 63
0000
0100
0000
0100
,  // measure 64
0000
1000
0000
1000
,  // measure 65
0000
1000
0000
1000
,  // measure 66
0000
0001
0000
0001
,  // measure 67
0000
0010
0000
0010
,  // measure 68
0000
0001
0000
0001
,  // measure 69
0000
0001
0000
0001
,  // measure 70
0000
1000
0000
1000
,  // measure 71
0000
1000
0000
1000
,  // measure 72
0000
0001
0000
1000
,  // measure 73
0000
0010
0000
0100
,  // measure 74
1001
0000
0000
0000
,  // measure 75
0000
0000
0000
0000
,  // measure 76
0010
0010
0000
0100
,  // measure 77
0000
0000
0010
0000
,  // measure 78
1000
0000
0000
1000
,  // measure 79
0000
0000
0001
0000
,  // measure 80
1000
0000
0000
1000
,  // measure 81
0000
0000
0000
0000
,  // measure 82
0001
0000
1000
0000
,  // measure 83
0010
0000
1001
0000
;
