#TITLE:No More Sorrow;
#SUBTITLE:;
#ARTIST:Linkin Park;
#TITLETRANSLIT:;
#SUBTITLETRANSLIT:;
#ARTISTTRANSLIT:;
#GENRE:;
#CREDIT:;
#BANNER:[Break] - No More Sorrow-bn.png;
#BACKGROUND:[Break] - No More Sorrow-bg.png;
#LYRICSPATH:;
#CDTITLE:;
#MUSIC:[Break] - No More Sorrow.ogg;
#OFFSET:-0.510475;
#SAMPLESTART:60.099998;
#SAMPLELENGTH:12.000000;
#SELECTABLE:YES;
#DISPLAYBPM:133.000000;
#BPMS:0.000000=132.751007
;
#STOPS:146.000000=0.452000
;
#BGCHANGES:;
#KEYSOUNDS:;
#ATTACKS:;

//---------------dance-single - ----------------
#NOTES:
     dance-single:
     :
     Hard:
     7:
     0.462235,0.547046,0.416114,0.172185,0.548840,369.000000,58.000000,24.000000,0.000000,0.000000,0.000000,0.462235,0.547046,0.416114,0.172185,0.548840,369.000000,58.000000,24.000000,0.000000,0.000000,0.000000:
0000
0000
0000
0000
,
0000
0000
0000
0000
,
0000
0000
0000
0000
,
0000
0000
0000
0000
,
2002
0000
3003
0000
,
0000
0000
0000
0000
,
0220
0000
0330
0000
,
0000
0000
0000
0000
,
1001
0000
1000
0001
0000
0001
0100
0000
0000
0010
0000
0010
,
1000
0000
0000
0100
0000
0100
0010
0000
0010
0001
0000
0001
,
1001
0000
0001
1000
0000
1000
0010
0000
0000
0100
0000
0100
,
0001
0000
0000
0010
0000
0010
0100
0000
0100
1000
0001
1000
,
0000
0000
0000
0000
,
1001
0000
0001
0100
0000
0010
1000
0000
0100
0001
0000
0100
,
1000
0000
1000
0010
0000
0010
0100
0000
0100
0001
0000
0001
,
1001
0000
1000
0100
0000
0010
0001
0000
0100
1000
0000
0100
,
0001
0000
0001
0010
0000
0010
0100
0000
0100
1000
0010
0100
,
0001
0000
0010
0100
0000
1000
0001
0000
0100
1000
0000
0100
,
0001
0000
0001
0010
0000
0010
0100
0000
0100
1000
0000
1000
,
0010
0000
0010
0100
0000
0100
0001
0000
0001
0010
0000
0010
,
0100
0000
0100
1000
0000
0001
0100
0000
0100
0010
0000
1000
,
0100
0000
0100
0010
0000
0001
0100
0000
0000
0010
0000
1000
,
0100
0000
0000
0010
0000
0001
0100
0000
0100
0010
0000
0010
,
1000
0000
0100
0010
0000
0001
0100
0000
0000
0010
0000
1000
,
0100
0000
0000
0010
0000
0001
0100
0000
0010
0100
0000
0000
,
1001
0000
0001
0100
0000
1000
0100
0000
0010
0100
0000
0000
,
1001
0000
1000
0100
0000
0001
0100
0000
0000
1000
0000
1000
,
0010
0000
0010
0100
0000
0001
0000
0000
1000
0100
0000
0000
,
0010
0000
0001
0000
0000
0100
0000
0000
0010
0100
0000
0000
,
0110
0000
0010
0001
0000
0010
1000
0000
0001
1000
0000
0000
,
0110
0000
0100
0001
0000
0100
1000
0000
0010
0100
0000
0000
,
0001
0000
0001
0010
0000
0100
0000
0000
1000
0010
0000
0000
,
0101
0011
2002
3003
,
0010
0000
1000
0100
0000
0001
0100
0000
1000
0010
0000
0010
,
0100
0000
0001
0010
0000
1000
0010
0000
0001
0100
0000
0100
,
0010
0000
0100
0001
0000
0010
1000
0000
0001
0100
0000
1000
,
0010
0000
0100
0001
1000
0001
0100
0000
0000
1001
0000
0001
,
0100
0000
0100
0010
0000
0010
1000
0000
0000
1100
0000
0000
,
1001
0000
0000
0101
0000
0000
1001
0000
0001
0100
0000
0000
,
1010
0000
0000
1100
0000
0000
0011
0000
0000
0101
0000
0100
,
0000
0000
0010
0000
0000
1000
0001
0000
1000
1100
0000
0100
,
0010
0000
0010
0001
0000
0100
0010
0000
0000
1010
0000
0000
,
1001
0000
0000
0011
0000
0000
1001
0000
0000
0100
0000
0010
,
1000
0000
0010
0100
0000
0000
0010
0000
0000
2010
0000
0000
,
3100
0012
0103
2002
,
0000
0000
0000
0000
,
0000
0000
0000
0000
,
3003
0000
0000
0000
,
0000
0000
0000
1020
,
0130
0021
0130
1001
,
0110
1001
0010
1200
,
0310
0201
0310
0011
,
1100
1002
0000
0200
,
0000
0300
0003
0000
,
0000
0000
0000
2002
,
0000
3003
0000
0000
,
0000
0000
0000
0000
0000
0000
0000
0000
0000
0001
1000
0001
,
1000
0001
1000
0001
0000
0000
0000
0000
0000
0000
0000
0000
,
0000
0000
0000
0000
0000
0000
0000
0000
0000
0100
0010
0100
,
0010
0100
0010
0100
0000
0000
0000
0000
0000
0000
0000
0000
,
0000
0000
0000
0000
0000
0000
0000
0000
0000
0110
0000
1000
,
0010
0000
0100
0001
0000
0001
0010
0000
0100
1000
0000
0000
,
1010
0000
0000
0101
0000
0000
1001
0000
0001
0100
0000
0100
,
0010
0000
0000
1010
0000
0000
0101
0000
0000
1001
0000
0001
,
0000
0000
1001
0000
0000
0001
0100
0001
0100
0001
0000
0100
,
0010
0000
1000
0100
0000
0001
0100
0000
1000
0010
0000
0000
,
0101
0000
0000
1100
0000
0000
1001
0000
0000
1000
0000
0010
,
0100
0000
0001
0010
0000
0000
0100
0000
0000
1002
0000
0000
,
0103
2001
3100
2002
,
0000
0000
0000
0000
,
0000
0000
0000
0000
0000
0000
3003
0000
0000
0100
0000
0010
,
0100
0000
0001
1000
0000
0000
1010
0000
0000
0102
0000
0000
,
0013
0000
0000
2100
0000
0000
3010
0000
0000
1000
0001
1000
,
0001
1000
0001
1000
0000
0000
0001
1000
0001
1000
0000
0000
,
0001
1000
0001
1000
0001
1000
0001
1000
0001
0010
0100
0010
,
0100
0010
0100
0010
0000
0000
0100
0010
0100
0010
0000
0000
,
0100
0010
0100
1000
0000
0000
0000
0000
0000
0000
0000
0000
;

//---------------dance-single - ----------------
#NOTES:
     dance-single:
     :
     Challenge:
     10:
     0.613921,0.656455,0.451986,0.050221,1.000000,529.000000,63.000000,7.000000,0.000000,0.000000,0.000000,0.613921,0.656455,0.451986,0.050221,1.000000,529.000000,63.000000,7.000000,0.000000,0.000000,0.000000:
0000
0000
0000
0000
,
0000
0000
0000
0000
,
0000
0000
0000
0000
,
0000
0000
0000
0000
,
0100
0010
0100
0010
0100
0010
0100
0000
0000
0000
0000
0000
,
0000
0000
0000
0000
,
0001
1000
0001
1000
0001
1000
0001
0000
0000
0000
0000
0000
,
0000
0000
0000
0000
,
0010
1000
0010
1000
0010
1000
0010
0000
0000
0100
0001
0100
,
0001
0000
0000
0010
0001
0010
0001
1000
0001
1000
0001
1000
,
0100
1000
0100
1000
0100
1000
0100
0000
0000
0010
0001
0010
,
0001
0000
0000
0100
0001
0100
0001
1000
0001
1000
0001
1000
,
0000
0000
0000
0000
,
1010
0000
0100
0001
0100
0010
1000
0000
0010
0100
1000
0100
,
0001
0000
0001
0100
0000
0100
0010
0000
0010
1000
0000
0100
,
0110
0000
0100
1000
0100
0010
0001
0000
0010
1000
0010
0001
,
1000
0000
1000
0100
0000
0100
0010
0000
0010
0001
0010
0100
,
1100
0000
0010
0001
0010
0100
1000
0000
0100
0001
0100
1000
,
0001
0000
0001
0010
0000
1000
0010
0000
0010
0001
0000
0100
,
0110
0000
0010
1000
0000
0100
0001
0000
0100
1000
0000
0010
,
0100
0001
1000
0100
1000
0001
0010
0001
1000
0100
1000
0001
,
1000
0010
0100
0010
1000
0100
1000
0000
0000
0010
0100
0001
,
0100
0000
0000
0010
1000
0010
1000
0100
1000
0001
0100
0001
,
0010
0001
0010
0100
1000
0001
1000
0000
0000
0010
1000
0001
,
0100
0000
0000
0001
0010
0100
1000
0010
1000
0100
1000
0100
,
0010
0001
0010
0100
1000
0001
0100
0000
0000
0010
1000
0100
,
0010
0000
0000
0001
0100
0010
1000
0100
1000
0010
0100
0001
,
1000
0100
0010
0001
1000
0001
0100
0000
0000
0010
1000
0001
,
0100
0000
0000
0010
1000
0100
0010
0001
0010
1000
0010
0100
,
1000
0010
0100
0001
0100
0010
1000
0000
0000
0100
0010
0001
,
0100
0000
0000
0010
1000
0100
0001
0100
1000
0010
0100
0001
,
0100
0010
1000
0010
0100
0001
0010
0000
0000
0100
1000
0001
,
0100
0000
0000
0010
1000
0100
0010
1000
0010
0001
0100
0010
,
0001
0010
1000
0100
0010
0100
1000
0000
0000
0010
0100
0001
,
0010
0000
0000
1000
0010
0100
1000
0010
0001
0010
0100
0010
,
1000
0100
0001
0100
1000
0010
0100
0000
0000
0001
0010
0100
,
1000
0000
0000
0010
0100
0001
1000
0000
0000
0110
0000
1000
,
0001
0000
0010
0100
0000
0001
0100
0000
1000
1010
0000
0000
,
0101
0000
0000
0011
0000
0000
1100
0000
0000
1010
0000
0100
,
0001
0000
1000
0001
0000
0010
0001
0000
0100
0001
0000
1001
,
0000
0000
0101
0100
0010
1000
0100
0010
0100
1001
0000
0100
,
0001
0000
0100
1000
0000
0010
0001
0000
0010
1010
0000
0000
,
0101
0000
0000
0011
0000
0000
1100
0000
0000
0100
0000
0010
,
0001
0000
1000
0001
0000
0010
0001
0000
0100
0110
0000
0010
,
1000
0100
0010
0001
0001
0100
0010
1000
0010
1010
0000
0000
,
1100
0000
0000
0011
0000
0000
0101
0000
0000
0010
1000
0100
,
0001
0100
1000
2010
0000
0000
3100
0000
0000
0101
0000
0000
,
0011
0000
0000
1100
0000
0000
1010
0000
0000
0100
0001
0010
,
1000
0010
0001
1002
0000
0000
0013
0000
0000
1100
0000
0000
,
0011
0000
0000
0101
0000
0000
1010
0000
0000
0001
1000
0010
,
0001
0010
1000
2001
0000
0000
3010
0000
0000
1100
0000
0000
,
0011
0000
0000
1010
0000
0000
0101
0000
0000
1000
0100
0001
,
0010
1000
0010
0012
0000
0000
0100
0000
0000
2000
0000
0000
,
0000
3000
0003
0000
,
0000
0000
0000
0000
0000
0000
0000
0000
0000
0010
0001
0100
,
0001
0010
0001
0100
0000
0000
0000
0000
0000
0000
0000
0000
,
0000
0000
0000
0000
0000
0000
0000
0000
0000
0001
0100
1000
,
0100
0001
0100
1000
0000
0000
0000
0000
0000
0000
0000
0000
,
0000
0000
0000
0000
0000
0000
0000
0000
0000
0100
0001
0010
,
1000
0010
0001
0100
0000
0000
0000
0000
0000
0000
0000
0000
,
0000
0000
0000
0000
0000
0000
0000
0000
0000
1001
0000
0100
,
1000
0000
0100
0001
0000
0010
1000
0000
0010
0011
0000
0000
,
0101
0000
0000
1010
0000
0000
1100
0000
0000
0001
0000
0100
,
1000
0000
0100
0001
0000
0100
1000
0000
0100
0001
0000
0011
,
0000
0000
1100
0100
0010
0001
0100
1000
0100
1001
0000
1000
,
0100
0000
0001
0100
0000
1000
0010
0000
0001
0011
0000
0000
,
1010
0000
0000
1100
0000
0000
0101
0000
0000
1100
0000
0010
,
0001
0000
0100
0001
0000
1000
0001
0000
0010
0011
0000
0100
,
1000
0010
0100
0101
0000
0010
0100
1000
0001
2002
0000
0000
,
0000
0000
0000
0000
,
0000
0000
0000
0000
0000
0000
3003
0000
0000
1100
0000
0010
,
0100
0000
0001
0100
0000
1000
0100
0000
1000
1010
0010
0100
,
0001
0010
0100
1100
1000
0010
0100
0001
0010
0011
0001
0010
,
0100
1000
0010
0110
0000
0000
0100
0010
1000
1100
0000
0000
,
0100
0010
0001
0100
1000
0100
0001
0010
1000
0010
0001
0100
,
0010
1000
0100
1100
0000
0000
0010
0001
0100
0101
0000
0000
,
0010
1000
0100
1001
0000
0000
0000
0000
0000
0000
0000
0000
;

//---------------dance-single - ----------------
#NOTES:
     dance-single:
     :
     Medium:
     6:
     0.465309,0.492341,0.703089,0.394591,0.200882,301.000000,98.000000,55.000000,0.000000,0.000000,0.000000,0.465309,0.492341,0.703089,0.394591,0.200882,301.000000,98.000000,55.000000,0.000000,0.000000,0.000000:
0000
0000
0000
0000
,
0000
0000
0000
0000
,
0000
0000
0000
0000
,
0000
0000
0000
0000
,
2002
0000
0003
3200
,
0320
0000
0032
0003
,
2002
0000
3000
0203
,
0320
0000
2030
3000
,
1100
0010
0101
0010
,
1100
0010
0001
0100
,
1010
0100
0011
0100
,
1010
0100
0011
1001
,
0000
0000
0000
0000
,
1010
0000
0010
0100
0000
0100
0001
0000
0000
0010
0000
0000
,
0011
0000
0010
0100
0000
0100
1000
0000
0000
0100
0000
0000
,
1100
0000
0100
0010
0000
0010
0001
0000
0000
0100
0000
0000
,
0101
0000
0001
0100
0000
0100
0010
0000
0010
1000
0000
0000
,
1001
0000
1000
0001
0000
0001
0010
0000
0000
0100
0000
0000
,
0110
0000
0100
0010
0000
0010
0001
0000
0000
0100
0000
0000
,
0110
0000
0100
0010
0000
0010
1000
0000
1000
0001
0000
0000
,
0011
0000
0010
0001
0000
0000
1001
0000
0001
1000
0000
0000
,
1100
0100
0100
0110
,
0110
0010
0011
1001
,
1001
1000
1000
1010
,
1010
0010
0110
0110
,
0101
0000
0000
0100
0000
0000
0010
0000
1000
0001
0000
0000
,
1001
0100
0010
1000
,
0100
0000
0100
0010
0000
0000
0001
0000
0000
1000
0000
0000
,
0010
0000
0010
0000
0000
0100
0000
0000
0010
0100
0000
0000
,
1001
0000
0000
0001
0000
0000
0010
0000
0100
0010
0000
0000
,
1001
0000
0000
0100
0000
0000
0010
0000
1000
0010
0000
0000
,
0100
0000
0100
0001
0000
0001
0000
0000
0100
0001
0000
0000
,
0101
0101
2002
3003
,
0020
0100
2030
0100
,
3002
0010
0103
0110
,
2000
0010
3002
0100
,
0013
0100
0110
1002
,
0010
0100
0013
0011
,
0011
1100
1100
0010
,
0101
0000
0000
1001
0000
0000
1100
0000
0000
1001
0000
0001
,
0100
0000
0100
0010
0000
0000
0110
0000
0000
2001
0000
0000
,
0010
0100
3010
1010
,
1010
0000
0000
0101
0000
0000
0101
0000
0000
0010
0000
1000
,
0100
0000
0100
1000
0000
0000
1100
0000
0000
2002
0000
0000
,
3003
0220
0330
0201
,
1000
0010
1000
0001
,
1000
0010
0301
1200
,
0001
0010
0001
1000
,
0001
0010
1300
0101
,
0100
0110
0010
1001
,
1001
1001
0010
1010
,
0010
0110
0100
1001
,
1001
2002
3003
0220
,
0000
0300
2030
3002
,
0000
0203
0300
0220
,
0000
0030
0302
2003
,
0000
3200
0300
0220
,
0000
0330
0000
1100
,
1010
0101
0011
2001
,
0010
3010
0100
0010
,
0000
0000
0000
0100
0000
0000
0000
0000
0000
1001
0000
0001
,
0100
0000
0000
0010
0000
0010
1000
0000
0000
0100
0000
0100
,
1000
0000
0000
1100
0000
0000
1001
0000
0000
1001
0000
1000
,
0100
0000
0000
0010
0000
0010
0001
0000
0000
0100
0000
0110
,
0000
0000
0110
0000
0000
0010
1000
0000
1000
0100
0000
0100
,
0010
0000
0000
0001
0000
0001
0100
0000
0000
0010
0000
0010
,
1000
0000
0000
1010
0000
0000
1001
0000
0000
1000
0000
0001
,
0010
0000
0010
0100
0000
0000
0110
0000
0000
2002
0000
0000
,
3003
0220
0330
2002
,
0000
0000
0000
0000
,
0000
0000
0000
0000
0000
0000
3003
0000
0000
0100
0000
0010
,
1000
0000
1000
0100
0000
0000
0110
0000
0000
2002
0000
0000
,
3003
0220
0330
1010
,
2100
0000
3100
0010
0000
0000
0012
0000
0013
0100
0000
0000
,
1100
0000
0100
1000
0000
1000
0010
0000
0010
0100
0000
0000
,
0210
0000
0310
1000
0000
0000
2100
0000
3100
0010
0000
0000
,
0021
0000
0031
0100
0000
0000
0000
0000
0000
0000
0000
0000
;

//---------------dance-single - ----------------
#NOTES:
     dance-single:
     :
     Easy:
     4:
     0.245979,0.273523,0.265452,0.193708,0.000000,176.000000,37.000000,27.000000,0.000000,0.000000,0.000000,0.245979,0.273523,0.265452,0.193708,0.000000,176.000000,37.000000,27.000000,0.000000,0.000000,0.000000:
0000
0000
0000
0000
,
0000
0000
0000
0000
,
0000
0000
0000
0000
,
0000
0000
0000
0000
,
2000
0000
3000
0000
,
0000
0000
0000
0000
,
0002
0000
0003
0000
,
0000
0000
0000
0000
,
0110
0000
1000
0000
,
0100
0000
0010
0001
,
1001
0000
0100
0000
,
0010
0000
1000
1000
,
0000
0000
0000
0000
,
2010
0000
3001
0000
,
0010
0100
1000
0000
,
0012
0000
1003
0000
,
0010
0100
0001
0000
,
1002
0000
0103
0000
,
0010
1000
0100
0000
,
2001
0000
3100
0000
,
0010
0001
0100
0010
,
0110
1000
0001
0000
,
0010
0000
0100
1000
,
0001
1000
0010
0000
,
0100
0000
0001
0100
,
0110
0000
1000
0100
,
0110
0000
0001
0100
,
0010
1000
0010
0100
,
0001
0010
0100
1000
,
1001
0000
0100
0010
,
1000
0000
0100
0010
,
0001
1000
0010
0100
,
0001
1000
2002
3003
,
2000
0000
3020
0000
,
0230
0000
0302
0000
,
2003
0000
3200
0000
,
0320
0000
0031
1002
,
0000
0000
0003
1000
,
0100
0001
0100
1000
,
0010
0010
0010
1000
,
0001
1000
0000
2001
,
0000
0000
3000
0001
,
0100
1000
0100
0001
,
0010
0100
1000
0020
,
0030
0200
0300
0001
,
0100
0010
0100
0001
,
0100
0010
0000
1000
,
0100
0010
0100
1000
,
0100
0010
0000
1001
,
0000
0110
0000
1001
,
1001
1001
0000
0110
,
0000
1001
0000
0110
,
0110
0120
0000
0200
,
0000
0300
0030
0000
,
0000
0000
0000
2001
,
0000
3000
0000
0000
,
0000
0000
0000
1002
,
0000
0003
0000
0010
,
0010
1000
1000
0000
,
0100
0100
0100
0110
,
0000
1001
0000
0110
,
0010
1000
0100
0010
,
0001
1000
0001
0100
,
0010
0010
0010
1000
,
0001
1001
0000
0110
,
0001
0010
0100
1000
,
0001
1000
0010
1000
,
0010
0100
1001
0001
,
0000
1000
0000
2002
,
0000
0000
0000
0000
,
0000
0000
3003
0000
,
0100
0010
0110
1001
,
0000
0110
0000
2002
,
0000
0000
0000
0000
,
0000
0000
0000
0000
,
0000
0000
0000
0000
,
3003
1001
0000
0000
;

//---------------dance-double - ----------------
#NOTES:
     dance-double:
     :
     Challenge:
     10:
     0.610847,0.656455,0.480683,0.064569,0.990064,520.000000,67.000000,9.000000,0.000000,0.000000,0.000000,0.610847,0.656455,0.480683,0.064569,0.990064,520.000000,67.000000,9.000000,0.000000,0.000000,0.000000:
00000000
00000000
00000000
00000000
,
00000000
00000000
00000000
00000000
,
00000000
00000000
00000000
00000000
,
00000000
00000000
00000000
00000000
,
00010000
01000000
00100000
10000000
01000000
00100000
00010000
00000000
00000000
00000000
00000000
00000000
,
00000000
00000000
00000000
00000000
,
00001000
00000100
00000010
00000001
00000100
00000010
00001000
00000000
00000000
00000000
00000000
00000000
,
00000000
00000000
00000000
00000000
,
00000010
00001000
00000100
00010000
00001000
00100000
00010000
00000000
00000000
01000000
00010000
10000000
,
01000000
00000000
00000000
00100000
00001000
00010000
00000100
00001000
00000010
00000100
00000001
00000010
,
00000100
00010000
00001000
00100000
00010000
01000000
00100000
00000000
00000000
10000000
00010000
01000000
,
00100000
00000000
00000000
01000000
00100000
00010000
00001000
00000100
00000010
00001000
00000100
00010000
,
00000000
00000000
00000000
00000000
,
00011000
00000000
00100000
00010000
10000000
01000000
00100000
00000000
00001000
00010000
00000100
00001000
,
00000010
00000000
00001000
00000100
00000000
00000100
00010000
00000000
00010000
00001000
00000000
01000000
,
01100000
00000000
10000000
00100000
01000000
00010000
10000000
00000000
01000000
00010000
00001000
00000100
,
00000010
00000000
00000010
00001000
00000000
00000100
00010000
00000000
00010000
00001000
00000100
00000010
,
00000110
00000000
00000010
00000001
00001000
00000100
00000010
00000000
00001000
00000100
00010000
00001000
,
01000000
00000000
01000000
00100000
00000000
10000000
01000000
00000000
01000000
00010000
00000000
00010000
,
00011000
00000000
00001000
00000100
00000000
00000100
00000010
00000000
00000010
00010000
00000000
00010000
,
00011000
00000000
00001000
01000000
00000000
00100000
10100000
00000000
10000000
01000000
00000000
01000000
,
00100000
10000000
00100000
00010000
00100000
01000000
00100000
00000000
00000000
00001000
00010000
00001000
,
00000100
00000000
00000000
00000010
00000001
00000010
00001000
00000010
00000100
00000010
00001000
00000100
,
00010000
00001000
00010000
01000000
00010000
00001000
00010000
00000000
00000000
01000000
00010000
01000000
,
10000000
00000000
00000000
00100000
01000000
00010000
01000000
10000000
01000000
00100000
01000000
00010000
,
10000000
01000000
00100000
01000000
00010000
01000000
10000000
00000000
00000000
00100000
00010000
00001000
,
00000100
00000000
00000000
00000010
00001000
00000010
00000001
00000010
00000100
00000010
00001000
00000100
,
00000001
00000100
00000010
00000100
00001000
00000001
00000100
00000000
00000000
00000010
00001000
00000100
,
00010000
00000000
00000000
01000000
10000000
00100000
01000000
00010000
00100000
10000000
00100000
01000000
,
00010000
00001000
00010000
00001000
00000100
00000010
00001000
00000000
00000000
00000001
00000100
00001000
,
00010000
00000000
00000000
00001000
00010000
01000000
10000000
00100000
01000000
00010000
01000000
10000000
,
01000000
00100000
01000000
00010000
00100000
10000000
00100000
00000000
00000000
01000000
00010000
00001000
,
00000100
00000000
00000000
00001000
00010000
00001000
00100000
01000000
00100000
10000000
00100000
00001000
,
00010000
00000100
00000010
00000100
00001000
00000010
00010000
00000000
00000000
00000100
00010000
00001000
,
00100000
00000000
00000000
00010000
01000000
10000000
01000000
00100000
00010000
00001000
00010000
01000000
,
10000000
00100000
01000000
10000000
01000000
00010000
00100000
00000000
00000000
01000000
00010000
00001000
,
00000010
00000000
00000000
00000001
00000100
00001000
00010000
00000000
00000000
00012000
00000000
00103000
,
00010000
00000000
00100000
10000000
00000000
00100000
00010000
00000000
01000000
01100000
00000000
00000000
,
01001000
00000000
00000000
00010010
00000000
00000000
00001001
00000000
00000000
00000001
00000000
00000100
,
00000110
00000000
00000000
00001010
00000000
00000000
01010000
00000000
00000000
11000000
00000000
10010000
,
00000000
00000000
00110000
00010000
00100000
10000000
00010000
01000000
10000000
10020000
00000000
01030000
,
00001000
00000000
00001000
00010000
00000000
00000100
00000010
00000000
00000001
00000101
00000000
00000000
,
00001100
00000000
00000000
01010000
00000000
00000000
11000000
00000000
00000000
10000000
00000000
00100000
,
01000000
00000000
00001000
00010000
00000000
00000000
00011000
00000000
00000000
00000110
00000000
00000100
,
00001000
00010000
00100000
01000000
00000000
00001000
00010000
01000000
00010000
00010100
00000000
00000000
,
00000110
00000000
00000000
00000011
00000000
00000000
00000101
00000000
00000000
00000100
00001000
00010000
,
01000000
00010000
00001000
00000200
00000000
00000000
00000310
00000000
00000000
00001100
00000000
00000000
,
00011000
00000000
00000000
00110000
00000000
00000000
11000000
00000000
00000000
01000000
00010000
00001000
,
00000100
00001000
00010000
02000000
00000000
00000000
13000000
00000000
00000000
10100000
00000000
00000000
,
01010000
00000000
00000000
00011000
00000000
00000000
00001001
00000000
00000000
00000010
00001000
00010000
,
01000000
00010000
00001000
00000020
00000000
00000000
00000031
00000000
00000000
00000101
00000000
00000000
,
00001010
00000000
00000000
00011000
00000000
00000000
01010000
00000000
00000000
10000000
01000000
00010000
,
00001000
00000100
00000001
00000020
00000000
00000000
00000000
00000000
00000000
00000200
00000000
00000000
,
00000000
00000300
00000030
00000000
,
00000000
00000000
00000000
00000000
00000000
00000000
00000000
00000000
00000000
00010000
00001000
00010000
,
01000000
00001000
00000100
00010000
00000000
00000000
00000000
00000000
00000000
00000000
00000000
00000000
,
00000000
00000000
00000000
00000000
00000000
00000000
00000000
00000000
00000000
00001000
00010000
00001000
,
00000100
00010000
01000000
00001000
00000000
00000000
00000000
00000000
00000000
00000000
00000000
00000000
,
00000000
00000000
00000000
00000000
00000000
00000000
00000000
00000000
00000000
00010000
01000000
00001000
,
00010000
00000010
00000100
00010000
00000000
00000000
00000000
00000000
00000000
00000000
00000000
00000000
,
00000000
00000000
00000000
00000000
00000000
00000000
00000000
00000000
00000000
10100000
00000000
00100000
,
00010000
00001000
00010000
01000000
00000000
00001000
00000010
00000100
00001000
00011000
00000000
00000000
,
00110000
00000000
00000000
00001100
00000000
00000000
00011000
00000000
00010000
10000000
00000000
00000000
,
11000000
00000000
00000000
00110000
00000000
00000000
00001100
00000000
00000000
00000011
00000000
00001001
,
00000000
00000000
00000101
00000100
00001000
00010000
01000000
10000000
00100000
01100000
00000000
01000000
,
00010000
00000100
00000010
00001000
00000000
01000000
10000000
00100000
00010000
00011000
00000000
00000000
,
00001010
00000000
00000000
01010000
00000000
00000000
00011000
00000000
00001000
00000100
00000000
00000001
,
00000100
00000000
00001000
00010000
00000000
01000000
10000000
00000000
00100000
01000000
01000000
00010000
,
00100000
00001000
00010000
00001000
00001000
00000100
00000010
00010000
00001000
00022000
00000000
00000000
,
00000000
00000000
00000000
00000000
,
00000000
00000000
00000000
00000000
00000000
00000000
00033000
00000000
00000000
00001000
00000000
00100000
,
01000000
00000000
00100000
00101000
00000000
00000000
00010100
00000000
00000000
00000011
00000001
00000100
,
00001000
00010000
01000000
11000000
10000000
00100000
00010000
00001000
00000100
00000101
00000001
00000010
,
00000100
00010000
00001000
00011000
00000000
00000000
00001000
00000100
00000010
00001010
00000000
00000000
,
00001000
00000100
00000001
00001000
00010000
01000000
10000000
00100000
00010000
00001000
00000100
00000001
,
00000010
00001000
00010000
00011000
00000000
00000000
00010000
01000000
10000000
10010000
00000000
00000000
,
00010000
00100000
00001000
00110000
00000000
00000000
00000000
00000000
00000000
00000000
00000000
00000000
;

//---------------dance-double - ----------------
#NOTES:
     dance-double:
     :
     Hard:
     8:
     0.461210,0.547046,0.315672,0.193708,0.591886,379.000000,44.000000,27.000000,0.000000,0.000000,0.000000,0.461210,0.547046,0.315672,0.193708,0.591886,379.000000,44.000000,27.000000,0.000000,0.000000,0.000000:
// measure 0
00000000
00000000
00000000
00000000
,  // measure 1
00000000
00000000
00000000
00000000
,  // measure 2
00000000
00000000
00000000
00000000
,  // measure 3
00000000
00000000
00000000
00000000
,  // measure 4
20020000
00000000
30030000
00000000
,  // measure 5
00000000
00000000
00000000
00000000
,  // measure 6
00002002
00000000
00003003
00000000
,  // measure 7
00000000
00000000
00000000
00000000
,  // measure 8
00001001
00000000
00000001
00000100
00000000
00000100
00001000
00000000
00000000
00010000
00000000
01000000
,  // measure 9
10000000
00000000
00000000
00100000
00000000
00100000
00010000
00000000
00010000
00001000
00000000
00001000
,  // measure 10
00000100
00000000
00000100
00000010
00000000
00000010
00001000
00000000
00000000
00000100
00000000
00010000
,  // measure 11
00001000
00000000
00000000
00100000
00000000
00100000
00010000
00000000
10000000
01000000
00100000
00010000
,  // measure 12
00000000
00000000
00000000
00000000
,  // measure 13
10010000
00000000
10000000
00100000
00000000
01000000
00010000
00000000
00010000
00100000
00000000
00001000
,  // measure 14
00010000
00000000
00010000
00000100
00000000
00000100
00000010
00000000
00000010
00000001
00000000
00001000
,  // measure 15
00000001
00000000
00000010
00000001
00000000
00001000
00000100
00000000
00000100
00010000
00000000
00001000
,  // measure 16
00010000
00000000
00010000
01000000
00000000
01000000
10000000
00000000
10000000
00100000
00000000
10000000
,  // measure 17
00010000
00000000
00010000
00100000
00000000
00001000
00010000
00000000
00010000
00000100
00000000
00001000
,  // measure 18
00000010
00000000
00000010
00000100
00000000
00000100
00001000
00000000
00010000
01000000
00000000
10000000
,  // measure 19
00010000
00000000
00100000
00010000
00000000
00100000
00001000
00000000
00010000
00001000
00000000
00010000
,  // measure 20
00000100
00000000
00000010
00000001
00000000
00000001
00000100
00000000
00000010
00010000
00000000
00010000
,  // measure 21
00001000
00000000
00100000
00010000
00000000
01000000
00010000
00000000
00000000
00100000
00000000
00001000
,  // measure 22
00010000
00000000
00000000
00000100
00000000
00001000
00000100
00000000
00000001
00000100
00000000
00001000
,  // measure 23
00000100
00000000
00000100
00000010
00000000
00000001
00000100
00000000
00000000
00000010
00000000
00001000
,  // measure 24
00000100
00000000
00000000
00010000
00000000
00010000
00001000
00000000
00100000
01000000
00000000
00000000
,  // measure 25
10010000
00000000
00010000
01000000
00000000
00001000
00010000
00000000
00000100
00001000
00000000
00000000
,  // measure 26
00001001
00000000
00001000
00000010
00000000
00010000
00001000
00000000
00100000
01000000
00000000
10000000
,  // measure 27
00010000
00000000
00010000
00100000
00000000
01000000
00000000
00000000
10000000
00100000
00000000
00000000
,  // measure 28
01000000
00000000
00010000
00000000
00000000
00110000
00000000
00000000
01000000
10000000
00000000
00000000
,  // measure 29
10010000
00000000
10000000
00100000
00000000
00100000
00010000
00000000
00001000
00010000
00000000
00000000
,  // measure 30
00011000
00000000
00001000
00000100
00000000
00000001
00000100
00000000
00000010
00000100
00000000
00000000
,  // measure 31
00001001
00000000
00000001
00000100
00000000
00001000
00000000
00000000
00010000
00001000
00000000
00000000
,  // measure 32
00011000
00000000
00001000
00100000
00000000
00000000
22000000
00000000
00000000
33000000
00000000
00000000
,  // measure 33
10100000
00000000
00100000
00010000
00000000
00001000
00010000
00000000
01000000
00010000
00000000
00001000
,  // measure 34
00000100
00000000
00000001
00000100
00000000
00001000
00000100
00000000
00001000
00010000
00000000
01000000
,  // measure 35
10000000
00000000
00100000
00010000
00000000
00001000
00000100
00000000
00000001
00000100
00000000
00001000
,  // measure 36
00010000
00000000
01000000
10000000
00010000
10000000
00100000
00000000
00000000
01100000
00000000
10000000
,  // measure 37
00010000
00000000
10000000
01000000
00000000
00010000
00001000
00000000
00000100
00000010
00000000
00000000
,  // measure 38
00001010
00000000
00000000
00010000
00000000
00000000
00101000
00000000
00000000
01000000
00000000
10000000
,  // measure 39
00010000
00000000
01000000
00001000
00000000
00010000
00000100
00000000
00001000
00000010
00000000
00000101
,  // measure 40
00000000
00000000
00001001
00000000
00000000
00000001
00000100
00000010
00001000
00000100
00000000
00000100
,  // measure 41
00010000
00000000
00001000
00100000
00000000
00100000
10000000
00000000
00100000
00010000
00000000
00000000
,  // measure 42
01010000
00000000
00000000
00001000
00000000
00000000
00010100
00000000
00000000
00001000
00000000
00000001
,  // measure 43
00000100
00000000
00000100
00001000
00000000
00000000
00011000
00000000
00000000
02100000
00000000
00000000
,  // measure 44
03010000
00021000
00030100
00000022
,  // measure 45
00000000
00000000
00000000
00000000
,  // measure 46
00000000
00000000
00000000
00000000
,  // measure 47
00000033
00000000
00000000
00000000
,  // measure 48
00000000
00000000
00000000
00001200
,  // measure 49
00010300
00201000
01300000
11000000
,  // measure 50
01010000
00021000
00030100
00000012
,  // measure 51
00000103
00002010
00013000
01100000
,  // measure 52
11000000
01020000
00000000
00002000
,  // measure 53
00000000
00003000
00030000
00000000
,  // measure 54
00000000
00000000
00000000
22000000
,  // measure 55
00000000
33000000
00000000
00000000
,  // measure 56
00000000
00000000
00000000
00000000
00000000
00000000
00000000
00000000
00000000
00010000
10000000
00010000
,  // measure 57
10000000
00010000
10000000
00010000
00000000
00000000
00000000
00000000
00000000
00000000
00000000
00000000
,  // measure 58
00000000
00000000
00000000
00000000
00000000
00000000
00000000
00000000
00000000
01000000
00001000
01000000
,  // measure 59
00001000
01000000
00001000
01000000
00000000
00000000
00000000
00000000
00000000
00000000
00000000
00000000
,  // measure 60
00000000
00000000
00000000
00000000
00000000
00000000
00000000
00000000
00000000
00011000
00000000
01000000
,  // measure 61
10000000
00000000
00100000
01000000
00000000
00010000
01000000
00000000
00001000
00010000
00000000
00000100
,  // measure 62
00000010
00000000
00000000
00000001
00000000
00000100
00001000
00000000
00000000
00100000
00000000
00010000
,  // measure 63
01000000
00000000
00000000
00001000
00000000
00010000
00000100
00000000
00000000
00000010
00000000
00000011
,  // measure 64
00000000
00000000
00001001
00000000
00000000
00000001
00000100
00000010
00001000
00000010
00000000
00010000
,  // measure 65
00001000
00000000
00010000
01000000
00000000
10000000
00100000
00000000
01000000
00010000
00000000
00100000
,  // measure 66
00001000
00000000
00000000
00010000
00000000
00000010
00001000
00000000
00000000
00000001
00000000
00000100
,  // measure 67
00001000
00000000
00010000
01000000
00000000
10000000
00100000
00000000
00000000
01020000
00000000
00000000
,  // measure 68
00130000
00102000
00013000
00022000
,  // measure 69
00000000
00000000
00000000
00000000
,  // measure 70
00000000
00000000
00000000
00000000
00000000
00000000
00033000
00000000
00000000
00000100
00000000
00010000
,  // measure 71
00001000
00000000
00100000
00010000
00000000
00000000
10010000
00000000
00000000
02200000
00000000
00000000
,  // measure 72
03300000
00000000
00000000
00022000
00000000
00000000
00033000
00000000
00000000
00000010
00000100
00000010
,  // measure 73
00000100
00000010
00000100
00000010
00000000
00000000
00001000
00000010
00001000
00000010
00000000
00000000
,  // measure 74
00010000
00000100
00010000
00000100
00010000
00000100
00010000
00000100
00010000
00001000
01000000
00001000
,  // measure 75
01000000
00001000
01000000
00001000
00000000
00000000
01000000
00100000
01000000
00100000
00000000
00000000
,  // measure 76
10000000
01000000
00100000
00010000
00000000
00000000
00000000
00000000
00000000
00000000
00000000
00000000
;

//---------------dance-double - ----------------
#NOTES:
     dance-double:
     :
     Medium:
     6:
     0.424313,0.437637,0.487857,0.344370,0.182947,298.000000,68.000000,48.000000,0.000000,0.000000,0.000000,0.424313,0.437637,0.487857,0.344370,0.182947,298.000000,68.000000,48.000000,0.000000,0.000000,0.000000:
00000000
00000000
00000000
00000000
,
00000000
00000000
00000000
00000000
,
00000000
00000000
00000000
00000000
,
00000000
00000000
00000000
00000000
,
20000000
00000000
00000000
32000000
,
03200000
00000000
00302000
00000000
,
00023000
00000000
00000000
00030200
,
00000320
00000000
00000230
00000000
,
00010300
00000000
00000000
00010000
00000000
00001000
00010000
00000000
00000000
01000000
00000000
10000000
,
01000000
00000000
00000000
00100000
00000000
00100000
00010000
00000000
00000000
00110000
00000000
00000000
,
00101000
00000000
00000000
00001000
00000000
00010000
00001000
00000000
00000000
00000100
00000000
00000001
,
00000100
00000000
00000000
00000010
00000000
00001000
00000010
00000000
00000000
00001010
00000000
00000000
,
00010010
00000000
00000000
00000000
,
00000110
00000000
00000000
00000010
00000000
00000100
00001000
00000000
00000000
00010000
00000000
00001000
,
00010000
01000000
10000000
00010000
,
01100000
00000000
00000000
01000000
00000000
00100000
00010000
00000000
00000000
00001000
00000000
00010000
,
00001000
00000100
00000001
00000010
,
00000110
00000000
00000000
00000100
00000000
00010000
00001000
00000000
00000000
00010000
00000000
00001000
,
01000000
00100000
10000000
01000000
,
00110000
00100000
00001000
00010000
,
00010100
00000000
00000100
00000010
00000000
00000000
00000101
00000000
00000001
00000100
00000000
00000000
,
00000010
00010000
00011000
00100000
,
00110000
10000000
01000000
01000000
,
00100000
00001000
00011000
00000100
,
00000110
00000000
00000000
00000010
00000000
00000000
00001000
00000000
00001000
00000100
00000000
00000000
,
00010100
00000000
00000000
00000100
00000000
00000000
00010000
00000000
00001000
00010000
00000000
00000000
,
00011000
00000000
00000000
00001000
00000000
00000000
00100000
00000000
00010000
00100000
00000000
00000000
,
01000000
00000000
01000000
10000000
00000000
00000000
00010000
00000000
00010000
01000000
00000000
00000000
,
00001000
00000000
00001000
00010000
00000000
00010000
00000100
00000000
00000000
00000010
00000000
00000000
,
00001001
00000000
00000000
00000100
00000000
00000000
00000010
00000000
00000010
00001000
00000000
00000000
,
00001100
00000000
00000000
00010000
00000000
00000000
00001000
00000000
00001000
00010000
00000000
00000000
,
01000000
00000000
01000000
10000000
00000000
00000000
00100000
00000000
00100000
01000000
00000000
00000000
,
00010000
00100000
00220000
00330000
,
00200000
00310000
02000000
03001000
,
00020000
00031000
00000020
00000031
,
00000200
00001300
00020000
01030000
,
20000000
30100000
01100000
12000000
,
10000000
00100000
13000000
00100000
,
01100000
00010000
00110000
00001000
,
00011000
00000000
00000000
00010100
00000000
00000000
00000110
00000000
00000000
00000001
00000000
00000100
,
00000000
00000000
00000110
00000000
00000000
00000000
00000010
00000000
00000000
00000201
00000000
00000000
,
00000001
00000010
00000301
00000010
,
00000110
00000000
00000000
00001000
00000000
00000000
00001100
00000000
00000000
00010000
00000000
00001000
,
00010000
00000000
00010000
00001000
00000000
00000000
00011000
00000000
00000000
00202000
00000000
00000000
,
00303000
22000000
33000000
02010000
,
10000000
00100000
00010000
03200000
,
10000000
01000000
00310000
00021000
,
00000100
00000010
00001000
00030200
,
00000001
00000010
00001300
00001100
,
00010000
00011000
00100000
00110000
,
10010000
00110000
01000000
11000000
,
00100000
01010000
00100000
00011000
,
00010100
00001200
00000000
00000020
,
00000000
00000030
00002300
00003200
,
00000000
00020300
00000000
00230000
,
00000000
00000000
20300000
30020000
,
00000000
00230000
00000000
02300000
,
00000000
00000000
03000000
10000000
,
10100000
10010000
01010000
00200000
,
00001000
00301000
00010000
00001000
,
00000000
00000000
00000000
00000100
00000000
00000000
00000000
00000000
00000000
00000110
00000000
00000010
,
00000100
00000000
00000000
00001000
00000000
00001000
00010000
00000000
00000000
01000000
00000000
00000000
,
11000000
00000000
00000000
00110000
00000000
00000000
11000000
00000000
00000000
10000000
00000000
00100000
,
01000000
00000000
00000000
00010000
00000000
00000000
00110000
00000000
00000000
00100000
00000000
00001000
,
00000000
00000000
00011000
00000000
00000000
00000000
00000100
00000000
00000000
00000101
00000000
00000001
,
00000010
00000000
00000000
00000100
00000000
00010000
00001000
00000000
00000000
00010000
00000000
00000000
,
00011000
00000000
00000000
01000000
00000000
00000000
01010000
00000000
00000000
10000000
00000000
00100000
,
01000000
00000000
00010000
01000000
00000000
00000000
01100000
00000000
00000000
02020000
00000000
00000000
,
03030000
00022000
00033000
00002200
,
00000000
00000000
00000000
00000000
,
00000000
00000000
00000000
00000000
00000000
00000000
00003300
00000000
00000000
00001000
00000000
00000100
,
00010000
00000000
00001000
00010000
00000000
00000000
00011000
00000000
00000000
00202000
00000000
00000000
,
00303000
00000000
00000000
02200000
00000000
00000000
03300000
00000000
00000000
11000000
00000000
01000000
,
00100000
00000000
00100000
00010000
00000000
00000000
00110000
00000000
00100000
00001000
00000000
00000000
,
00011000
00000000
00001000
00000100
00000000
00000100
00000001
00000000
00000001
00000010
00000000
00000010
,
00001000
00000000
00001000
00010000
00000000
00000000
01010000
00000000
01000000
10000000
00000000
00000000
,
00100000
10000000
00100000
10000000
00000000
00000000
00000000
00000000
00000000
00000000
00000000
00000000
;

//---------------dance-double - ----------------
#NOTES:
     dance-double:
     :
     Easy:
     3:
     0.212156,0.246171,0.114790,0.279801,0.000000,152.000000,16.000000,39.000000,0.000000,0.000000,0.000000,0.212156,0.246171,0.114790,0.279801,0.000000,152.000000,16.000000,39.000000,0.000000,0.000000,0.000000:
00000000
00000000
00000000
00000000
,
00000000
00000000
00000000
00000000
,
00000000
00000000
00000000
00000000
,
00000000
00000000
00000000
00000000
,
00020000
00000000
00030000
00000000
,
00000000
00000000
00000000
00000000
,
00002000
00000000
00003000
00000000
,
00000000
00000000
00000000
00000000
,
00011000
00000000
01000000
00000000
,
10000000
00000000
00100000
00000000
,
01100000
00000000
00010000
00000000
,
00100000
00000000
00001000
00000000
,
00000000
00000000
00000000
00000000
,
00021000
00000000
01030000
00000000
,
10000000
00010000
10000000
00000000
,
10200000
00000000
00310000
00000000
,
00001000
00010000
00001000
00000010
,
00001020
00000000
00000031
00000000
,
00000100
00000010
00000100
00000000
,
00001020
00001000
00001030
00000000
,
00010200
00000300
00021000
00030000
,
01000000
10000000
01000000
00000000
,
10000000
00000000
00100000
01000000
,
00010000
00100000
00010000
00000000
,
00001000
00000000
00000100
00000010
,
00000001
00000000
00000010
00000001
,
00001000
00000000
00000100
00010000
,
00001000
00001000
00010000
00010000
,
01000000
10000000
00010000
01000000
,
00100000
00000000
10000000
01000000
,
00010000
00000000
00001000
00010000
,
00001000
00001000
00000100
00000010
,
00001000
00000100
00020000
00030000
,
00002000
00000000
00023000
00000000
,
02030000
00000000
23000000
00000000
,
30200000
00000000
02300000
00000000
,
03020000
00000000
10030000
21000000
,
00000000
00000000
00000000
30100000
,
00010000
00001000
00010000
00000000
,
00001000
00000100
00000010
00001000
,
00000001
00001000
00000000
00000102
,
00000000
00000000
00000000
00000013
,
00001000
00010000
00001000
00000000
,
00010000
01000000
00100000
00020000
,
00030000
20000000
30000000
20020000
,
00000000
00000000
00000000
00000000
,
00000000
00000000
00000000
00000000
,
30030000
00000000
00000000
00000000
,
00000000
00000000
00000000
20000000
,
30000000
00200000
00300000
00010000
,
00001000
00011000
00000000
00000200
,
00000300
00000002
00000003
00001000
,
00000100
00002100
00000000
00000200
,
00000000
00000300
00003000
00000000
,
00000000
00000000
00000000
00020000
,
00000000
00030000
00000000
00000000
,
00000000
00000000
00000000
02000000
,
00000000
03000000
00000000
10000000
,
00100000
00010000
00001000
00000000
,
00010000
00001000
00000100
00000010
,
00000000
00000100
00000000
00001002
,
00000000
00000000
00000000
00000103
,
00001000
00010000
01000000
00000000
,
10000000
00100000
00010000
00001000
,
00010000
01000000
00000000
20010000
,
00000000
00000000
00000000
31000000
,
00010000
00001000
00000010
00000000
,
00000001
00000100
00001000
00020000
,
00030000
00002000
00003000
00022000
,
00000000
00000000
00000000
00000000
,
00000000
00000000
00033000
00010000
,
00001000
00100000
00010000
20000000
,
30000000
02000000
03000000
00020000
,
00000000
00000000
00000000
00000000
,
00000000
00000000
00000000
00000000
,
00000000
00000000
00000000
00000000
,
00000000
00031000
00000000
00000000
;

//---------------dance-single - ----------------
#NOTES:
     dance-single:
     :
     Beginner:
     2:
     0.118890,0.164114,0.071744,0.035872,0.000000,101.000000,10.000000,5.000000,0.000000,0.000000,0.000000,0.118890,0.164114,0.071744,0.035872,0.000000,101.000000,10.000000,5.000000,0.000000,0.000000,0.000000:
0000
0000
0000
0000
,
0000
0000
0000
0000
,
0000
0000
0000
0000
,
0000
0000
0000
0000
,
1001
0000
0000
0000
,
0000
0000
0000
0000
,
1001
0000
0000
0000
,
0000
0000
0000
0000
,
1000
0000
1000
0000
,
1000
0000
0000
0000
,
0001
0000
0001
0000
,
0001
0000
0000
0000
,
0000
0000
0000
0000
,
0100
0000
0100
0000
,
0100
0000
0000
0000
,
0010
0000
0010
0000
,
0010
0000
0000
0000
,
1000
0000
1000
0000
,
1000
0000
0000
0000
,
0001
0000
0000
0000
,
0100
0000
0100
0000
,
0010
0000
0000
0000
,
0010
0000
0000
0000
,
0010
0000
0000
0000
,
0010
0000
0000
0000
,
1000
0000
0000
0000
,
0001
0000
0000
0000
,
1000
0000
1000
0000
,
1000
0000
1000
0000
,
0001
0000
0000
0000
,
1000
0000
0000
0000
,
0001
0000
0001
0000
,
0001
0000
0001
0000
,
0010
0000
0000
0000
,
0100
0000
0000
0000
,
0010
0000
0000
0000
,
0100
0000
0000
0200
,
0000
0000
0300
1000
,
1000
1000
1000
1000
,
0000
0001
0000
1000
,
0000
0000
0000
0002
,
0000
0003
0000
0001
,
0001
0001
0001
1000
,
0000
0010
0000
0100
,
0000
0001
0000
1000
,
0000
0000
0000
1000
,
0000
0000
0000
0001
,
0000
0000
0000
0001
,
0000
0000
0000
0100
,
0000
0100
0000
0100
,
0100
0100
0000
0010
,
0000
0010
0000
0010
,
0010
0010
0000
0110
,
0000
0000
0000
0000
,
0000
0000
0000
0110
,
0000
0000
0000
0000
,
0000
0000
0000
1001
,
0000
0000
0000
0000
,
0000
0000
0000
1001
,
0000
0000
0000
0000
,
0000
0000
0000
0010
,
0000
0010
0000
0100
,
0100
0100
0100
0010
,
0000
0010
0000
0010
,
0000
0000
0000
1000
,
0000
1000
0000
0001
,
0001
0001
0001
1000
,
0000
0001
0000
1000
,
0000
0001
0000
2000
,
0000
0000
0000
0000
,
0000
0000
3000
0001
,
0000
0001
0000
1001
,
0000
1001
0000
2002
,
0000
0000
0000
0000
,
0000
0000
0000
0000
,
3003
0000
0000
0000
,
0000
1001
0000
0000
;
