#VERSION:0.81;
#TITLE:Knell;
#SUBTITLE:;
#ARTIST:Project B-;
#TITLETRANSLIT:;
#SUBTITLETRANSLIT:;
#ARTISTTRANSLIT:;
#GENRE:;
#ORIGIN:;
#CREDIT:;
#BANNER:[Break] - Knell.png;
#BACKGROUND:[Break] - Knell-bg.png;
#PREVIEWVID:;
#JACKET:[Break] - Knell-jacket.png;
#CDIMAGE:;
#DISCIMAGE:;
#LYRICSPATH:;
#CDTITLE:cdtitle.png;
#MUSIC:[Break] - Knell.ogg;
#OFFSET:-1.743000;
#SAMPLESTART:76.092262;
#SAMPLELENGTH:14.048782;
#SELECTABLE:YES;
#BPMS:0.000=205.000,
205.000=68.333,
222.000=205.000;
#STOPS:;
#DELAYS:;
#WARPS:;
#TIMESIGNATURES:0.000=4=4;
#TICKCOUNTS:0.000=4;
#COMBOS:0.000=1;
#SPEEDS:0.000=1.000=0.000=0;
#SCROLLS:0.000=1.000;
#FAKES:;
#LABELS:0.000=Song Start;
#BGCHANGES:;
#KEYSOUNDS:;
#ATTACKS:
;

//---------------dance-single - S-EXPERT----------------
#NOTEDATA:;
#CHARTNAME:xRGTMx-ESP;
#STEPSTYPE:dance-single;
#DESCRIPTION:S-EXPERT;
#CHARTSTYLE:;
#DIFFICULTY:Hard;
#METER:10;
#RADARVALUES:0.879542,1.000000,0.434938,0.115983,0.778056,580.000000,45.000000,12.000000,0.000000,0.000000,0.000000,0.000000,0.000000,0.879542,1.000000,0.434938,0.115983,0.778056,580.000000,45.000000,12.000000,0.000000,0.000000,0.000000,0.000000,0.000000;
#CREDIT:xRGTMx;
#NOTES:
// measure 0
0110
0000
0000
1001
0000
0000
0000
0000
,  // measure 1
0000
0000
0000
0000
,  // measure 2
0000
0000
0000
0000
,  // measure 3
0110
0000
0000
1001
0000
0000
0000
0000
,  // measure 4
0000
0000
0000
0000
,  // measure 5
0000
0000
0000
0000
,  // measure 6
2200
0000
0300
0020
,  // measure 7
0000
3030
0202
0000
,  // measure 8
0300
0020
0000
0033
,  // measure 9
0001
0000
0000
1000
0010
0000
0100
0000
0000
0001
1000
0000
0010
0000
0000
0100
,  // measure 10
0001
0000
1000
0000
0010
0000
0100
0000
0001
0000
0000
1000
0100
0000
0010
0000
,  // measure 11
0000
0001
1000
0000
0100
0000
0000
0010
0001
0000
1000
0000
0100
0000
0010
0000
,  // measure 12
0001
0000
0000
0100
0010
0000
1000
0000
0000
0001
0010
0000
0100
0000
0000
1000
,  // measure 13
0010
0000
0100
0000
0001
0000
0010
0000
0001
0000
0000
0100
0010
0000
1000
0000
,  // measure 14
0000
0001
0010
0000
0100
0000
0000
1000
0010
0000
0100
0000
0001
1000
0100
0000
,  // measure 15
1100
0000
0001
0101
0000
1000
0010
0100
,  // measure 16
0001
0010
1000
0010
0011
0001
1000
1010
,  // measure 17
0000
0010
0100
0000
0101
0000
1100
0000
,  // measure 18
1001
0001
0100
0110
0000
0010
1000
0001
,  // measure 19
0010
0000
0100
0000
0001
0000
0100
0000
1100
0000
0000
1000
0001
0000
0100
0000
,  // measure 20
0000
0001
1000
0000
0010
0000
0000
1000
0001
0000
0010
0000
0200
0000
0000
0000
,  // measure 21
1300
0010
0001
1000
0100
0001
1000
0100
,  // measure 22
0001
1000
0010
0001
0100
0010
1000
0001
,  // measure 23
0010
0000
0100
0000
0001
0000
1000
0000
0010
0000
0001
0000
0100
0001
0000
0000
,  // measure 24
0011
0000
1000
1010
0000
0010
0100
0001
,  // measure 25
0100
1000
0100
0001
1001
1000
0100
0110
,  // measure 26
0000
0010
0001
0000
0011
0000
1010
0000
,  // measure 27
0101
1000
0100
0011
0000
1000
0010
0001
,  // measure 28
0010
0000
1000
0000
0100
0000
0010
0000
0011
0000
0000
0001
1000
0000
0010
0000
,  // measure 29
0000
1000
0001
0000
0100
0000
0000
0001
1000
0000
0100
0000
0000
1000
0001
0000
,  // measure 30
1000
0100
0001
1000
0001
0100
1000
0010
,  // measure 31
0100
0100
0001
0100
1000
0001
1000
0100
,  // measure 32
0001
0010
0100
0100
1000
0100
0010
1000
,  // measure 33
0010
0001
0100
0010
0001
0010
1000
0001
,  // measure 34
1000
0000
0010
0000
0100
0000
0001
0000
0010
0100
0010
0000
0001
0000
0100
0000
,  // measure 35
0010
1000
0100
0010
0011
0001
1000
1010
,  // measure 36
0000
0000
0010
0000
0100
0001
0000
0000
0001
0000
0000
1000
0000
0000
1000
0000
,  // measure 37
0100
0000
0000
0000
0010
0000
0001
0000
1000
0000
0001
0100
0000
0100
0000
0000
,  // measure 38
0100
0000
0000
0010
0000
0010
0100
0000
1001
0000
1000
0000
0100
0000
0110
0000
,  // measure 39
0000
0000
0010
0001
0000
0100
0000
0000
0001
0000
0000
0010
0000
0000
0010
0000
,  // measure 40
0100
0000
0000
0000
0000
0000
1000
0000
0000
0001
0000
0000
0100
0000
0000
0100
0000
0000
0010
0000
1000
0000
0100
0000
,  // measure 41
1000
0000
0001
0000
0010
0000
0001
0000
0100
0000
0010
0000
1000
0000
0000
0001
0000
0000
0010
0000
0000
1100
0000
0000
,  // measure 42
0000
0000
1000
0001
0000
0100
0000
0000
0101
0000
0000
1100
0000
0000
1000
0000
,  // measure 43
0010
0000
0000
0010
0100
0000
0001
0000
0000
0001
1000
0000
0100
0000
1000
0000
,  // measure 44
0010
0100
0000
0000
0000
0001
1000
0100
1000
0000
0100
0000
0010
0000
0101
0000
,  // measure 45
0000
0000
0001
0010
0000
0001
0000
0000
1000
0000
0010
0100
0010
0000
0100
0000
,  // measure 46
0101
0000
0001
0000
1000
0000
1100
0000
0000
0000
0100
0000
0010
0000
0000
0001
,  // measure 47
1000
0000
0010
0000
0000
1000
0001
0000
0010
0000
0000
0001
0100
0000
0010
0000
,  // measure 48
0000
1000
0100
0000
1000
0001
0000
0001
0100
0000
0001
0000
0010
0000
0100
0000
,  // measure 49
2000
0000
0000
0010
0000
0000
3010
0000
1000
0000
0100
0000
0020
0000
0000
0001
,  // measure 50
0000
0000
0130
0000
1000
0000
0001
0000
0200
0000
0000
0010
0000
0000
0301
0000
,  // measure 51
0010
0000
0000
0100
0000
0000
1001
0000
0000
0000
1000
0001
0010
0000
0001
0100
0010
0100
0001
0000
1010
0000
0100
0001
,  // measure 52
1000
0000
0100
0010
0100
1000
0100
0000
0011
0000
0001
1000
0010
0000
1000
0100
0001
0100
1000
0000
0101
0000
0010
1000
,  // measure 53
0001
0000
0010
0001
0100
0001
1000
0100
1000
0010
0100
0001
1000
0000
0001
0010
1000
0010
0001
1000
1010
0000
0010
0100
,  // measure 54
0001
0000
1000
0100
0001
0100
1000
0010
0110
0000
0100
0001
1000
0000
0001
0100
1000
0100
0001
0000
0010
0001
0100
1000
,  // measure 55
0001
0000
0010
0000
1000
0000
0100
0000
0010
0000
0001
0000
1001
0000
0000
0000
1000
0001
1000
0001
0100
0000
0001
0000
1000
0000
0000
0000
0000
0000
0000
0000
0000
1000
0000
0000
0010
0000
0000
0000
0000
0000
0000
0000
0000
0010
0000
0000
,  // measure 56
0100
0000
0001
1000
0001
0000
0000
1000
0100
0000
0000
0100
0010
0000
0001
0000
,  // measure 57
1000
0000
0000
0001
0100
0000
0000
0100
0010
0000
1000
0010
1000
0000
0000
1000
,  // measure 58
0001
0000
0000
0000
1000
0100
1000
0100
0010
0000
0000
0010
0001
0000
0000
0001
,  // measure 59
1000
0000
0001
0100
0001
0000
0000
0100
0010
0000
0000
0010
1000
0000
0001
0000
,  // measure 60
1000
0000
0100
0000
0010
0000
0100
0000
0001
0000
0100
0000
1000
0000
0010
1000
,  // measure 61
0010
0000
0100
0000
0001
1000
0000
0000
0001
0000
0000
0001
0010
0000
0000
0010
,  // measure 62
0100
0000
1000
0100
1000
0000
0000
0001
0100
0000
0010
0000
0000
0010
1000
0000
,  // measure 63
0001
0000
0000
1000
0100
0000
0010
0100
0010
0000
0001
0000
1000
0010
0000
0010
,  // measure 64
1000
0000
0001
0100
0010
0100
0000
0001
1000
0000
0100
0000
1000
0000
0001
0000
,  // measure 65
0100
1000
0001
0010
0100
0001
1000
0100
,  // measure 66
0001
0000
1000
0000
0010
0000
0100
0000
1000
0000
0010
0000
0100
0000
0001
0100
,  // measure 67
0001
0000
1000
0000
0100
0010
0100
0010
0001
0000
0010
0000
0100
0000
1000
0000
,  // measure 68
0001
0100
1000
0000
0220
0000
0330
0000
,  // measure 69
1001
0000
0000
1000
0001
0000
0100
0000
0000
0001
1000
0000
0100
0000
0000
1000
,  // measure 70
0001
0000
0100
0000
0010
0000
1000
0000
1001
0000
0000
0001
1000
0000
0100
0000
,  // measure 71
0000
1000
0001
0000
0100
0000
0000
0001
1000
0000
0100
0000
0010
0000
0001
0000
,  // measure 72
1000
0000
0000
0100
0010
0000
0100
0000
0000
0001
0100
0000
0010
0000
0000
0100
,  // measure 73
1000
0000
0001
0010
0001
0000
1000
0000
0001
0000
0000
0100
0010
0000
0100
0000
,  // measure 74
0000
1000
0100
0000
0010
0000
0000
0100
0001
0000
1000
0000
0001
0010
0100
0010
,  // measure 75
0100
0000
0000
1001
0000
0000
0000
0000
;

//---------------dance-single - S-DIFFICULT----------------
#NOTEDATA:;
#CHARTNAME:xRGTMx-SDP;
#STEPSTYPE:dance-single;
#DESCRIPTION:S-DIFFICULT;
#CHARTSTYLE:;
#DIFFICULTY:Medium;
#METER:8;
#RADARVALUES:0.603390,0.983504,0.386612,0.115983,0.236800,385.000000,40.000000,12.000000,0.000000,0.000000,0.000000,0.000000,0.000000,0.603390,0.983504,0.386612,0.115983,0.236800,385.000000,40.000000,12.000000,0.000000,0.000000,0.000000,0.000000,0.000000;
#CREDIT:xRGTMx;
#NOTES:
0010
0000
0000
1001
0000
0000
0000
0000
,
0000
0000
0000
0000
,
0000
0000
0000
0000
,
0010
0000
0000
1001
0000
0000
0000
0000
,
0000
0000
0000
0000
,
0000
0000
0000
0000
,
2010
0000
0000
3100
,
0000
0000
0012
0000
,
0000
0103
0000
0000
,
0001
0000
0001
1000
0000
1000
0010
0000
,
0010
0100
0001
1000
0001
0000
0001
1000
,
0000
1000
0010
0000
0010
0100
0001
1000
,
0001
0000
0001
1000
0000
1000
0100
0000
,
0100
0010
0001
1000
0001
0000
0001
1000
,
0000
1000
0100
0000
0100
0010
0001
1000
,
0001
0000
0000
0101
0000
0000
0010
0000
,
1000
0100
1000
0000
0001
0000
0000
0011
,
0000
0010
0100
0000
1000
0010
1000
0000
,
0001
0000
0000
0101
0000
0000
0100
0000
,
0010
1000
0001
0000
1000
0000
1000
0100
,
0000
0100
0010
0000
0010
0001
0000
0001
,
2000
0010
0001
3200
,
1000
0001
0320
0100
,
1000
0032
0100
0010
,
1003
0000
0000
1100
0000
0000
0010
0000
,
0001
0100
0001
0000
1000
0000
0000
1010
,
0000
0010
0100
0000
0001
0010
0001
0000
,
1000
0000
0000
1100
0000
0000
0100
0000
,
0010
0001
1000
0000
0001
0000
0001
0100
,
0000
0100
0010
0000
0010
1000
0000
1000
,
0001
0000
0001
0010
0000
0010
0100
1000
,
0100
0000
1000
0000
1000
0001
0000
0001
,
0100
0010
0100
0000
0010
0000
1000
0100
,
0000
1000
0001
0000
0001
0100
0000
0100
,
0010
0000
1000
0100
0000
1000
0001
0010
,
0100
1000
0010
0000
1001
0000
0000
0101
,
0000
0000
0010
0000
0000
0100
0000
0000
0001
0000
0000
1000
0000
0000
0001
0000
,
0010
0000
0000
0000
0100
0000
1000
0000
0000
0000
0001
0000
0000
0100
0000
0000
,
0100
0000
0000
0010
0000
1000
0000
0000
1001
0000
0000
0000
0000
0000
1100
0000
,
0000
0000
0010
0000
0000
0100
0000
0000
1000
0000
0000
0001
0000
0000
1000
0000
,
0010
0000
0000
0000
0000
0000
0100
0000
0000
0001
0000
0000
1000
0000
0000
0100
0000
0000
1000
0000
0000
0000
1000
0000
,
0100
0000
0000
0000
0100
0000
0010
0000
0000
0000
0010
0000
0001
0000
0000
0000
0000
0000
0000
0000
0000
1010
0000
0000
,
0000
0000
0010
0000
0000
1000
0000
0000
0001
0000
0000
0010
0000
0000
0001
0000
,
0100
0000
0000
0010
0000
0000
1000
0000
0000
0001
0000
0000
0100
0000
0001
0000
,
0000
0010
0000
0000
0000
0100
0000
0000
1100
0000
0000
0000
0000
0000
0011
0000
,
0000
0000
0001
0000
0000
1000
0000
0000
0010
0000
1000
0000
0001
0000
0010
0000
,
0011
0000
0000
1100
0000
0000
1010
0000
,
0000
0101
0000
0000
0011
0000
0000
1001
,
0000
0000
1010
0000
0000
0110
0000
0000
,
2001
0000
0000
0000
3010
1000
0200
0000
,
0000
0000
0310
0001
2000
0000
0000
0000
,
3001
0000
0000
0100
0000
0000
0010
0000
0000
0000
0000
0000
1000
0000
1000
0000
0010
0000
0100
0000
0100
0000
0001
0000
,
1000
1000
0100
0010
0010
1001
0001
0001
0100
0010
0010
1000
,
0001
0001
0010
0100
0100
1001
1000
0100
1000
0010
0110
0100
,
0001
0010
0001
0100
0110
0010
1010
1000
0100
0110
0010
0001
,
1001
0000
1000
0000
0010
0000
0110
0000
0000
0000
0100
0001
1000
0000
0000
0000
0000
0000
0100
0000
0000
0010
0000
0000
,
0001
0010
0100
0000
1010
0000
0100
0001
,
1000
0000
0001
0010
0100
0010
0001
0000
,
1010
0000
0100
0001
1000
0000
0001
0100
,
1000
0100
0001
0000
1010
0000
0100
0001
,
0010
0100
1000
0001
0100
0001
1000
0010
,
0100
0001
1000
0100
0010
0000
0001
0100
,
1000
0100
0001
0100
0110
0000
1000
0100
,
0010
0000
0001
0010
1000
0010
0001
0010
,
0110
0000
1000
0100
0010
0000
0001
0010
,
0100
1000
0010
0000
0001
0010
1000
0100
,
0010
0000
0001
0100
0010
1000
0100
0000
,
0001
0100
1000
0010
0200
0000
0001
0000
,
1000
0310
2002
3003
,
1000
0000
0001
0100
0000
1000
0100
0000
,
0001
1000
0100
0010
0001
0000
1000
0100
,
0000
0001
0100
0000
1000
0001
0100
0010
,
1000
0000
0001
0010
0000
1000
0010
0000
,
0001
1000
0010
0100
0001
0000
1000
0010
,
0000
0001
0010
0000
1000
0001
0010
0100
,
1000
0000
0000
0001
0000
0000
0000
0000
;

//---------------dance-single - S-BASIC----------------
#NOTEDATA:;
#CHARTNAME:xRGTMx-BSP;
#STEPSTYPE:dance-single;
#DESCRIPTION:S-BASIC;
#CHARTSTYLE:;
#DIFFICULTY:Easy;
#METER:6;
#RADARVALUES:0.429415,0.473539,0.415608,0.106318,0.043494,257.000000,43.000000,11.000000,0.000000,0.000000,0.000000,0.000000,0.000000,0.429415,0.473539,0.415608,0.106318,0.043494,257.000000,43.000000,11.000000,0.000000,0.000000,0.000000,0.000000,0.000000;
#CREDIT:xRGTMx;
#NOTES:
0010
0000
0000
0010
0000
0000
0000
0000
,
0000
0000
0000
0000
,
0000
0000
0000
0000
,
0100
0000
0000
0100
0000
0000
0000
0000
,
0000
0000
0000
0000
,
0000
0000
0000
0000
,
2001
0000
0000
3100
,
0000
0000
1002
0000
,
0000
0103
0000
0000
,
1000
0000
0000
1000
0000
0000
0001
0000
,
0000
0001
0000
0001
0100
0000
0000
0100
,
0000
0000
0010
0000
0000
0010
0000
1000
,
0001
0000
0000
0001
0000
0000
1000
0000
,
0000
1000
0000
1000
0100
0000
0000
0100
,
0000
0000
0010
0000
0000
0010
0000
0001
,
1000
0000
0000
1001
0000
0000
0001
0000
,
0100
0000
0010
0000
1000
0000
0000
1001
,
0000
0001
0010
0010
,
0100
0000
0000
1001
0000
0000
1000
0000
,
0010
0000
0100
0000
0001
0000
0000
0011
,
0000
0000
0110
0000
0000
1100
0000
0000
,
1001
0001
0100
0110
,
0010
1000
1001
0001
,
0010
0110
0100
1000
,
0001
0000
0000
1001
0000
0000
1000
0000
,
0100
0000
0010
0000
0001
0000
0000
1001
,
0000
1000
0010
0010
,
0100
0000
0000
1001
0000
0000
0001
0000
,
0010
0000
0100
0000
1000
0000
0000
1010
,
0000
0000
0110
0000
0000
0101
0000
0000
,
2001
0000
0000
0100
0000
0000
3010
0000
,
1000
0000
1002
0000
0000
0100
0000
0000
,
0013
0000
0001
0000
1001
0000
0000
1000
,
0000
0000
1010
0000
0000
0010
0000
0000
,
0110
0000
0000
0100
0000
0000
0101
0000
,
1001
0000
1100
0000
0010
0000
0000
1001
,
0000
1000
0000
0000
0010
0000
0000
0010
,
0100
0000
0000
0001
0000
1000
0000
0000
,
0100
0010
0100
0000
0010
0000
0000
1001
,
0000
0001
0000
0000
0010
0000
0000
0010
,
0100
1000
0001
1000
,
0200
0000
0320
0000
0130
0000
0000
1001
,
0000
1000
0000
0000
0100
0000
0000
0100
,
0010
0000
0000
0001
0000
0000
1000
0000
,
0010
0100
0010
0000
0100
0000
0000
1001
,
0000
0001
0000
0000
0100
0000
0000
0100
,
0010
0000
0010
1000
0000
0000
1000
0000
,
1000
0001
0000
0000
0001
0000
0001
0010
,
0000
0000
0010
0000
0010
0100
0000
0000
,
2000
0000
0010
3020
,
0000
0100
0230
0000
,
0001
0000
0000
0301
0000
0000
0001
0000
0001
0010
0000
0000
,
0100
0000
0100
1000
0000
0000
1000
0000
1000
0010
0000
0000
,
0100
0000
0100
0001
0000
0000
0001
0000
0010
0100
0000
0000
,
1000
0000
0100
0010
0000
0000
0001
0000
0100
0010
0000
0000
,
1000
0000
0000
0000
0010
0000
0100
0000
0000
0000
0001
0000
0001
0000
0000
0000
0000
0000
0010
0000
0000
0100
0000
0000
,
0010
0001
0101
0010
,
1000
0000
0010
0100
0010
0000
1000
0000
,
1100
0000
0010
0000
0001
0000
0100
0010
,
0100
0001
0011
0100
,
1000
0100
0010
0001
,
1000
0000
0110
0000
0001
0000
0010
0100
,
1000
0001
0101
0010
,
1000
0000
0010
0100
0001
0000
1000
0000
,
1100
0010
0001
0100
,
0101
1000
0100
1100
,
0001
0010
0011
1000
,
0010
1010
1001
0001
,
0010
0110
2002
3003
,
1000
0000
0000
0001
0000
0000
1000
0000
,
0000
0001
0000
0001
0100
0000
0000
0010
,
0000
0000
0100
0000
0000
0010
0000
1000
,
0001
0000
0000
1000
0000
0000
0001
0000
,
0000
1000
0000
1000
0100
0000
0000
0010
,
0000
0000
0100
0000
0000
0010
0000
0001
,
0100
0000
0000
0100
0000
0000
0000
0000
;

//---------------dance-single - BEGINNER----------------
#NOTEDATA:;
#CHARTNAME:xRGTMx-BEG;
#STEPSTYPE:dance-single;
#DESCRIPTION:BEGINNER;
#CHARTSTYLE:;
#DIFFICULTY:Beginner;
#METER:3;
#RADARVALUES:0.237490,0.327835,0.173975,0.067657,0.000000,147.000000,18.000000,7.000000,0.000000,0.000000,0.000000,0.000000,0.000000,0.237490,0.327835,0.173975,0.067657,0.000000,147.000000,18.000000,7.000000,0.000000,0.000000,0.000000,0.000000,0.000000;
#CREDIT:xRGTMx;
#NOTES:
0020
0000
0000
0030
0000
0000
0000
0000
,
0000
0000
0000
0000
,
0000
0000
0000
0000
,
0200
0000
0000
0300
0000
0000
0000
0000
,
0000
0000
0000
0000
,
0000
0000
0000
0000
,
1001
0000
0000
0100
,
0000
0000
1001
0000
,
0000
0100
0000
0000
,
1000
0000
0000
1000
0000
0000
1000
0000
,
0000
1000
0000
0000
1000
0000
0000
1000
,
0000
0000
1000
0000
0000
1000
0000
0000
,
0001
0000
0000
0001
0000
0000
0001
0000
,
0000
0001
0000
0000
0001
0000
0000
0001
,
0000
0000
0001
0000
0000
0001
0000
0000
,
1000
0000
0000
1001
0000
0000
0000
0000
,
0100
0000
0000
0000
0001
0000
0000
1001
,
0000
0000
0100
0000
,
1000
0000
0000
1001
0000
0000
0000
0000
,
0010
0000
0000
0000
0001
0000
0000
0001
,
0000
0000
1000
0000
0000
1000
0000
0000
,
0001
0000
0000
0100
,
0000
0000
0010
0000
,
0000
1000
0000
0000
,
0001
0000
0000
1001
0000
0000
0000
0000
,
0100
0000
0000
0000
1000
0000
0000
1001
,
0000
0000
0100
0000
,
0001
0000
0000
1001
0000
0000
0000
0000
,
0010
0000
0000
0000
1000
0000
0000
1000
,
0000
0000
0001
0000
0000
0001
0000
0000
,
0100
0000
0000
0100
0000
0000
0010
0000
,
0000
0000
0010
0000
0000
0010
0000
0000
,
1000
0000
1000
0000
,
0000
0100
0000
0000
,
0010
0000
0000
0001
,
0000
0000
0000
0000
1001
0000
0000
1001
,
0000
0000
0000
0000
,
0000
0000
0000
0000
,
0000
0000
0000
0000
0110
0000
0000
0110
,
0000
0000
0000
0000
,
0000
0000
0000
0000
,
0000
0000
0000
0000
1001
0000
0000
0110
,
0000
0000
0000
0000
,
0000
0000
0000
0000
,
0000
0000
0000
0000
0110
0000
0000
1001
,
0000
0000
0000
0000
,
1000
0000
0000
1000
0000
0000
0010
0000
,
0000
0010
0000
0000
0100
0000
0000
0100
,
0000
0000
0001
0000
0000
0001
0000
0000
,
2000
0000
0000
3000
0000
0000
0200
0000
,
0000
0300
0000
0000
0020
0000
0000
0030
,
0000
0001
0001
0000
,
0100
0000
0010
0000
,
1000
0000
0001
0001
,
0010
0010
0100
0100
,
1000
1000
1000
0000
,
0000
0001
0001
0001
,
0001
0000
0000
1000
,
1000
1000
1000
0000
,
0000
0010
0010
0010
,
0010
0000
0000
0100
,
0100
0100
0100
0000
,
0000
0001
0001
0001
,
0001
0000
0000
1000
,
1000
1000
1000
0000
,
0000
0100
0100
0100
,
0100
0000
0000
0010
,
0010
0010
0010
0000
,
0000
1001
2002
3003
,
1000
0000
0000
1000
0000
0000
1000
0000
,
0000
1000
0000
0000
1000
0000
0000
1000
,
0000
0000
1000
0000
0000
1000
0000
0000
,
0001
0000
0000
0001
0000
0000
0001
0000
,
0000
0001
0000
0000
0001
0000
0000
0001
,
0000
0000
0001
0000
0000
0001
0000
0000
,
0100
0000
0000
0100
0000
0000
0000
0000
;
