#VERSION:0.81;
#TITLE:ICARUS;
#SUBTITLE:;
#ARTIST:Eagle;
#TITLETRANSLIT:;
#SUBTITLETRANSLIT:;
#ARTISTTRANSLIT:;
#GENRE:;
#ORIGIN:;
#CREDIT:;
#BANNER:[Break] - ICARUS.png;
#BACKGROUND:[Break] - ICARUS-bg.png;
#PREVIEWVID:;
#JACKET:[Break] - ICARUS-jacket.png;
#CDIMAGE:;
#DISCIMAGE:;
#LYRICSPATH:;
#CDTITLE:;
#MUSIC:[Break] - ICARUS.mp3;
#OFFSET:-1.810;
#SAMPLESTART:34.490;
#SAMPLELENGTH:15.000;
#SELECTABLE:YES;
#BPMS:0.000=176.000,
160.000=126.000,
196.000=131.000,
204.000=136.000,
212.000=141.000,
216.000=146.000,
220.000=151.000,
224.000=156.000,
228.000=161.000,
232.000=166.000,
236.000=171.000,
240.000=176.000,
244.000=181.000,
246.000=186.000,
248.000=191.000,
250.000=196.000,
252.000=201.000,
256.000=211.000,
260.000=221.000,
264.000=231.000,
268.000=241.000,
272.000=251.000,
276.000=176.000;
#STOPS:;
#DELAYS:;
#WARPS:;
#TIMESIGNATURES:0.000=4=4;
#TICKCOUNTS:0.000=4;
#COMBOS:0.000=1;
#SPEEDS:0.000=1.000=0.000=0;
#SCROLLS:0.000=1.000;
#FAKES:;
#LABELS:0.000=Song Start;
#BGCHANGES:;
#KEYSOUNDS:;
#ATTACKS:
;

//---------------dance-single - ----------------
#NOTEDATA:;
#CHARTNAME:;
#STEPSTYPE:dance-single;
#DESCRIPTION:;
#CHARTSTYLE:;
#DIFFICULTY:Hard;
#METER:9;
#RADARVALUES:0.596,0.602,0.439,0.085,0.281,474.000,57.000,11.000,0.000,0.000,0.000,0.000,0.000,0.596,0.602,0.439,0.085,0.281,474.000,57.000,11.000,0.000,0.000,0.000,0.000,0.000;
#CREDIT:;
#NOTES:
// measure 0
0000
0000
0000
0000
,  // measure 1
0000
0000
0000
0000
,  // measure 2
0000
0000
0000
0000
,  // measure 3
0000
0000
0000
0000
,  // measure 4
0000
0000
0000
0000
,  // measure 5
0000
0000
0000
0000
,  // measure 6
0000
0000
0000
0000
,  // measure 7
0000
0000
0000
0000
,  // measure 8
1000
0000
0000
0100
0000
0000
2000
0000
0000
0000
0000
0000
3100
0000
0000
0000
,  // measure 9
0001
0000
0000
0100
0000
0000
0002
0000
0000
0000
0000
0000
0103
0000
0000
0000
,  // measure 10
1000
0000
0000
0010
0000
0000
2000
0000
0000
0000
0000
0000
3010
0000
0000
0000
,  // measure 11
0001
0000
0000
0010
0000
0000
0002
0000
0000
0000
0000
0000
1003
0000
0000
0000
,  // measure 12
0001
0000
0000
0100
0000
0000
0001
0000
1000
0100
0000
0000
0100
0000
1000
0000
,  // measure 13
0001
0000
0000
0010
0000
0000
0001
0000
1000
0010
0000
0000
0010
0000
1000
0000
,  // measure 14
0100
0000
0000
0010
0000
0000
0100
0000
1000
0010
0000
0000
0010
0000
1000
0000
,  // measure 15
0001
0000
0000
0100
0000
0000
0001
0000
0010
0100
0000
0000
0100
0000
0010
0000
,  // measure 16
0001
0000
0000
0010
0001
0000
1000
0000
0010
0000
0000
0000
1000
0000
0001
0000
,  // measure 17
0100
0000
0000
0001
1000
0000
0100
0000
1000
0000
0000
0000
0001
0000
0010
0000
,  // measure 18
0100
0000
0000
1000
0010
0000
0100
0000
0010
0000
0000
0000
1000
0000
0001
0000
,  // measure 19
0010
0000
0000
0001
0100
0000
0001
0000
0010
0000
0000
0000
0100
0000
1000
0000
,  // measure 20
0010
0100
0001
0100
0010
1000
0010
0100
,  // measure 21
0001
0010
0100
0010
0001
0100
0010
0100
,  // measure 22
0001
1000
0100
0010
0001
1000
0010
0100
,  // measure 23
0101
0000
0000
1010
0000
0000
1000
0000
0100
0000
0010
0000
0110
0000
0000
0000
,  // measure 24
1001
0000
0000
1000
0100
0000
1000
0000
0010
0100
0000
0000
0010
0000
1000
0000
,  // measure 25
0001
0000
0000
0010
0100
0000
0010
0000
0001
0000
0100
0000
0010
0000
0100
0000
,  // measure 26
0001
0000
0000
0001
1000
0000
0010
0000
0000
0010
0000
1000
0010
0000
1000
0000
,  // measure 27
0001
0000
0000
0001
0010
0000
0001
0000
0000
0000
0100
0000
0001
0000
1000
0000
,  // measure 28
0010
0000
0000
1000
0100
0000
0010
0000
0100
1000
0000
0000
0010
0000
1000
0000
,  // measure 29
0001
0000
0000
1000
0010
0000
1000
0000
0000
0000
0001
0000
0010
0000
0100
0000
,  // measure 30
1000
0000
0000
1000
0100
0000
0010
0000
0000
0001
0000
0100
0010
0000
1000
0000
,  // measure 31
1001
0000
0000
0011
0000
0000
0001
0000
1001
0000
0000
1010
0000
0000
1000
0000
,  // measure 32
0001
0000
0000
0010
0001
0000
0100
0000
0010
1000
0000
0000
0010
0000
0100
0000
,  // measure 33
0001
0000
0000
0100
0001
0000
0010
0000
0000
0000
0100
0000
1000
0000
0010
0000
,  // measure 34
0100
0000
0000
0100
0001
0000
0010
0000
0000
0001
0000
0100
0001
0000
1000
0000
,  // measure 35
0010
0000
0000
1000
0010
0000
1000
0000
0000
0000
0010
0000
1000
0000
0001
0000
,  // measure 36
0010
0000
0000
0010
0001
0000
0100
0000
0001
0010
0000
0000
0100
0000
1000
0000
,  // measure 37
0010
0000
0000
0010
1000
0000
0100
0000
0000
0000
1000
0000
0100
0000
0010
0000
,  // measure 38
0002
0000
0000
0010
0000
0000
0100
0000
,  // measure 39
0000
0010
2003
0000
,  // measure 40
3020
0000
0000
0000
,  // measure 41
0030
0000
0000
0000
,  // measure 42
0000
0000
0000
0000
,  // measure 43
0000
0000
0000
0000
,  // measure 44
0000
0000
0000
0000
,  // measure 45
1001
0000
0000
1000
0000
0000
0010
1000
0000
1000
0010
0000
1000
0000
0100
0000
,  // measure 46
0010
0000
0000
0001
0000
0000
0100
0000
0001
0000
0000
0010
0000
0000
0100
0000
,  // measure 47
1000
0000
0000
0010
0100
0000
0100
0001
0000
0010
0000
0100
1000
0000
0010
0000
,  // measure 48
0100
0000
0001
0000
0010
0100
1000
0000
0001
0000
0100
0000
0010
0000
1000
0000
,  // measure 49
1001
0000
0001
0101
0000
1010
1000
0000
,  // measure 50
0110
0000
0000
0000
1000
0000
1100
0000
0000
0000
0011
0000
0000
0101
0000
0000
,  // measure 51
1001
0000
0010
0110
0000
1010
1000
0000
,  // measure 52
0011
0000
0000
0000
0001
0000
0101
0000
0000
0000
1010
0000
0000
1000
0001
1000
,  // measure 53
0010
0000
0100
0101
0000
1010
1000
0000
,  // measure 54
1001
0000
0000
0000
0010
0000
0011
0000
0000
0000
1010
0000
0000
1100
0000
0000
,  // measure 55
1001
0000
0010
0011
0000
1010
1000
0000
,  // measure 56
1001
0000
0000
1010
0000
0000
1000
0000
1001
0000
0000
0011
0000
0000
0001
0000
,  // measure 57
1001
0000
0100
0010
0110
0000
1000
0100
,  // measure 58
1100
0000
0001
0100
0101
0000
1000
0010
,  // measure 59
1010
0000
0001
0010
0011
0000
1010
0000
,  // measure 60
1001
0000
0100
0010
0110
0000
1001
0000
,  // measure 61
1100
1010
0110
0101
,  // measure 62
0011
0000
1001
0000
0110
0000
0001
0010
,  // measure 63
0001
0000
1100
0000
1010
0000
0001
0100
,  // measure 64
0001
0000
0010
0001
0010
0000
0100
1000
,  // measure 65
0010
1000
0010
1000
0001
0100
0001
0100
,  // measure 66
0001
0010
0001
0010
0100
1000
0100
1000
,  // measure 67
0001
0100
0001
0100
0001
1000
0001
1000
,  // measure 68
0001
0010
0001
0010
0001
1000
0001
0000
,  // measure 69
1001
0000
0000
0000
,  // measure 70
0000
0000
0000
1000
0100
0010
0001
1000
,  // measure 71
1001
0000
0000
1000
0010
0000
1000
0000
0100
0010
0000
0000
0001
0000
0100
0000
,  // measure 72
0010
0000
0000
1000
0100
0000
0010
0000
0001
0000
0100
0000
0001
0000
0010
0000
,  // measure 73
0100
0100
0200
0000
1300
1000
0010
0010
,  // measure 74
0100
0001
0001
0001
0020
0000
0130
0100
,  // measure 75
1000
0000
0000
1000
0100
0000
0010
0000
0001
0100
0000
0000
0010
0000
1000
0000
,  // measure 76
0001
0000
0000
0010
0100
0000
1000
0000
0010
0000
0100
0000
0001
0000
0010
0000
,  // measure 77
0001
0100
0100
0001
0020
0000
0031
0001
,  // measure 78
1000
0100
1000
0100
1000
0100
1000
0100
,  // measure 79
1100
0000
0000
0100
0010
0000
0001
0000
0100
0010
0000
0000
1000
0000
0001
0000
,  // measure 80
0100
0000
0000
0001
0010
0000
0100
0000
0000
0000
1000
0000
0010
0000
0100
0000
,  // measure 81
0010
0000
0000
0010
1000
0000
0100
0000
0000
1000
0000
0010
0100
0000
0001
0000
,  // measure 82
0010
0000
0001
0100
0000
0001
0010
0100
,  // measure 83
1000
0000
0000
0010
1000
0000
0100
0000
0010
0001
0000
0000
0100
0000
0010
0000
,  // measure 84
1000
0000
0000
0001
0010
0000
0001
0000
1000
0000
0010
0000
0100
0000
0001
0000
,  // measure 85
0020
0000
0000
0000
,  // measure 86
0000
0000
0000
0000
,  // measure 87
0030
0000
0000
0000
;

//---------------dance-single - ----------------
#NOTEDATA:;
#CHARTNAME:;
#STEPSTYPE:dance-single;
#DESCRIPTION:;
#CHARTSTYLE:;
#DIFFICULTY:Beginner;
#METER:2;
#RADARVALUES:0.146,0.201,0.031,0.092,0.000,117.000,4.000,12.000,0.000,0.000,0.000,0.000,0.000,0.146,0.201,0.031,0.092,0.000,117.000,4.000,12.000,0.000,0.000,0.000,0.000,0.000;
#CREDIT:;
#NOTES:
0000
0000
0000
0000
,
0000
0000
0000
0000
,
0000
0000
0000
0000
,
0000
0000
0000
0000
,
0000
0000
0000
0000
,
0000
0000
0000
0000
,
0000
0000
0000
0000
,
0000
0000
0000
0000
,
1000
0000
0000
0000
,
1000
0000
0000
0000
,
0001
0000
0000
0000
,
0001
0000
0000
0000
,
0100
0000
0100
0000
,
0010
0000
0010
0000
,
0100
0000
0100
0000
,
0010
0000
0010
0000
,
1000
1000
1000
0000
,
0001
0001
0001
0000
,
0100
0100
0100
0000
,
0010
0010
0010
0000
,
1000
0000
0100
0000
,
0010
0000
0001
0000
,
2000
0000
3000
0000
,
0002
0000
0000
0003
,
0001
0000
0010
0000
,
0001
0000
0100
0000
,
0001
0000
1000
0000
,
0001
0000
0100
0000
,
1000
0000
0010
0000
,
1000
0000
0001
0000
,
1000
0000
0100
0000
,
1000
0000
1000
0000
,
0001
0000
0010
0000
,
0100
0000
0010
0000
,
0001
0000
0100
0000
,
0010
0000
0100
0000
,
0001
0000
1000
0000
,
0100
0000
0010
0000
,
0002
0000
0000
0000
,
0000
0000
0003
0000
,
0020
0000
0000
0000
,
0030
0000
0000
0000
,
0000
0000
0000
0000
,
0000
0000
0000
0000
,
0000
0000
0000
0000
,
1001
0000
0000
0000
,
0000
0000
0000
0000
,
0000
0000
0000
0000
,
0000
0000
0010
0010
,
0010
0000
0000
0000
,
0100
0000
0000
0000
,
0010
0000
0000
0000
,
0100
0000
0000
0001
,
0001
0000
0000
0000
,
1000
0000
0000
0000
,
0001
0000
0000
0000
,
1000
0000
0000
0000
,
0010
0000
0010
0000
,
0100
0000
0100
0000
,
0001
0000
0001
0000
,
1000
0000
1000
0000
,
0001
0000
0001
0000
,
1000
0000
1000
0000
,
0010
0000
0010
0000
,
0100
0000
0100
0000
,
0002
0000
0003
0000
,
2000
0000
3000
0000
,
0020
0000
0000
0000
,
0000
0000
0030
0000
,
0110
0000
0000
0000
,
0000
0000
0000
0000
,
1001
0000
1000
0000
,
0100
0000
0100
0000
,
0020
0000
0030
0000
,
0200
0000
0300
0000
,
1001
0000
0001
0000
,
0100
0000
0100
0000
,
0020
0000
0030
0000
,
0200
0000
0000
0300
,
0100
0000
0001
0000
,
0100
0000
0010
0000
,
0100
0000
1000
0000
,
0100
0000
0100
0000
,
0001
0000
1000
0000
,
0100
0000
1000
0000
,
0020
0000
0000
0000
,
0000
0000
0000
0000
,
0030
0000
0000
0000
;

//---------------dance-single - ----------------
#NOTEDATA:;
#CHARTNAME:;
#STEPSTYPE:dance-single;
#DESCRIPTION:;
#CHARTSTYLE:;
#DIFFICULTY:Easy;
#METER:4;
#RADARVALUES:0.264,0.301,0.069,0.200,0.000,205.000,9.000,26.000,0.000,0.000,0.000,0.000,0.000,0.264,0.301,0.069,0.200,0.000,205.000,9.000,26.000,0.000,0.000,0.000,0.000,0.000;
#CREDIT:;
#NOTES:
// measure 0
0000
0000
0000
0000
,  // measure 1
0000
0000
0000
0000
,  // measure 2
0000
0000
0000
0000
,  // measure 3
0000
0000
0000
0000
,  // measure 4
0000
0000
0000
0000
,  // measure 5
0000
0000
0000
0000
,  // measure 6
0000
0000
0000
0000
,  // measure 7
0000
0000
0000
0000
,  // measure 8
1000
0000
0000
0000
,  // measure 9
0100
0000
0000
0000
,  // measure 10
0010
0000
0000
0000
,  // measure 11
0001
0000
0000
0000
,  // measure 12
1000
0000
1000
0000
,  // measure 13
0100
0000
0100
0000
,  // measure 14
0010
0000
0010
0000
,  // measure 15
0001
0000
0001
0000
,  // measure 16
1000
0100
1000
0100
,  // measure 17
1000
0001
1000
0001
,  // measure 18
1000
0010
1000
0010
,  // measure 19
1000
0001
1000
0001
,  // measure 20
0010
0010
0001
0001
,  // measure 21
0100
0100
0010
0010
,  // measure 22
2000
0000
0000
3000
,  // measure 23
0002
0000
0000
1003
,  // measure 24
1001
0001
0100
0000
,  // measure 25
1000
1000
0100
0000
,  // measure 26
0001
0001
0010
0000
,  // measure 27
1000
1000
0010
0010
,  // measure 28
1000
1000
0100
0000
,  // measure 29
0001
0001
0100
0000
,  // measure 30
1000
1000
0010
0000
,  // measure 31
0001
0001
1000
1000
,  // measure 32
0001
0010
0001
0000
,  // measure 33
1000
0010
1000
0000
,  // measure 34
0001
0100
0001
0000
,  // measure 35
1000
0100
1000
1000
,  // measure 36
0001
0100
0001
0000
,  // measure 37
1000
0100
1000
0000
,  // measure 38
0002
0000
0000
0000
,  // measure 39
0000
0000
2003
0000
,  // measure 40
3020
0000
0000
0000
,  // measure 41
0030
0000
0000
0000
,  // measure 42
0000
0000
0000
0000
,  // measure 43
0000
0000
0000
0000
,  // measure 44
0000
0000
0000
0000
,  // measure 45
2001
0000
3020
0000
,  // measure 46
0230
0000
0302
0000
,  // measure 47
2003
0000
3200
0000
,  // measure 48
0320
0000
0031
0001
,  // measure 49
1001
1000
0100
1000
,  // measure 50
0001
0001
0100
0001
,  // measure 51
1000
1000
0010
1000
,  // measure 52
0001
0001
0010
0002
,  // measure 53
1003
0100
1000
0000
,  // measure 54
0001
0100
0010
0000
,  // measure 55
1000
0010
1000
0000
,  // measure 56
0001
0010
0100
1000
,  // measure 57
1001
0000
0110
0000
,  // measure 58
1001
0000
0110
0000
,  // measure 59
1001
0000
0010
0100
,  // measure 60
0010
0000
1000
0001
,  // measure 61
1000
0010
1000
0010
,  // measure 62
0100
0001
0100
0001
,  // measure 63
0010
0001
0010
0001
,  // measure 64
1000
0100
1000
0100
,  // measure 65
2000
0000
3020
0000
,  // measure 66
0230
0000
0302
0000
,  // measure 67
2003
0000
0000
0000
,  // measure 68
0000
0000
0000
0000
,  // measure 69
3001
0000
0000
0000
,  // measure 70
0000
0000
0000
0000
,  // measure 71
1001
0100
1000
1000
,  // measure 72
0001
0100
0001
0001
,  // measure 73
2000
0000
3200
0000
,  // measure 74
0320
0000
0032
0000
,  // measure 75
1003
0010
1000
1000
,  // measure 76
0001
0010
0001
0001
,  // measure 77
2000
0000
3020
0000
,  // measure 78
0230
0000
0000
0000
,  // measure 79
0301
0010
0001
0100
,  // measure 80
0001
0010
0001
1000
,  // measure 81
0010
0100
0010
1000
,  // measure 82
0100
0010
0100
1000
,  // measure 83
0001
0010
0001
0100
,  // measure 84
0001
1000
0001
0100
,  // measure 85
0020
0000
0000
0000
,  // measure 86
0000
0000
0000
0000
,  // measure 87
0030
0000
0000
0000
;

//---------------dance-single - ----------------
#NOTEDATA:;
#CHARTNAME:;
#STEPSTYPE:dance-single;
#DESCRIPTION:;
#CHARTSTYLE:;
#DIFFICULTY:Medium;
#METER:6;
#RADARVALUES:0.388,0.502,0.046,0.031,0.212,343.000,6.000,4.000,0.000,0.000,0.000,0.000,0.000,0.388,0.502,0.046,0.031,0.212,343.000,6.000,4.000,0.000,0.000,0.000,0.000,0.000;
#CREDIT:;
#NOTES:
// measure 0
0000
0000
0000
0000
,  // measure 1
0000
0000
0000
0000
,  // measure 2
0000
0000
0000
0000
,  // measure 3
0000
0000
0000
0000
,  // measure 4
0000
0000
0000
0000
,  // measure 5
0000
0000
0000
0000
,  // measure 6
0000
0000
0000
0000
,  // measure 7
0000
0000
0000
0000
,  // measure 8
1000
0000
0000
1000
0000
0000
1000
0000
,  // measure 9
0001
0000
0000
0001
0000
0000
0001
0000
,  // measure 10
0100
0000
0000
0100
0000
0000
0100
0000
,  // measure 11
0010
0000
0000
0010
0000
0000
0010
0000
,  // measure 12
1000
0000
0000
1000
0100
0000
1000
0000
,  // measure 13
0001
0000
0000
0001
0100
0000
0001
0000
,  // measure 14
0010
0000
0000
0010
0001
0000
0010
0000
,  // measure 15
0100
0000
0000
0100
1000
0000
0100
0000
,  // measure 16
1000
0010
0100
0001
,  // measure 17
0010
0100
0010
0001
,  // measure 18
0100
0010
1000
0100
,  // measure 19
1000
0010
0100
0001
,  // measure 20
0010
0001
0010
0000
0100
1000
0100
0000
,  // measure 21
0010
0100
0010
0000
0001
0100
0001
0000
,  // measure 22
0010
0001
0010
0001
1000
0100
1000
0100
,  // measure 23
0010
0000
0000
0010
0000
0000
0001
0000
0100
0000
0010
0000
0110
0000
0000
0000
,  // measure 24
1001
0000
0000
0100
0000
0000
1000
0000
0000
0010
0000
0000
1000
0000
0000
0000
,  // measure 25
0001
0000
0000
0100
0000
0000
0001
0000
0000
0010
0000
0000
0001
0000
0000
0000
,  // measure 26
1000
0000
0000
0100
0000
0000
0010
0000
0000
0100
0000
0000
1000
0000
0000
0000
,  // measure 27
0001
0000
0000
0100
0000
0000
0010
0000
0000
0100
0000
0000
0001
0000
0010
0000
,  // measure 28
0001
0000
0000
1000
0000
0000
0100
0000
0000
1000
0000
0000
0001
0000
0000
0000
,  // measure 29
1000
0000
0000
0001
0000
0000
0100
0000
0000
0001
0000
0000
1000
0000
0000
0000
,  // measure 30
0010
0000
0000
0100
0000
0000
0001
0000
0000
0100
0000
0000
0010
0000
0000
0000
,  // measure 31
1000
0000
0000
1000
0000
0000
1000
0000
0001
0000
0000
0001
0000
0000
0001
0000
,  // measure 32
1000
0000
0000
0100
0000
0000
0010
0000
0000
0001
0000
0000
0100
0000
0000
0000
,  // measure 33
0001
0000
0000
0010
0000
0000
0100
0000
0000
1000
0000
0000
0010
0000
0000
0000
,  // measure 34
1000
0000
0000
0100
0000
0000
1000
0000
0000
0010
0000
0000
1000
0000
0000
0000
,  // measure 35
0001
0000
0000
0100
0000
0000
0001
0000
0000
0010
0000
0000
0001
0000
0000
0000
,  // measure 36
1000
0000
0000
0010
0000
0000
0100
0000
0000
0001
0000
0000
0010
0000
0000
0000
,  // measure 37
0001
0000
0000
0100
0000
0000
0010
0000
0000
1000
0000
0000
0100
0000
0000
0000
,  // measure 38
2000
0000
0000
0001
0000
0000
0010
0000
,  // measure 39
0000
0010
3002
0000
,  // measure 40
0023
0000
0000
0000
,  // measure 41
0030
0000
0000
0000
,  // measure 42
0000
0000
0000
0000
,  // measure 43
0000
0000
0000
0000
,  // measure 44
0000
0000
0000
0000
,  // measure 45
1001
0000
1000
0100
0010
0000
0010
0000
,  // measure 46
0001
0000
0001
0100
0010
0000
0010
0000
,  // measure 47
1000
0000
1000
0100
0010
0000
0010
0000
,  // measure 48
0001
0000
0001
0000
0100
0010
0100
0010
,  // measure 49
1000
0000
0000
0100
0000
1000
0000
0000
,  // measure 50
0001
0000
0000
0000
0000
0000
0100
0000
0000
0000
0001
0000
0000
0100
0000
0000
,  // measure 51
0010
0000
0000
1000
0000
0010
0000
0000
,  // measure 52
0100
0000
0000
0000
0000
0000
0001
0000
0000
0000
0100
0000
0000
0001
0010
0001
,  // measure 53
0010
0000
0000
0001
0000
0100
0000
0000
,  // measure 54
0010
0000
0000
0000
0000
0000
1000
0000
0000
0000
0010
0000
0000
0100
0000
0000
,  // measure 55
0001
0000
0000
0010
0000
0001
0000
0000
,  // measure 56
1000
0000
0000
1000
0000
0000
1000
0000
0001
0000
0000
0001
0000
0000
0001
0000
,  // measure 57
1000
0000
0000
1000
0001
0000
0000
0001
,  // measure 58
0100
0000
0000
0100
0010
0000
0000
0010
,  // measure 59
1000
0000
0000
1000
0100
0000
0010
0000
,  // measure 60
0001
0000
0000
0001
0100
0000
0010
0000
,  // measure 61
1000
0100
1000
0010
,  // measure 62
0100
0000
0001
0000
0010
0000
0001
0100
,  // measure 63
0010
0000
1000
0000
0100
0000
0010
0001
,  // measure 64
0010
0000
0100
1000
0100
0000
0010
0100
,  // measure 65
1000
0100
0010
0000
0001
0100
0010
0000
,  // measure 66
1000
0010
0100
0000
0001
0010
0100
0000
,  // measure 67
1000
0100
1000
0000
0010
1000
0010
0000
,  // measure 68
0100
0001
0100
0000
0001
0010
0001
0000
,  // measure 69
1001
0000
0000
0000
,  // measure 70
0000
0000
0000
0001
0010
0100
1000
0000
,  // measure 71
1001
0000
0000
0010
0000
0000
0001
0000
0000
0100
0000
0000
0010
0000
0000
0000
,  // measure 72
1000
0000
0000
0010
0000
0000
0100
0000
0000
0001
0000
0000
0010
0000
0000
0000
,  // measure 73
0100
1000
0100
0000
1000
0100
1000
0000
,  // measure 74
0001
0100
0001
0000
0100
0001
0100
0000
,  // measure 75
1000
0000
0000
0100
0000
0000
0010
0000
0000
0100
0000
0000
1000
0000
0000
0000
,  // measure 76
0001
0000
0000
0100
0000
0000
0010
0000
0000
0100
0000
0000
0001
0000
0000
0000
,  // measure 77
1000
0010
0100
0010
1000
0000
0100
0010
,  // measure 78
0001
1000
0001
1000
0001
1000
0001
0000
,  // measure 79
1001
0000
0000
1000
0000
0000
0010
0000
0000
0100
0000
0000
0001
0000
0000
0000
,  // measure 80
0010
0000
0000
0100
0000
0000
1000
0000
0000
0010
0000
0000
0100
0000
0000
0000
,  // measure 81
0001
0000
0000
0010
0000
0000
0001
0000
0000
0100
0000
0000
0001
0000
0000
0000
,  // measure 82
1000
0000
0000
0010
0000
0000
1000
0000
0000
0100
0000
0000
1000
0000
0000
0000
,  // measure 83
0001
0000
0000
0010
0000
0000
0100
0000
0000
1000
0000
0000
0010
0000
0000
0000
,  // measure 84
1000
0000
0000
0010
0000
0000
0100
0000
0000
0001
0000
0000
0100
0000
0000
0000
,  // measure 85
0020
0000
0000
0000
,  // measure 86
0000
0000
0000
0000
,  // measure 87
0030
0000
0000
0000
;
