#TITLE:Hideaway;
#SUBTITLE:;
#ARTIST:Kiesza;
#TITLETRANSLIT:;
#SUBTITLETRANSLIT:;
#ARTISTTRANSLIT:;
#GENRE:;
#CREDIT:hooky;
#BANNER:Hideaway.png;
#BACKGROUND:Hideaway-bg.png;
#LYRICSPATH:;
#CDTITLE:;
#MUSIC:Hideaway.ogg;
#OFFSET:-0.076000;
#SAMPLESTART:62.514000;
#SAMPLELENGTH:15.611000;
#SELECTABLE:YES;
#DISPLAYBPM:123.000000;
#BPMS:0.000000=123.000000
;
#STOPS:
;
#BGCHANGES:;
#KEYSOUNDS:;
#ATTACKS:;

//---------------dance-single - ----------------
#NOTES:
     dance-single:
     :
     Easy:
     3:
     0.181824,0.250968,0.197189,0.000000,0.000000,120.000000,22.000000,0.000000,0.000000,0.000000,0.000000,0.181824,0.250968,0.197189,0.000000,0.000000,120.000000,22.000000,0.000000,0.000000,0.000000,0.000000:
0000
0000
0000
0000
,
0000
0000
0000
0000
,
0000
0000
0000
0000
,
0000
0000
0000
0000
,
1000
0000
0000
0000
,
0000
0000
0000
0000
,
0001
0000
0000
0000
,
0000
0000
0000
0000
,
0100
0000
0000
0000
,
0000
0000
0000
0000
,
0010
0000
0000
0000
,
0000
0000
0000
0000
,
1000
0000
0000
0000
,
0000
0000
0000
0000
,
0001
0000
0000
0000
,
0000
0000
0000
0000
,
0100
0000
0100
0000
,
0010
0000
0010
0000
,
1000
0000
1000
0000
,
0001
0000
0001
0000
,
0100
0000
0010
0000
,
1000
1000
1000
0000
,
0001
0000
0010
0000
,
0100
0100
0100
0000
,
1001
0000
0000
0000
,
0000
0000
0000
0000
,
0000
0000
0000
0000
,
0000
0000
0000
0000
,
1000
0000
0001
0000
,
1000
0000
0001
0000
,
0100
0100
0010
0010
,
0100
0010
0100
1001
,
1001
0000
0010
0010
,
1010
0000
1000
1000
,
1100
0000
0010
0010
,
0011
0000
0001
0001
,
0101
0000
0100
0100
,
0110
0000
0010
0010
,
1100
0000
1000
1000
,
0101
0000
0001
0001
,
1001
0010
0100
0010
,
1010
0100
0001
0010
,
0101
0001
0010
0100
,
1100
0010
0100
0001
,
0011
0100
1000
0010
,
0110
0100
0001
0010
,
0011
0001
0100
0010
,
1010
1000
0100
0010
,
0110
0000
0100
0000
,
1000
1000
1000
0000
,
0101
0000
0100
0000
,
0010
0100
0001
0001
,
0010
0001
0100
0100
,
0101
0000
0100
0100
,
0010
1000
0100
1000
,
0010
0010
0100
0100
,
1001
0000
0000
0000
;

//---------------dance-single - hooky----------------
#NOTES:
     dance-single:
     hooky:
     Beginner:
     1:
     0.103716,0.150581,0.098595,0.000000,0.000000,70.000000,11.000000,0.000000,0.000000,0.000000,0.000000,0.103716,0.150581,0.098595,0.000000,0.000000,70.000000,11.000000,0.000000,0.000000,0.000000,0.000000:
0000
0000
0000
0000
,
0000
0000
0000
0000
,
0000
0000
0000
0000
,
0000
0000
0000
0000
,
1000
0000
0000
0000
,
0000
0000
0000
0000
,
1000
0000
0000
0000
,
0000
0000
0000
0000
,
0001
0000
0000
0000
,
0000
0000
0000
0000
,
0001
0000
0000
0000
,
0000
0000
0000
0000
,
1000
0000
0000
0000
,
0000
0000
0000
0000
,
0001
0000
0000
0000
,
0000
0000
0000
0000
,
1000
0000
1000
0000
,
0001
0000
0001
0000
,
1000
0000
0001
0000
,
1000
0000
1000
0000
,
0010
0000
0100
0000
,
0010
0000
0010
0000
,
0100
0000
0010
0000
,
0100
0000
0100
0000
,
1001
0000
0000
0000
,
0000
0000
0000
0000
,
0000
0000
0000
0000
,
0000
0000
0000
0000
,
1000
0000
0000
0000
,
0001
0000
0000
0000
,
0010
0000
0000
0000
,
0100
0000
0000
0000
,
1001
0000
0000
0000
,
0110
0000
0000
0000
,
0110
0000
0000
0000
,
1001
0000
0000
0000
,
1001
0000
0000
0000
,
0110
0000
0000
0000
,
0110
0000
0000
0000
,
1001
0000
0000
0000
,
1000
0000
1000
0000
,
0001
0000
0001
0000
,
1000
0000
1000
0000
,
0001
0000
0001
0000
,
0100
0000
0100
0000
,
0010
0000
0010
0000
,
0100
0000
0100
0000
,
0010
0000
0010
0000
,
1001
0000
0001
0000
,
1000
1000
1000
0000
,
0001
0000
1000
0000
,
0001
0001
0001
0000
,
0100
0000
0010
0000
,
0100
0000
0010
0000
,
0100
0000
0010
0000
,
1000
0000
0001
0000
,
1001
0000
0000
0000
;

//---------------dance-single - ----------------
#NOTES:
     dance-single:
     :
     Medium:
     5:
     0.212555,0.301162,0.080668,0.000000,0.000000,157.000000,9.000000,0.000000,0.000000,0.000000,0.000000,0.212555,0.301162,0.080668,0.000000,0.000000,157.000000,9.000000,0.000000,0.000000,0.000000,0.000000:
0000
0000
0000
0000
,
0000
0000
0000
0000
,
0000
0000
0000
0000
,
0000
0000
0000
0000
,
1000
0000
0000
0000
,
0000
0000
0000
0000
,
0001
0000
0000
0000
,
0000
0000
0000
0000
,
0100
0000
0000
0000
,
0000
0000
0000
0000
,
0010
0000
0000
0000
,
0000
0000
0000
0000
,
1000
0000
0000
0000
0000
0000
0000
0F00
,
0000
0000
0000
0000
,
0010
0000
0000
0000
0000
0000
0000
000F
,
0000
0000
0000
0000
,
1000
0100
1000
1000
,
0010
0100
0001
0000
,
0001
0010
0100
0100
,
0010
0000
0001
0100
0010
0000
0000
0000
,
0010
0000
1000
0000
,
0010
0010
1000
1000
,
0001
0000
0100
0000
,
0001
0000
0001
0000
0100
0001
0100
0000
,
1001
0000
0000
0000
,
0000
0000
0000
0000
,
0000
0000
0000
0000
,
0000
0000
0000
0000
,
1000
0000
1000
0000
,
0001
0000
0001
0000
,
0100
0010
0100
0000
0001
1000
0001
0000
,
1000
0010
0100
0000
0100
0000
0110
0000
,
1000
0010
0100
0100
,
0001
0010
0001
0001
,
0100
0010
1000
1000
,
0100
0000
1000
0000
0010
0100
0010
0000
,
0100
0100
0001
0010
,
0001
0001
0100
0010
,
1000
1000
0100
1000
,
0010
0000
0010
0000
1000
0100
1000
0000
,
0010
0010
0100
0100
,
0100
0001
0010
0000
0010
0001
0100
0000
,
0010
0010
1000
1000
,
0100
1000
0010
0000
0100
0001
0010
0000
,
0001
0001
1000
1000
,
0010
0100
0001
0000
0100
0000
0100
0000
,
0010
1000
0100
0000
1000
0000
1000
0000
,
0010
0100
0001
0000
0001
0000
0100
0000
,
0010
0010
0100
0100
,
0010
0010
0100
0100
,
0001
0001
1000
1000
,
0010
0100
0001
0000
0010
0000
0010
0000
,
1001
0000
0110
0110
,
1001
0000
1010
1010
,
0001
0100
0010
0000
1000
0000
1000
0000
,
0100
1000
0100
0000
0010
0000
0010
0000
,
1001
0000
0000
0000
;

//---------------dance-single - ----------------
#NOTES:
     dance-single:
     :
     Hard:
     7:
     0.304747,0.401549,0.125484,0.000000,0.098595,224.000000,14.000000,0.000000,0.000000,0.000000,0.000000,0.304747,0.401549,0.125484,0.000000,0.098595,224.000000,14.000000,0.000000,0.000000,0.000000,0.000000:
// measure 0
0000
0000
0000
0000
,  // measure 1
0000
0000
0000
0000
,  // measure 2
0000
0000
0000
0000
,  // measure 3
0000
0000
0000
0000
,  // measure 4
1000
0000
0000
0000
0000
0000
0000
0100
,  // measure 5
0000
0000
0000
0000
,  // measure 6
0010
0000
0000
0000
0000
0000
0000
0001
,  // measure 7
0000
0000
0000
0000
,  // measure 8
0100
0000
0000
0000
0000
0000
0010
0010
,  // measure 9
0000
0000
0000
0000
,  // measure 10
1000
0000
0000
0000
,  // measure 11
0100
0000
0000
0000
,  // measure 12
0010
0000
0000
0000
0000
0000
0000
0001
,  // measure 13
0000
0000
0000
0000
,  // measure 14
0100
0000
0000
0000
0000
0000
0000
0010
,  // measure 15
0000
0000
0000
0000
,  // measure 16
1000
0100
1000
0010
1000
0100
1000
1000
,  // measure 17
0010
0100
0001
0010
0011
0000
0000
0000
,  // measure 18
0001
0010
0001
0100
0001
0010
0001
0001
,  // measure 19
0100
0010
1000
0100
1100
0000
0000
0000
,  // measure 20
0010
0001
0100
0000
0010
1000
0100
0000
,  // measure 21
0010
0010
0011
0000
0100
0100
1100
0000
,  // measure 22
0010
1000
0100
0000
1000
0010
0100
0000
,  // measure 23
0001
0010
0001
0100
0010
0000
0010
0000
,  // measure 24
1001
0000
0000
0000
,  // measure 25
0000
0000
0000
0000
,  // measure 26
0000
0000
0000
0000
,  // measure 27
0000
0000
0000
0000
,  // measure 28
1000
0000
1000
0000
0000
1010
0000
0000
0001
0000
0001
0000
0000
0101
0000
0000
,  // measure 29
0100
0000
0100
0000
0000
0110
0000
0000
0010
0000
0010
0000
0000
0110
0000
0000
,  // measure 30
1000
0000
1000
0000
0000
1000
0000
0000
0001
0000
0001
0000
0000
0001
0000
0000
,  // measure 31
1000
0001
1000
0001
1000
0001
1001
0000
,  // measure 32
0100
0000
0010
0000
1000
0100
0010
0000
,  // measure 33
0001
0000
1000
0000
0010
0100
0001
0000
,  // measure 34
1000
0000
0001
0000
0100
0010
1000
0000
,  // measure 35
0010
0000
0100
0000
0001
0010
0100
0000
,  // measure 36
1000
0000
0010
0000
0100
0001
0010
0000
,  // measure 37
0001
0000
0100
0000
0010
1000
0100
0000
,  // measure 38
1000
0000
0100
0000
0010
0001
0100
0000
,  // measure 39
0010
0000
1000
0000
0100
0010
0011
0000
,  // measure 40
1001
0000
0000
0000
0100
0000
0000
0010
0000
0000
1000
0000
0000
0100
0000
0000
,  // measure 41
0010
0000
0010
0000
0010
0000
0000
0010
0000
0000
0001
0000
0000
0100
0000
0000
,  // measure 42
0010
0000
0000
0000
0100
0000
0000
0001
0000
0000
0010
0000
0000
0001
0000
0000
,  // measure 43
1000
0000
1000
0000
1000
0000
0000
0100
0000
0000
0001
0000
0000
0100
0000
0000
,  // measure 44
1001
0000
0000
0000
0010
0000
0000
0100
0000
0000
0001
0000
0000
0010
0000
0000
,  // measure 45
0100
0000
0100
0000
0100
0000
0000
0100
0000
0000
1000
0000
0000
0010
0000
0000
,  // measure 46
0100
0000
0000
0000
0010
0000
0000
1000
0000
0000
0100
0000
0000
1000
0000
0000
,  // measure 47
0001
0000
0001
0000
0001
0000
0000
0010
0000
0000
1000
0000
0000
0010
0000
0000
,  // measure 48
0001
0100
0001
0010
0001
0001
1000
0000
,  // measure 49
0010
0100
0010
1000
0100
0100
0100
0000
,  // measure 50
0010
0001
0100
0000
0010
0010
0010
0000
,  // measure 51
1000
0100
0001
0100
1000
0100
1000
0000
,  // measure 52
0010
1000
0100
0000
0010
0001
0100
0000
,  // measure 53
0010
0000
0010
0000
1000
0100
1000
0000
,  // measure 54
0010
0100
0001
0000
0010
0001
0100
0000
,  // measure 55
0010
0010
0010
0000
0100
0100
0100
0000
,  // measure 56
1001
0000
0000
0000
;
