#VERSION:0.81;
#TITLE:Gumustdo;
#SUBTITLE:;
#ARTIST:HyperDuck SoundWorks;
#TITLETRANSLIT:;
#SUBTITLETRANSLIT:;
#ARTISTTRANSLIT:;
#GENRE:;
#ORIGIN:;
#CREDIT:;
#BANNER:Gumustdo - HyperDuck SoundWorksbn.png;
#BACKGROUND:Gumustdo - HyperDuck SoundWorksbg.png;
#PREVIEWVID:;
#JACKET:;
#CDIMAGE:;
#DISCIMAGE:;
#LYRICSPATH:;
#CDTITLE:encorerebirth.png;
#MUSIC:Gumustdo - HyperDuck SoundWorks.ogg;
#OFFSET:-0.056;
#SAMPLESTART:80.000;
#SAMPLELENGTH:11.860;
#SELECTABLE:YES;
#BPMS:0.000=120.000;
#STOPS:;
#DELAYS:;
#WARPS:;
#TIMESIGNATURES:0.000=4=4;
#TICKCOUNTS:0.000=4;
#COMBOS:0.000=1;
#SPEEDS:0.000=1.000=0.000=0;
#SCROLLS:0.000=1.000;
#FAKES:;
#LABELS:0.000=Song Start;
#BGCHANGES:;
#KEYSOUNDS:;
#ATTACKS:
;

//---------------dance-single - Spork!----------------
#NOTEDATA:;
#CHARTNAME:;
#STEPSTYPE:dance-single;
#DESCRIPTION:Spork!;
#CHARTSTYLE:;
#DIFFICULTY:Beginner;
#METER:1;
#RADARVALUES:0.086,0.099,0.018,0.000,0.000,66.000,2.000,0.000,0.000,0.000,0.000,0.000,0.000,0.086,0.099,0.018,0.000,0.000,66.000,2.000,0.000,0.000,0.000,0.000,0.000,0.000;
#CREDIT:Spork!;
#NOTES:
0000
0000
0000
0000
,
0000
0000
0000
0000
,
0000
0000
0000
0000
,
0000
0000
0000
0000
,
0010
0000
0000
0000
,
0100
0000
0000
0000
,
0001
0000
0000
0000
,
0001
0000
0000
0000
,
1000
0000
0000
0000
,
0000
0000
0000
0000
,
0001
0000
0000
0000
,
0000
0000
0000
0000
,
1000
0000
0010
0000
,
1000
0000
0000
0000
,
0001
0000
0010
0000
,
0001
0000
0001
0000
,
0001
0000
1000
0000
,
0010
0000
0000
0000
,
0100
0000
0001
0000
,
1000
0000
0100
0000
,
1000
0000
0000
0000
,
0000
0000
0000
0000
,
0001
0000
0000
0000
,
0000
0000
0000
0000
,
0001
0000
0010
0000
,
0100
0000
0000
0000
,
0010
0000
0100
0000
,
1000
0000
0000
0000
,
1000
0000
0010
0000
,
0100
0000
0000
0000
,
0010
0000
0100
0000
,
0001
0000
0000
0000
,
0001
0000
0000
0000
,
0000
0000
0000
0000
,
1000
0000
0000
0000
,
0000
0000
0000
0000
,
0001
0000
0000
0000
,
1000
0000
0100
0000
,
0001
0000
0000
0000
,
0001
0000
0100
0000
,
1000
0000
0000
0000
,
0001
0000
0100
0000
,
1000
0000
0000
0000
,
1001
0000
0000
0000
,
0100
0000
0010
0000
,
0010
0000
0010
0000
,
1000
0000
0010
0000
,
0010
0000
0100
0000
,
0001
0000
0000
0000
,
1000
0000
0100
0000
,
1000
0000
0000
0000
,
0000
0000
0000
0000
,
1000
0000
0100
0000
,
0010
0000
0001
0000
,
1000
0000
0001
0000
,
0000
0000
0000
1001
;

//---------------dance-single - Spork!----------------
#NOTEDATA:;
#CHARTNAME:;
#STEPSTYPE:dance-single;
#DESCRIPTION:Spork!;
#CHARTSTYLE:;
#DIFFICULTY:Easy;
#METER:4;
#RADARVALUES:0.240,0.272,0.160,0.267,0.000,141.000,18.000,30.000,0.000,0.000,0.000,0.000,0.000,0.240,0.272,0.160,0.267,0.000,141.000,18.000,30.000,0.000,0.000,0.000,0.000,0.000;
#CREDIT:Spork!;
#NOTES:
0000
0000
0000
0000
,
0000
0000
0000
0000
,
0000
0000
0000
0000
,
0000
0000
0000
0000
,
0200
0010
0000
0301
,
0020
0100
0000
0031
,
2000
0010
0000
3100
,
0002
0010
0000
0103
,
2002
0000
0000
0000
,
0000
0000
0000
0003
,
0200
0000
0000
0000
,
0000
0000
3300
0001
,
1001
0000
0100
0000
,
0001
0010
0100
0000
,
1000
0000
0010
0100
,
0001
0001
1000
0000
,
0001
0000
0010
0100
,
0010
0000
0001
1000
,
0020
0030
1000
0001
,
0100
0100
0010
1000
,
2002
0000
0000
0000
,
3003
0000
0000
0000
,
0200
0010
0000
0310
,
0100
0001
1000
0000
,
1001
0000
1100
0010
,
0001
0000
1000
0000
,
0010
0000
0110
0010
,
1000
0001
0100
0000
,
0010
0000
1010
0100
,
0001
0000
1000
0001
,
0010
0000
0011
0100
,
1000
0001
0100
0100
,
0002
0000
1000
0000
,
0003
0000
0100
0000
,
0020
0000
0000
0000
,
0000
0000
0130
0001
,
2000
3010
0100
0001
,
0020
0031
2000
3010
,
0200
0310
1000
0001
,
0020
0031
0002
1003
,
0002
0103
0010
1000
,
0200
1300
0020
0130
,
2000
3001
0010
0001
,
2002
0000
0000
3003
,
0000
0001
0001
0000
1000
0000
1010
0000
,
0001
0011
1000
1001
,
0000
1000
1000
0000
0001
0000
0101
0000
,
1000
1100
1001
0000
,
0000
0010
0010
0000
0100
0000
0000
0000
,
0001
0000
1001
0110
,
0200
0000
0000
0000
0000
0000
0000
0300
,
0020
0000
0000
0000
0000
0000
0000
0030
,
0000
1000
1000
0000
0100
0000
0010
0000
,
0002
0000
1003
0001
,
0200
0000
0310
1000
,
0200
0000
0310
1001
;

//---------------dance-single - Spork!----------------
#NOTEDATA:;
#CHARTNAME:;
#STEPSTYPE:dance-single;
#DESCRIPTION:Spork!;
#CHARTSTYLE:;
#DIFFICULTY:Medium;
#METER:6;
#RADARVALUES:0.308,0.347,0.160,0.302,0.000,191.000,18.000,34.000,0.000,0.000,0.000,0.000,0.000,0.308,0.347,0.160,0.302,0.000,191.000,18.000,34.000,0.000,0.000,0.000,0.000,0.000;
#CREDIT:Spork!;
#NOTES:
0000
0000
0000
0000
,
0000
0000
0000
0000
,
0000
0000
0000
0000
,
0000
0000
0000
0000
,
0002
0000
0013
0000
0001
0010
0100
0000
,
0200
0000
0310
0000
0100
0000
0010
0100
,
2000
0000
3010
0000
1000
0010
0100
0000
,
0200
0310
0100
0001
,
2002
0000
0000
0000
,
0000
0000
0000
3000
,
0020
0000
0000
0000
,
0000
0000
0033
0010
,
2001
0000
0000
0000
3010
0100
0010
0000
,
0100
0000
0001
0000
1000
0001
1000
0000
,
0002
0000
0013
0000
0100
0010
0100
0010
,
0001
0000
0001
0000
0001
1000
0000
1000
,
0020
0000
0130
0001
,
1000
1001
0000
0000
0010
0000
0100
0000
,
1000
0000
0001
0000
1000
0001
1000
0000
,
0001
0100
0010
1000
,
2002
0000
0000
0000
,
3003
0000
0000
0000
,
0020
0000
0031
1000
,
0200
0000
0310
0000
,
0010
0000
0100
1000
0000
0010
0000
0010
,
0100
0001
0000
0000
1000
0000
0000
0000
,
1000
0001
0000
0100
0000
0010
0000
0010
,
0100
0000
0010
1000
0002
0000
0000
0000
,
1003
0100
0000
0100
0000
1000
0000
0010
,
1000
0001
0000
0000
0100
0000
0100
0000
,
0001
0010
0000
0001
0000
1000
0000
0010
,
0100
0010
1001
0010
,
2000
0000
0001
0000
,
0000
0000
3010
0000
,
0100
0000
0001
0000
,
1000
0000
0010
1000
,
0002
0000
0103
0000
0001
1000
0100
0010
,
0020
0130
0200
1300
,
2100
0000
3001
0000
1000
0010
0100
0010
,
0020
0130
0200
0301
,
0102
0000
1003
0000
0010
1000
0001
0100
,
0200
0310
0020
1030
,
2010
0000
3100
0000
0010
0100
1000
0001
,
2002
0000
0000
3003
,
0000
0010
1000
0000
0001
0000
1100
0000
,
0010
0101
1000
0110
,
0000
0100
0001
0000
1000
0000
0011
0000
,
0100
1001
0220
0330
,
0000
0100
1000
0000
0002
0000
0003
0000
,
0110
0000
0000
0000
0100
1000
0001
0000
,
0000
0001
0100
0000
0100
0010
0000
0010
,
2000
3000
0100
1001
,
0000
0010
0001
0000
0100
0000
0010
0000
,
0200
0000
0300
0000
0001
0010
0100
1000
,
0000
1000
0010
0000
0010
0100
0000
0100
,
0002
0003
0010
1001
;

//---------------dance-single - Spork!----------------
#NOTEDATA:;
#CHARTNAME:;
#STEPSTYPE:dance-single;
#DESCRIPTION:Spork!;
#CHARTSTYLE:;
#DIFFICULTY:Challenge;
#METER:10;
#RADARVALUES:0.661,0.718,0.569,0.347,0.578,418.000,64.000,39.000,11.000,5.000,1.000,0.000,0.000,0.661,0.718,0.569,0.347,0.578,418.000,64.000,39.000,11.000,5.000,1.000,0.000,0.000;
#CREDIT:Spork!;
#NOTES:
0000
0000
0000
0000
,
0000
0000
0000
0000
,
0000
0000
0000
0000
,
0000
0000
0000
0000
0000
0000
0000
0000
0000
0000
0000
0100
0100
0000
1000
0000
,
0002
0000
0000
0003
0100
0000
0001
0000
0010
0001
0000
0010
0100
0000
0000
0000
,
2000
0000
0000
3100
1000
0000
0010
0000
0100
0001
0000
0001
1000
0000
0100
0000
,
0020
0000
0000
0130
1000
0000
0001
0000
0100
0010
0000
0000
0101
0000
0010
0000
,
2000
0000
0000
0000
0000
0000
0000
0000
0000
3100
0000
0000
0010
0000
0000
0000
0000
0000
0001
0000
0000
0000
0000
0000
1000
0000
0001
0000
1000
0000
0000
0000
0000
0001
0000
0000
0100
0000
0000
0000
0000
0000
0010
0000
0000
0000
0000
0000
,
1200
0000
0000
0000
0000
0000
0010
0000
0000
0000
0001
0000
0000
0010
0000
0000
,
2300
0002
3000
0000
0100
0000
0000
0000
,
1003
0000
0000
0000
0010
0000
0100
0000
0001
0000
0000
0001
0010
0000
0000
0000
,
0400
0000
0000
0000
0000
0000
0000
0000
0000
0000
0000
0000
0000
0000
0000
0000
0000
0000
0000
0000
0000
0000
0000
0000
0000
0000
0000
0300
0000
0000
0000
0000
0000
0000
0000
0000
1000
0000
0000
0000
0010
0000
0000
0000
0100
0000
0000
0000
,
0001
0000
0000
0000
0000
0000
0002
0000
0000
0000
0000
0000
0000
0000
0000
0000
0000
0000
0000
0000
0000
0000
0000
0000
1003
0000
0000
0000
0000
0000
0100
0000
0000
0100
0000
0000
0000
0000
0000
0000
0000
0000
0010
0000
0100
0000
0010
0000
,
0100
0000
1000
0100
0010
0001
0100
0010
1000
0000
0001
0000
0100
0000
0000
0010
,
0110
0000
0100
0001
1000
0001
0010
0100
1000
0010
1000
0000
0001
0000
1000
0100
,
2200
0000
0000
3300
0022
0000
0000
0033
1002
0000
0200
0000
0003
0000
0000
0300
,
2020
0000
0000
0000
0000
0000
0000
0000
0000
0030
0000
0000
3001
0000
0000
0000
0000
0000
1000
0000
0000
0000
0000
0000
1200
0000
0000
0000
0000
0000
0000
0000
0000
0000
0000
0000
0310
0000
0000
0000
0100
0000
0000
0000
1000
0000
0000
0000
,
0001
0000
0000
0000
0000
0000
1001
0000
0000
0000
0000
0000
0000
0000
0000
0000
0000
0000
0000
0000
0000
0000
0000
0000
0001
0000
0000
0100
0000
0000
0001
0000
1000
0000
0001
0000
1000
0000
0000
0000
0000
0000
0100
0000
0000
0000
0000
0000
,
0011
0000
0000
0000
0000
0000
0001
0000
0000
0010
0000
0000
0100
0000
0000
1000
0000
0000
0001
0000
0000
1000
0000
0000
0010
0000
0000
0100
0000
0000
0010
0000
0100
0000
0010
0000
0100
0000
0000
0000
0000
0000
0001
0000
0000
1000
0000
0000
,
0010
0000
0000
0000
0000
0000
0010
0000
0000
0000
0000
0000
0010
0000
0000
0100
0000
0000
0001
0000
0010
0000
0100
0000
,
2100
0000
0000
0100
0000
0000
0001
0000
0000
0000
0000
0000
0000
0000
0000
0010
,
0000
0010
3000
0000
1000
0010
0100
0001
,
0002
0000
0010
0000
0000
0000
1000
0000
0000
0000
0100
0000
0000
0100
0000
0000
,
1003
0000
0000
0000
0001
0000
0000
0000
0100
0000
0010
0100
0010
0000
1000
0000
0000
0000
0000
0000
0001
0000
1000
0000
0001
0000
0000
0000
0000
0000
0000
0000
,
0011
0000
0001
0100
0000
0000
1010
0000
0000
0000
1001
0000
0000
0101
0000
0000
,
1100
0000
0000
0000
0110
0000
0000
0000
0000
0000
0000
0000
0000
0000
0010
0001
0020
0000
0000
0000
0001
0000
0000
0000
0031
0000
0000
0000
1000
0000
0000
0000
,
0010
0000
1001
0000
0000
0000
0110
0000
0000
0000
1100
0000
0000
0101
0000
0100
,
0001
0000
0000
0000
0010
0000
0000
0000
0100
0000
0010
0100
0010
0000
0001
0000
2000
0000
0000
0000
0001
0000
0000
0000
3000
0000
0000
0000
0001
0000
0000
0000
,
M010
0000
0011
0M00
0000
0000
M101
0000
0000
0000
11M0
0000
0000
101M
0000
0000
,
0M11
0000
1M01
0000
0001
0000
M100
0000
001M
0000
0000
0M10
0000
0000
001M
0000
,
1000
0000
0110
0000
0000
0000
1001
0000
0000
0000
0011
0000
0000
1010
0000
0010
,
1000
0000
0000
0000
0100
0000
0000
0000
0010
0000
0100
0010
0100
0000
1000
0000
0002
0000
0000
0000
1000
0000
0000
0000
1003
0000
0000
0000
0000
0000
0000
0000
,
0220
0000
0030
0000
,
0000
0000
0000
0000
,
0000
0000
0000
0000
,
0000
0000
0000
0000
0000
0000
0301
1000
0100
1000
0001
0100
,
2001
0000
0100
0000
3010
0000
1000
0010
0000
0010
0100
0000
0001
0000
0101
0000
,
1200
0010
1300
0010
0201
0010
0301
0010
,
1002
0000
0100
0000
0013
0000
0001
0100
0000
0100
0010
0000
1000
0000
1010
0000
,
0021
0100
0031
0100
1020
0100
1030
0100
,
1000
0100
0010
0001
0100
0000
0010
0000
0210
0000
0010
0000
0301
0000
1000
0000
,
0001
0010
0100
1000
0010
0000
0100
0000
0010
0100
0010
1000
0001
0000
0010
0000
,
0001
0100
0010
1000
0100
0000
0010
0000
0001
0000
1000
0000
0010
0000
2002
0000
,
0000
0000
0000
0000
0000
0000
0000
0000
0000
0010
0010
0010
0010
0000
0000
0010
0000
0000
3003
0000
0000
0000
0000
0000
,
1000
0000
0100
0000
0110
0000
1000
0100
0010
0001
0100
0000
1001
0000
0001
0010
,
0100
1000
0010
0000
0110
0000
0100
0001
1000
0001
0010
0000
0110
0000
0010
0000
,
0001
0000
0100
0000
0110
0000
0001
0100
0010
1000
0100
0000
1001
0000
1000
0010
,
0100
0000
0000
0000
0000
0000
0000
0000
0000
0000
0000
0000
0001
0000
0000
0000
0000
0000
0000
0000
0000
0000
0000
0000
0010
0000
0000
0000
0000
0000
0000
0000
0000
0000
0000
0000
0000
0000
0000
0000
0000
0000
0000
0000
0000
0000
0000
0000
0110
0000
0000
0000
0000
0000
0000
0000
0000
0000
0000
0000
0000
0000
0000
0000
0000
0000
0000
0000
0000
0000
0000
0000
0100
0000
0000
0000
0000
0000
0000
0000
0010
0000
0000
0000
0000
0000
0000
0000
0100
0000
0000
0000
0000
0000
0000
0000
0010
0000
0000
0000
0000
0000
0000
0000
0000
0000
0000
0000
0000
0000
0000
0000
0000
0000
0000
0000
0000
0000
0000
0000
0001
0000
0000
0000
0000
0000
0000
0000
0000
0000
0000
0000
1000
0000
0000
0000
0000
0000
0100
0000
0000
0000
0000
0000
1000
0000
0000
0000
0000
0000
0000
0000
0000
0000
0000
0000
0001
0000
0000
0000
0000
0000
0000
0000
0000
0000
0000
0000
0100
0000
0000
0000
0000
0000
0000
0000
0000
0000
0000
0000
0010
0000
0000
0000
0000
0000
0000
0000
0000
0000
0000
0000
,
2000
0000
0000
0200
3000
0000
0020
0300
0000
0000
0030
0000
0001
0000
0000
0001
,
0100
0000
0000
0000
0000
0000
0000
0000
0000
0000
0000
0000
0001
0000
0000
0000
0000
0000
0000
0000
0000
0000
0000
0000
1000
0000
0000
0000
0000
0000
0000
0000
0001
0000
0000
0000
0000
0000
0000
0000
1000
0000
0000
0000
0000
0000
0000
0000
0200
0000
0000
0000
0000
0000
0000
0000
0000
0000
0000
0000
0000
0000
0000
0000
0000
0000
0000
0000
0000
0000
0000
0000
0000
0000
0000
0000
0000
0000
0000
0000
0000
0000
0000
0000
0000
0000
0000
0000
0000
0000
0000
0000
0000
0000
0000
0000
0310
0000
0000
0000
0000
0000
0000
0000
0000
0000
0000
0000
0001
0000
0000
0000
0000
0000
0000
0000
0000
0000
0000
0000
1000
0000
0000
0000
0000
0000
0000
0000
0000
0000
0000
0000
0001
0000
0000
0000
0000
0000
0100
0000
0000
0000
0000
0000
0001
0000
0000
0000
0000
0000
0000
0000
0000
0000
0000
0000
0010
0000
0000
0000
0000
0000
0000
0000
0000
0000
0000
0000
0100
0000
0000
0000
0000
0000
0000
0000
0000
0000
0000
0000
1000
0000
0000
0000
0000
0000
0000
0000
0000
0000
0000
0000
,
0001
0101
1100
0100
0110
1001
1000
1010
,
0012
0000
0000
0000
0000
0000
0000
0000
0000
0000
0000
0000
0103
0000
0000
0000
0000
0000
0001
0000
1000
0000
0001
0000
1000
0000
0000
0100
0000
0000
1000
0000
0001
0000
1000
0000
0001
0000
0000
0100
0000
0000
0010
0000
0000
1000
0000
0000
,
0001
0000
0010
0000
1001
0000
0000
0000
1000
0010
0000
0010
0100
0001
0010
0100
,
1000
0000
0000
0000
0010
0000
0000
0000
0110
0000
0000
0000
0000
0000
0000
0000
0100
0000
0001
0000
0100
0000
0010
0000
1000
0001
1000
0000
0010
0000
1000
0000
,
0001
0011
1010
0010
0110
1001
1000
1100
,
0201
0000
0000
0000
0000
0000
0000
0000
0000
0000
0000
0000
0310
0000
0000
0000
0000
0000
0100
0000
0010
0000
0100
0000
0010
0000
0000
1000
0000
0000
0100
0000
0000
0010
0000
0000
1001
0000
0000
0000
0000
0000
0000
0000
0000
0000
0000
0000
;

//---------------dance-single - Spork!----------------
#NOTEDATA:;
#CHARTNAME:;
#STEPSTYPE:dance-single;
#DESCRIPTION:Spork!;
#CHARTSTYLE:;
#DIFFICULTY:Hard;
#METER:8;
#RADARVALUES:0.437,0.495,0.462,0.267,0.222,262.000,52.000,30.000,0.000,0.000,0.000,0.000,0.000,0.437,0.495,0.462,0.267,0.222,262.000,52.000,30.000,0.000,0.000,0.000,0.000,0.000;
#CREDIT:Spork!;
#NOTES:
0000
0000
0000
0000
,
0000
0000
0000
0000
,
0000
0000
0000
0000
,
0000
0000
0000
0000
,
2000
0000
0000
0000
3010
0000
0010
0000
1000
0100
0000
0100
0010
0000
0000
0000
,
0002
0000
0000
0000
1003
0000
1000
0000
0001
0100
0000
0100
0010
0000
1000
0000
,
0002
0000
0000
0000
0103
0000
0100
0000
0001
0010
0000
0010
0100
0000
0000
0000
,
2000
0000
0000
0000
3001
0000
0001
0000
1000
0010
0000
0010
0100
0000
0010
0000
,
2002
0000
0000
0000
,
0000
0000
0000
0000
,
3000
0000
0000
0000
,
0000
0000
0000
0000
0000
0000
0003
0000
0000
1000
0100
1000
,
0020
0000
0000
0000
0130
0000
0000
0000
0001
0000
0001
1000
0000
0000
1000
0000
,
0001
0000
0010
0000
1000
0000
0010
0100
0010
0000
0001
0000
1001
0000
0000
0000
,
1100
0000
0100
0000
0010
0000
0100
1000
0100
0000
0010
0000
0100
0000
0010
0001
,
1000
0000
1000
0000
1000
0020
0000
0030
,
0110
0000
0000
0000
0000
0000
0100
0000
0000
0001
0000
0000
1000
0000
0000
0000
0000
0000
0001
0000
0010
0000
0001
0000
,
0100
1001
0000
0000
0200
0000
0310
0000
,
0101
0000
0000
0000
0001
0000
1000
0000
0100
0000
0010
0100
0010
0000
0000
0000
,
0110
0000
0000
0000
0000
0000
1001
0000
0000
0000
0000
0000
1000
0000
0000
1000
0000
0000
0001
0000
0100
0000
0020
0000
,
0200
0000
0300
0000
,
2000
0030
3002
0000
,
0020
0000
0003
0000
,
0230
0000
0000
0300
,
1100
0000
0000
1001
0000
0000
0101
0000
0000
0000
0110
0000
0000
1010
0000
0000
,
1001
0000
1100
0000
0000
0000
0010
0100
0010
0000
0001
0000
1000
0000
0010
0000
,
1000
0000
1100
0000
0000
0000
0110
0000
0000
0000
0011
0000
0000
1010
0000
0000
,
1001
1000
0010
0100
0002
0000
1003
0000
,
0001
0000
0011
0000
0000
0000
0110
0000
0000
0000
1100
0000
0000
0101
0000
0000
,
0011
0000
1001
0000
0000
0000
0001
0000
0100
0000
0000
0100
0000
0000
0100
0000
,
0001
0000
0011
0000
0000
0000
0101
0000
0000
0000
1100
0000
0000
1001
0000
0000
,
0110
0100
0001
1000
0100
0000
0010
0000
,
0220
0000
0300
0000
,
0000
0000
0000
0000
,
0000
0000
0000
0000
,
0000
0000
0000
0000
0000
0000
0030
0100
1000
0001
1000
0010
,
0200
0000
0000
0000
0010
0000
0000
0001
0300
0000
0011
0000
1010
0000
0010
0000
,
2000
0000
0010
3000
0002
0000
0100
0003
,
0120
0000
0000
0000
0100
0000
0000
1000
0030
0000
1100
0000
0101
0000
0100
0000
,
0020
0000
1000
0030
0200
0000
0001
0300
,
2001
0000
0000
0000
0100
0000
0000
0010
3000
0000
0100
0000
0010
0000
1000
0000
,
0100
0010
0100
0010
0000
0000
0001
0000
0100
0010
0100
0010
0000
0000
1000
0000
,
1002
0000
0000
0000
0010
0000
0000
0100
0003
0000
0010
0000
0001
0000
1000
0000
,
0220
0000
0000
0330
,
0001
0000
0100
0000
1001
0000
0000
0000
0010
1000
0000
0000
0110
0000
0000
0000
,
0010
0001
0000
0000
1010
0000
0000
0000
0010
0100
0000
0000
0110
0000
0010
0000
,
1000
0000
0100
0000
1001
0000
0000
0000
0010
0001
0000
0000
0110
0000
0000
0000
,
0010
1000
0000
0000
0110
0000
0010
0000
0100
0000
0000
0000
1000
0000
0000
0000
,
0001
0000
0000
0200
0000
0000
0020
0000
0000
0000
0330
0000
0000
0000
0000
0010
,
1000
0000
0001
1000
0001
0000
0000
0000
0001
0000
0010
0000
1000
0000
0010
0001
,
0000
1000
0010
0000
0010
0100
0000
0100
,
0001
0000
1100
1000
0010
0100
0001
1001
,
1000
0000
0001
0000
0011
0000
0000
0000
0100
0010
0000
0000
0010
0000
1000
0000
,
0001
0000
0000
0000
1001
0000
0000
0000
1000
0000
0100
0000
0001
0000
0100
1000
,
0000
0001
0100
0000
0100
0010
0000
0010
,
1000
0000
0000
0000
0000
0000
1000
0001
1000
0000
0100
0000
1001
0000
0000
0000
;

//---------------dance-double - Spork!----------------
#NOTEDATA:;
#CHARTNAME:;
#STEPSTYPE:dance-double;
#DESCRIPTION:Spork!;
#CHARTSTYLE:;
#DIFFICULTY:Easy;
#METER:3;
#RADARVALUES:0.180,0.272,0.169,0.187,0.000,102.000,19.000,21.000,0.000,0.000,0.000,0.000,0.000,0.180,0.272,0.169,0.187,0.000,102.000,19.000,21.000,0.000,0.000,0.000,0.000,0.000;
#CREDIT:Spork!;
#NOTES:
00000000
00000000
00000000
00000000
,
00000000
00000000
00000000
00000000
,
00000000
00000000
00000000
00000000
,
00000000
00000000
00000000
00000000
,
02000000
00000000
00000000
03000000
,
00000020
00000000
00000000
00000030
,
00200000
00000000
00000000
00300000
,
00000200
00000000
00000000
00000300
,
00022000
00000000
00000000
00000000
,
00000000
00000000
00000000
00000000
,
00003000
00000000
00000000
00000000
,
00000000
00000000
00000000
00031000
,
02001000
00000000
03010000
00100000
,
00001000
00010000
00000010
00010000
,
00010200
00000000
00001300
00000010
,
00000110
00000110
00001000
00000001
,
00000201
00000000
00000310
00000000
,
00000000
00011000
00000000
00000000
00100000
00000000
00010000
00000000
,
20010000
00000000
30100000
01000000
,
00001000
00001000
00010000
00000000
,
00001001
00000000
00000000
00000000
,
00000000
00000000
00000000
00000000
,
00000000
00000000
00000000
00000000
,
00000000
00000000
00000000
00000000
,
10000000
01000000
00100000
00010000
,
01000000
00000000
00000000
00000000
,
00000001
00000100
00000010
00001000
,
00000100
00000100
00000010
00000000
,
00000001
00000010
00000100
00001000
,
00000010
00000000
00000000
00000000
,
10000000
00100000
01000000
00010000
,
00100000
00100000
00100000
00000000
,
02200000
00000000
00300000
00000000
,
00000000
00000000
00000000
00000000
,
00000000
00000000
00000000
00000000
,
00000000
00000000
03000000
00000000
,
10010000
00000000
00001000
00010000
,
00011000
00000000
00010100
00000000
,
00001001
00000000
00001000
00010000
,
00011000
00000000
00101000
00000000
,
00020000
00000000
00030000
00000000
,
00002000
00000000
02003000
00000000
,
03200000
00000000
00300000
00000000
,
10010000
00000000
00000000
00000000
,
00002000
00010000
00000000
01000000
,
00000000
00100000
00003000
00001000
,
00020000
00001000
00000000
00000010
,
00000000
00000100
00030100
00000000
,
00002002
00000000
00000000
00003003
,
00000100
00000000
00000100
00000100
,
00000001
00000000
00001000
00000000
,
00010000
00000000
20000000
00000000
,
31000000
00100000
00010000
10000000
,
00010000
00000000
01000000
00100000
,
10000000
00000000
00010000
00000000
,
00001000
00000000
00000001
00000110
;

//---------------dance-double - Spork!----------------
#NOTEDATA:;
#CHARTNAME:;
#STEPSTYPE:dance-double;
#DESCRIPTION:Spork!;
#CHARTSTYLE:;
#DIFFICULTY:Medium;
#METER:5;
#RADARVALUES:0.267,0.297,0.258,0.169,0.004,162.000,29.000,19.000,0.000,0.000,0.000,0.000,0.000,0.267,0.297,0.258,0.169,0.004,162.000,29.000,19.000,0.000,0.000,0.000,0.000,0.000;
#CREDIT:Spork!;
#NOTES:
00000000
00000000
00000000
00000000
,
00000000
00000000
00000000
00000000
,
00000000
00000000
00000000
00000000
,
00000000
00000000
00000000
00000000
,
22000000
00000000
00000000
33000000
,
00022000
00000000
00000000
00033000
,
00000202
00000000
00000000
00000303
,
00022000
00000000
00000000
00033000
,
00001000
00000000
00100000
00000000
,
01000000
00000000
00010000
00000000
,
00010000
00000000
00000010
00000000
,
00000100
00000000
00001000
00000000
,
00011000
00000000
00000000
00000000
00001000
00100000
00001000
00000000
,
00010000
00000000
00000100
00000000
00001000
00000001
00001000
00000000
,
00000010
00000000
00010000
00000000
00001000
01000000
00001000
00000000
,
00011000
00011000
00010000
00000100
,
00000010
00000200
00001300
00000001
,
00000010
00001001
00000000
00000000
00000020
00000000
00001030
00000000
,
00000100
00000000
00010000
00000000
00001000
00010000
00001000
00000000
,
00100000
01000000
10000000
00010000
,
10010000
00000000
00000000
00000000
,
00000000
00000000
00000000
00000000
,
00011000
00000000
00000000
00000000
,
00000000
00000000
00000000
00000000
,
00000001
00000100
00001000
00010000
,
01000000
00000000
00000000
00000000
01100000
00100000
00010000
00000000
,
10000000
00100000
00010000
00001000
,
00000020
00000230
00002300
00003000
,
00000001
00000010
00001000
00010000
,
00100000
00000000
00000000
00000000
00000000
00000000
10000000
00000000
00010000
00000000
00000000
00010000
00000000
00000000
00010000
00000000
,
10000000
01000000
00010000
00001000
,
00000200
00000320
00002030
00003001
,
00000220
00000000
00000300
00000000
,
00000000
00000000
00000000
00000000
,
00000000
00000000
00000000
00000000
,
00000000
00000000
00000030
00000000
,
00001001
00000000
00000100
00000000
00000000
00000000
00000010
00010000
,
00011000
00001000
00101000
00001000
,
00011000
00000000
01000000
00000000
00000000
00000000
00100000
10000000
,
10010000
01000000
01100000
00100000
,
10010000
00000000
01000000
00000000
00000000
00000000
00100000
00001000
,
00011000
00010000
00010010
00010000
,
00011000
00000000
00000100
00000000
00000000
00000100
00000010
00000002
,
00000000
00000003
00000000
00000000
00000000
00000000
00000000
00000000
,
00001000
00000001
00000001
00000000
00000010
00000000
00000110
00000000
,
00000100
00010100
00010000
00011000
,
00010000
00001000
00001000
00000000
01000000
00000000
01100000
00000000
,
00100000
10100000
10010000
00000000
,
10000000
01000000
00100000
00010000
,
01000000
00001000
00010000
00000010
,
00001000
00000001
00000010
00000000
00000010
00000100
00000000
00000100
,
00001000
00000000
00000001
00001000
,
00000001
00000010
00000100
00001000
,
00000010
00010000
00001000
01000000
,
00010000
10000000
01000000
00000000
01000000
00100000
00000000
00100000
,
00010000
00000000
01000000
10010000
;

//---------------dance-double - Spork!----------------
#NOTEDATA:;
#CHARTNAME:;
#STEPSTYPE:dance-double;
#DESCRIPTION:Spork!;
#CHARTSTYLE:;
#DIFFICULTY:Hard;
#METER:9;
#RADARVALUES:0.480,0.545,0.462,0.267,0.284,296.000,52.000,30.000,0.000,0.000,0.000,0.000,0.000,0.480,0.545,0.462,0.267,0.284,296.000,52.000,30.000,0.000,0.000,0.000,0.000,0.000;
#CREDIT:Spork!;
#NOTES:
00000000
00000000
00000000
00000000
,
00000000
00000000
00000000
00000000
,
00000000
00000000
00000000
00000000
,
00000000
00000000
00000000
00000000
,
00001000
00000000
00000000
00010000
00000100
00000000
00000010
00000000
00000001
00000100
00000000
00000100
00000010
00000000
00001000
00000000
,
00000001
00000000
00000000
00000001
00000010
00000000
00000100
00000000
00010000
00001000
00000000
00001000
00100000
00000000
00001000
00000000
,
01000000
00000000
00000000
00100000
01000000
00000000
00010000
00000000
10000000
01000000
00000000
01000000
00100000
00000000
00010000
00000000
,
10000000
00000000
00000000
10000000
00100000
00000000
01000000
00000000
00001000
00010000
00000000
00010000
00000100
00000000
00010000
00000000
,
00022000
00000000
00000000
00000000
,
00000000
00000000
00000000
00000000
,
00030000
00000000
00000000
00000000
,
00000000
00000000
00000000
00000000
00000000
00000000
00003000
00000000
00000000
00001000
01000000
00100000
,
20000000
00000000
00000000
00000000
00000000
00000000
00000000
00000000
31000000
00000000
10000000
00100000
00000000
00000000
00000000
10000000
,
01000000
00000000
00100000
00001000
00010000
00000000
00001000
00010000
00000010
00000000
00000100
00000000
00000001
00000000
00000000
00001000
,
00000010
00000000
00010000
00001000
01000000
00000000
00001000
00010000
00000100
00000000
00001000
00000000
00000100
00000000
00000010
00000000
,
00000110
00000000
00010100
00000000
00011000
01001000
00000000
00000000
,
10010000
00000000
00000000
00000000
00000000
00000000
00010000
00000000
00000000
01000000
00000000
00000000
00001000
00000000
00000000
00000000
00000000
00000000
00010000
00000000
00000010
00000000
00000100
00000000
,
00000001
00001001
00000000
00000000
00000200
00000000
00000310
00000000
,
00000001
00000000
00000100
00000001
00000100
00000000
00001000
00000000
00010000
00000000
01000000
10000000
01000000
00000000
10000000
00000000
,
10100000
00000000
00000000
00000000
00000000
00000000
10010000
00000000
00000000
00000000
00000000
00000000
10000000
00000000
00000000
00010000
00000000
00000000
00100000
00000000
00001000
00000000
00010000
00000000
,
00000020
00000000
00000000
00000000
,
00000001
00000000
00000000
00000000
,
02000030
00000000
00000000
00000000
,
10000000
00000000
00000000
00000000
,
03010000
00000000
10000000
01000000
00000000
00000000
01100000
00000000
00000000
00000000
00110000
00000000
00000000
00101000
00000000
00000000
,
01100000
10010000
00000000
00010000
00100000
00001000
00010000
00000010
,
00000100
00000000
00000101
00000000
00000000
00000000
00000011
00000000
00000000
00000000
00001100
00000000
00000000
00010100
00000000
00000000
,
00000110
00001000
00000001
00000100
00000010
00000000
00010000
00000000
,
00002000
00000000
00000000
00200000
00003000
00000000
02000000
00300000
00000000
00000000
23000000
00000000
00000000
00200000
30000000
00000000
,
02000000
00300000
00002000
00000000
03000000
00000000
00023000
00000000
00000200
00000000
00030000
00000020
00000300
00000000
00000002
00000030
,
00000000
00000003
00000110
00000000
00000000
00000000
00001001
00000000
00000000
00000000
00001010
00000000
00000000
00010010
00000000
00000000
,
00000110
00000001
00001000
00000100
00000010
00000000
00001000
00000000
,
00022000
00000000
00030000
00000000
,
00000000
00000000
00000000
00000000
,
00000000
00000000
00000000
00000000
,
00000000
00000000
00000000
00000000
00000000
00000000
00003000
00010000
00000010
00000100
00000001
00001000
,
00002001
00000000
00000000
00000000
00003001
00000000
00000000
00000010
00000000
00000000
00001000
00000000
00100000
00000000
00110000
00000000
,
10020000
01030000
00012000
00103000
,
10020000
00000000
00000000
00000000
10030000
00000000
00000000
00100000
00000000
00000000
00010000
00000000
00000010
00000000
00001010
00000000
,
00002001
00003100
00021000
00030010
,
00000100
00000001
00000100
00000001
00000100
00000000
00000000
00000010
00000000
00000000
00001000
00000000
00100000
00000000
10000000
00000000
,
01000000
10000000
01000000
10000000
00000000
10000000
00100000
00000000
01000000
00010000
01000000
00010000
00000000
00010000
00100000
00000000
,
01000000
00100000
01000000
00100000
00000000
00001000
00000000
00100000
00000000
00000000
00010000
00000000
00000010
00000000
00000001
00000000
,
00000220
00000000
00000000
00000330
,
00001001
00000000
00000001
00000000
00000101
00000000
00000001
00000000
00000100
00000010
00000000
00000000
00011000
00000000
00001000
00000000
,
00100000
00001000
00000000
00000000
01100000
00000000
01000000
00000000
00100000
00010000
00000000
00000000
01010000
00000000
00010000
00000000
,
10010000
00000000
10000000
00000000
10100000
00000000
10000000
00000000
00100000
01000000
00000000
00000000
00011000
00000000
00010000
00000000
,
00000100
00010000
00000000
00000000
00000110
00000000
00000010
00000000
00000002
00000000
00000000
00000000
00001003
00000000
00000000
00000000
,
00000001
00000000
00000100
00001000
00000000
00000000
00010000
00000000
01000000
00000000
00100000
00000000
00001000
00000000
00000100
00000000
,
00000010
00000000
00000010
00001000
00000010
00000000
00000100
00000000
00001000
00000000
00010000
00000000
01000000
00000000
10000000
00010000
,
10000000
00100000
01100000
00100000
00010000
00011000
00010000
01000000
,
02100000
00000000
13000000
01000000
00100000
00010000
01000000
10010000
,
10000000
00000000
00100000
00000000
00010000
00000000
00001000
00000000
00000010
00000100
00000000
00000000
00010000
00000000
00100000
00000000
,
01000000
00000000
00000000
00000000
10010000
00000000
00000000
00000000
00010000
00100000
00001000
00000000
00010000
00000000
00000100
00000010
,
00000001
00000100
00000110
00000100
00001000
00011000
00001000
00000010
,
00000120
00000000
00000031
00010000
00001000
10000000
01100000
00000000
;

//---------------dance-double - Spork!----------------
#NOTEDATA:;
#CHARTNAME:;
#STEPSTYPE:dance-double;
#DESCRIPTION:Spork!;
#CHARTSTYLE:;
#DIFFICULTY:Challenge;
#METER:11;
#RADARVALUES:0.668,0.743,0.604,0.355,0.644,418.000,68.000,40.000,5.000,11.000,4.000,0.000,0.000,0.668,0.743,0.604,0.355,0.644,418.000,68.000,40.000,5.000,11.000,4.000,0.000,0.000;
#CREDIT:Spork!;
#NOTES:
// measure 0
00000000
00000000
00000000
00000000
,  // measure 1
00000000
00000000
00000000
00000000
,  // measure 2
00000000
00000000
00000000
00000000
,  // measure 3
00000000
00000000
00000000
00000000
,  // measure 4
11000000
00000000
01000000
10000000
00100000
00000000
01000000
00000000
00001000
00010000
00000000
01000000
00100000
00000000
00001000
00000000
,  // measure 5
00011000
00000000
00001000
00100000
00010000
00000000
00010000
01000000
00001000
00010000
00000000
00000100
00000010
00000000
00000001
00000000
,  // measure 6
00000101
00000000
00000100
00000001
00000010
00000000
00000100
00000000
00010000
00001000
00000000
00000100
00000010
00000000
00010000
00000000
,  // measure 7
00011000
00000000
00000000
00000000
00000000
00000000
00010000
00000000
00000000
00000010
00000000
00000000
00001000
00000000
00000000
00000000
00000000
00000000
00000100
00000000
00000000
00000000
00000000
00000000
00000010
00000000
00000100
00000000
00000010
00000000
00000000
00000000
00000000
00000001
00000000
00000000
00000100
00000000
00000000
00000000
00000000
00000000
00000010
00000000
00000000
00000000
00000000
00000000
,  // measure 8
00002002
00000000
00000000
00000000
00000010
00003000
00000000
00000000
,  // measure 9
00020000
00000000
00000000
00000000
00001000
00000003
00000000
00000000
,  // measure 10
00002000
00000000
00000000
00000000
00100000
00030000
00000000
00000000
,  // measure 11
20000000
00000000
00000000
00000000
00000000
00000000
00000000
00000000
00000000
00000000
00000000
00000000
30000000
00000000
00000000
00003000
00000000
00000000
00001000
00000000
00010000
00000000
00000100
00000000
,  // measure 12
00041000
00000000
00000000
00000000
00000000
00000000
00000000
00000000
00000000
00000000
00000000
00000000
00000000
00000000
00000000
00000000
00000000
00000000
00000000
00000000
00000000
00000000
00000000
00000000
00030100
00000000
00000000
00000000
00000000
00000000
00001000
00000000
00000000
00000001
00000000
00000000
00000000
00000000
00000000
00000000
00000000
00000000
00000100
00000000
00000010
00000000
00000100
00000000
,  // measure 13
00000010
00000000
00001000
00000001
00000100
00000010
00010000
00001000
00011000
00000000
00001000
00000000
00101000
00000000
00000000
00100000
,  // measure 14
01100000
00000000
01000000
10000000
01000000
00100000
00010000
01000000
00001000
01000000
00010000
00000000
10010000
00000000
01000000
00100000
,  // measure 15
10040000
00000000
00034000
00000000
00003001
00000110
00000010
00001000
,  // measure 16
00001004
00000000
00000000
00000000
00000000
00000000
00000000
00000000
00000000
00000000
00000000
00000000
00000000
00000000
00000000
00000000
00000000
00000000
00000000
00000000
00000000
00000000
00000000
00000000
00000000
00000000
00000000
00000000
00000000
00000000
00000000
00000000
00000000
00000000
00000000
00000000
00000000
00000000
00000000
00000000
00000000
00000000
00000000
00000000
00000000
00000000
00000000
00000000
00000013
00000000
00000000
00000100
00000000
00000000
00000000
00000000
00000000
00000000
00000000
00000000
00000000
00000000
00000000
00000000
00000000
00000000
00000000
00000000
00000000
00000000
00000000
00000000
00000010
00000000
00000000
00000100
00000000
00000000
00000000
00000000
00000000
00000000
00000000
00000000
00000000
00000000
00000000
00000000
00000000
00000000
00000000
00000000
00000000
00000000
00000000
00000000
00000010
00000000
00000000
00000100
00000000
00000000
00000000
00000000
00000000
00000000
00000000
00000000
00000000
00000000
00000000
00000000
00000000
00000000
00000000
00000000
00000000
00000000
00000000
00000000
00010000
00000000
00000000
00000000
00000000
00000000
00000000
00000000
00000000
00000000
00000000
00000000
00000000
00000000
00000000
00000000
00000000
00000000
00000000
00000000
00000000
00000000
00000000
00000000
00001000
00000000
00000000
00000000
00000000
00000000
00000000
00000000
00000000
00000000
00000000
00000000
00000000
00000000
00000000
00000000
00010000
00000000
00000000
00000000
00000000
00000000
00000000
00000000
00000000
00000000
00000000
00000000
00000000
00000000
00000000
00000000
00000010
00000000
00000000
00000000
00000000
00000000
00000000
00000000
00000000
00000000
00000000
00000000
00000000
00000000
00000000
00000000
,  // measure 17
00011000
00000000
00000000
01001000
00000000
00000000
00000000
00000000
00000000
00000000
00000000
00000000
00010000
00001000
00010000
00000100
00010000
00001000
00010000
00000000
00000000
00000000
00000000
00000000
,  // measure 18
00010100
00000000
00000000
00000000
00000000
00000000
00000100
00000000
00000000
00001000
00000000
00000000
00000010
00000000
00000000
00001000
00000000
00000000
00000001
00000000
00000000
00000100
00000000
00000000
00000010
00000000
00000100
00000000
00000010
00000000
00001000
00000000
00000010
00000000
00000100
00000000
00000010
00000000
00000000
00000000
00000000
00000000
00001000
00000000
00000000
00000100
00000000
00000000
,  // measure 19
00000110
00000000
00000000
00000000
00000000
00000000
00011000
00000000
00000000
00000000
00000000
00000000
01100000
00000000
00000000
10010000
00000000
00000000
10000000
00000000
00100000
00000000
01000000
00000000
,  // measure 20
20020000
00000000
00000000
00000000
00100000
00030000
00000000
00000000
,  // measure 21
00002000
00000000
00000000
00000000
00010000
30000000
00000000
00000000
,  // measure 22
00020000
00000000
00000000
00000000
00000010
00003000
00000000
00000000
,  // measure 23
00000002
00000000
00000000
00000000
00000000
00000000
00000000
00000000
00000003
00000000
00031000
00010000
00001000
00000000
00000000
00000000
,  // measure 24
00010000
00000000
00100100
00000000
00000000
00000000
00010001
00000000
00000000
00000000
00011000
00000000
00000000
00010010
00000000
00000000
,  // measure 25
01000010
00000000
00000000
00000000
10001000
00000000
00000000
00000000
00000000
00000000
00000000
00000000
00000000
00000000
01000000
00100000
02000000
00000000
00000000
00000000
00100000
00000000
00000000
00000000
03100000
00000000
00000000
00000000
00001000
00000000
00000000
00000000
,  // measure 26
00010000
00000000
00011000
00000000
00000000
00000000
00100100
00000000
00000000
00000000
00010001
00000000
00000000
10001000
00000000
00000000
,  // measure 27
00110000
00000000
00000000
00000000
01100000
00000000
00000000
00000000
00100000
00000000
00001000
00010000
00001000
00000000
00010000
00000000
00000010
00000000
00000000
00000000
00010000
00000000
00000000
00000000
00000000
00000000
00000000
00000000
00010000
00000000
00000000
00000000
,  // measure 28
00001000
00000000
00100100
00000000
00000000
00000000
10001000
00000000
00000000
00000000
00011000
00000000
00000000
01001000
00000000
00000000
,  // measure 29
01000010
00000000
00000000
00000000
00000000
00000000
00000000
00000000
00010001
00000000
00000000
00000000
00000000
00000000
00000000
00000000
00000000
00000000
00000000
00000000
00000000
00000000
00000000
00000000
00000001
00001000
00000000
00000000
00000000
00000000
00000000
00000000
00001000
00000010
00000000
00000000
00000000
00000000
00000000
00000000
00000000
00000000
00000000
00000000
00000010
00010000
00000000
00000000
00000000
00000000
00000000
00000000
00000000
00000000
00000000
00000000
00010000
00001000
00000000
00000000
00000000
00000000
00000000
00000000
,  // measure 30
00001000
00000000
00011000
00000000
00000000
00000000
00100100
00000000
00000000
00000000
10001000
00000000
00000000
00010001
00000000
00000000
,  // measure 31
00001100
00000000
00000000
00000000
00000110
00000000
00000000
00000000
00000100
00000000
00010000
00001000
00010000
00000000
00001000
00000000
01000000
00000000
00000000
00000000
00100000
00000000
00000000
00000000
00010000
00000000
00000000
00000000
00000000
00000000
00000000
00000000
,  // measure 32
00022000
00000000
00003000
00000000
,  // measure 33
00000000
00000000
00000000
00000000
,  // measure 34
00000000
00000000
00000000
00000000
,  // measure 35
00000000
00000000
00000000
00000000
00000000
00000000
00031000
00000100
00000010
00010000
01000000
00100000
,  // measure 36
10020000
00000000
01000000
00000000
10030000
00000000
00100000
00010000
00000000
00010000
00001000
00000000
00000010
00000000
00000110
00000000
,  // measure 37
00001002
00000000
00000103
00000010
00000100
00000000
00000001
00000000
00000120
00000000
00001030
00000001
00001000
00000000
00000010
00000000
,  // measure 38
00002001
00000000
00000100
00000000
00003001
00000000
00000010
00001000
00000000
00001000
00010000
00000000
00100000
00000000
01100000
00000000
,  // measure 39
20010000
00000000
31000000
00100000
01000000
00000000
10000000
00000000
01200000
00000000
00310000
00000000
10000000
00010000
00000000
00000000
,  // measure 40
10000000
01000000
00010000
00001000
00010000
00000000
00001000
00100000
00000000
00001000
00010000
00000000
00000010
00000000
00001000
00000000
,  // measure 41
00000001
00000100
00001000
00010000
00002000
00000000
01000000
00000000
10003000
00100000
00010000
00001000
00020000
00000000
00000100
00000000
,  // measure 42
00030001
00000010
00001000
00010000
00002000
00000000
00000000
00010000
00003000
00010000
00000010
00000000
00100000
00000000
00001000
00000000
,  // measure 43
02000200
00000000
00000000
00000000
00000000
00000000
00000000
00000000
00000000
00001000
00010000
00001000
00010000
00000000
00000000
00001000
00000000
00000000
03000300
00000000
00000000
00000000
00000000
00000000
,  // measure 44
00001000
00000000
00000000
00000000
00011000
00000000
00000000
00000000
00010100
00000000
00000000
00000000
00010000
00000000
00000100
00000000
00000010
0000000M
00000010
00000000
00001000
00000000
00000000
00000000
00001001
00000000
00000000
00000000
00000001
00000000
00000010
00000000
,  // measure 45
00000100
000M0000
00000100
00000000
00000001
00000000
00000000
00000000
00001001
00000000
00000000
00000000
00001000
00000000
00000010
00000000
00010000
00000M00
00010000
00000000
00100000
00000000
00000000
00000000
00101000
00000000
00000000
00000000
00001000
00000000
00000000
00000000
,  // measure 46
00010000
00000000
00000000
00000000
00011000
00000000
00000000
00000000
01001000
00000000
00000000
00000000
00001000
00000000
00100000
00000000
01000000
M0000000
01000000
00000000
00010000
00000000
00000000
00000000
10010000
00000000
00000000
00000000
10000000
00000000
01000000
00000000
,  // measure 47
00100000
00000000
00000000
00000000
00000000
00000000
0000M000
00000000
00000000
00000000
00000000
00000000
00100000
00000000
00000000
00000000
00000000
00000000
00000000
00000000
00000000
00000000
00000000
00000000
10000000
00000000
00000000
00000000
00000000
00000000
00000000
00000000
00000000
00000000
00000000
00000000
00000000
00000000
00000000
00000000
00000000
00000000
00000000
00000000
00000000
00000000
00000000
00000000
10010000
00000000
00000000
00000000
00000000
00000000
00000000
00000000
00000000
00000000
00000000
00000000
00000000
00000000
00000000
00000000
00000000
00000000
00000000
00000000
00000000
00000000
00000000
00000000
00010000
00000000
00000000
00000000
00000000
00000000
00000000
00000000
00100000
00000000
00000000
00000000
00000000
00000000
00000000
00000000
00010000
00000000
00000000
00000000
00000000
00000000
00000000
00000000
00100000
00000000
00000000
00000000
00000000
00000000
00000000
00000000
00000000
00000000
00000000
00000000
00000000
00000000
00000000
00000000
00000000
00000000
00000000
00000000
00000000
00000000
00000000
00000000
01000000
00000000
00000000
00000000
00000000
00000000
00000000
00000000
00000000
00000000
00000000
00000000
00100000
00000000
00000000
00000000
00000000
00000000
01000000
00000000
00000000
00000000
00000000
00000000
00100000
00000000
00000000
00000000
00000000
00000000
00000000
00000000
00000000
00000000
00000000
00000000
00010000
00000000
00000000
00000000
00000000
00000000
00000000
00000000
00000000
00000000
00000000
00000000
10000000
00000000
00000000
00000000
00000000
00000000
00000000
00000000
00000000
00000000
00000000
00000000
00100000
00000000
00000000
00000000
00000000
00000000
00000000
00000000
00000000
00000000
00000000
00000000
,  // measure 48
01000000
00000000
00000000
00002000
00000000
00000000
00020000
00000000
00000000
00000000
00003000
00000000
00030100
00000000
00000000
00000100
,  // measure 49
00001000
00000000
00000000
00000010
00000000
00000000
00000100
00000000
00000010
00000000
00000100
00000000
00000020
00000000
00000000
00000000
00000000
00000000
00000000
00000000
00000000
00000000
00000000
00000000
00001030
00000000
00000100
00000000
00001000
00000000
00000001
00000000
00001000
00000000
00000100
00000000
00001000
00000000
00000000
00000010
00000000
00000000
00010000
00000000
00000000
00001000
00000000
00000000
,  // measure 50
01000000
00002000
00003200
00000310
00020000
00230000
01300000
00002000
,  // measure 51
00023000
00000000
00000000
00000000
00000000
00000000
01030000
00000000
00000000
00000000
00000000
00000000
10000000
00000000
00000000
00000000
00000000
00000000
00010000
00000000
00100000
00000000
00010000
00000000
10000000
00000000
00010000
00000000
00100000
00000000
00010000
00000000
01000000
00000000
00010000
00000000
10000000
00000000
00000000
00100000
00000000
00000000
01000000
00000000
00000000
00010000
00000000
00000000
,  // measure 52
00100000
00000000
01100000
00000000
00110000
00000000
00010000
00000000
10000000
00100000
00000000
00100000
00010000
00001000
00010000
00001000
,  // measure 53
00000020
00000000
00000000
00000000
00000001
00000000
00000000
00000000
00000130
00000000
00000000
00000000
00000000
00000000
00000000
00000000
00000010
00000000
00000100
00000000
00001000
00000000
00000001
00000000
00001000
00000001
00001000
00000000
00000001
00000000
00000100
00000000
,  // measure 54
00000010
00020000
00230000
01300000
00002000
00003200
00000310
00020000
,  // measure 55
00032000
00000000
00000000
00000000
00000000
00000000
00003000
00000000
00000000
00000000
00000000
00000000
00011000
00000000
00000000
00000000
00000000
00000000
00001000
00000000
00010000
00000000
00001000
00000000
01000000
00000000
00001000
00000000
00010000
00000000
00001000
00000000
00000000
00100000
00000000
00000000
00011000
00000000
00000000
00000000
00000000
00000000
00000000
00000000
00000000
00000000
00000000
00000000
;
